#TITLE:Lunatic Tears...;
#SUBTITLE:11eyes PC Opening Theme;
#ARTIST:Tatsh feat. 彩音;
#TITLETRANSLIT:;
#SUBTITLETRANSLIT:;
#ARTISTTRANSLIT:Tatsh feat. AYANE;
#CREDIT:;
#BANNER:Lunatic Tears.png;
#BACKGROUND:Lunatic Tears.png;
#LYRICSPATH:Lunatic Tears.lrc;
#CDTITLE:;
#MUSIC:Lunatic Tears.MP3;
#OFFSET:-0.644;
#SAMPLESTART:102.768;
#SAMPLELENGTH:12.000;
#SELECTABLE:YES;
#BPMS:0.000=176.000;
#STOPS:297.500=0.170
;
#BGCHANGES:;

//---------------dance-single - ----------------
#NOTES:
     dance-single:
     :
     Hard:
     14:
     0.815,0.973,0.819,0.250,0.080: // measure 1
0000
0100
0000
1000
0100
0010
0100
0001
,  // measure 2
0000
0100
1000
0000
0100
0010
0100
0101
,  // measure 3
0000
1000
0010
0100
0010
0110
0000
1000
,  // measure 4
0010
0110
0000
1000
0010
0100
0010
0101
,  // measure 5
0000
1000
0010
0100
0010
0100
0000
0110
,  // measure 6
0000
1000
0010
0100
0001
0100
0000
1020
,  // measure 7
0000
1030
1002
0000
0103
0010
0210
0000
,  // measure 8
0310
0000
0010
0000
0012
0000
0103
1000
0010
0000
1100
0000
0011
0000
0110
0000
,  // measure 9
0000
1000
0010
0000
0100
0010
1000
0110
,  // measure 10
0000
1000
0010
0000
0100
0010
0000
1001
,  // measure 11
0000
0110
0000
0010
0001
0011
0000
0010
,  // measure 12
0000
0110
0100
0010
1000
0010
0000
0110
,  // measure 13
0000
0110
0000
1000
0100
0010
0000
0100
,  // measure 14
0010
0000
0120
0000
1030
0010
0100
0120
,  // measure 15
0000
1030
0102
0000
0013
0100
0120
0000
,  // measure 16
0130
0010
0210
0000
1300
0100
0010
0101
,  // measure 17
0000
1010
0000
0100
0010
0110
1000
0010
,  // measure 18
0100
0110
1000
0010
0100
0001
0000
1000
,  // measure 19
0000
0000
0100
0000
0000
0000
1000
0010
0100
1000
0010
0001
0100
1000
0001
0010
,  // measure 20
0100
1000
0010
0001
1000
0100
0010
0001
0100
0010
0001
0010
0100
1000
1001
0000
,  // measure 21
0000
0110
0000
1000
0010
0110
0000
1001
,  // measure 22
0000
0110
0000
0001
0010
0011
0000
0100
,  // measure 23
0010
0110
0000
1000
0100
2100
0000
3100
,  // measure 24
0010
0210
0000
0310
0001
0021
0030
0011
,  // measure 25
0000
0011
0000
0100
0010
0110
0000
1000
,  // measure 26
0100
0110
0000
1000
0100
0110
0000
1000
,  // measure 27
0100
0110
0001
0010
0001
0011
0100
0010
,  // measure 28
0100
0110
1000
0100
1000
1100
0100
0010
,  // measure 29
0100
0000
0110
0000
0001
0000
1000
0000
0100
0000
1001
0000
0000
0000
0100
0001
,  // measure 30
0010
0000
0100
0010
0001
0000
1000
0000
0100
0001
0010
0000
0001
0000
1000
0000
,  // measure 31
0010
0000
0100
0000
0010
0000
1000
0000
0001
0010
0100
0000
1000
0000
0110
0000
,  // measure 32
0000
0100
0010
0000
0010
0010
0001
0000
,  // measure 33
0100
0010
0100
0010
1000
0100
0000
1000
,  // measure 34
0000
1000
0100
0010
0100
0001
1000
0100
,  // measure 35
0010
0001
0010
0001
0010
0001
0010
0001
,  // measure 36
0000
0001
0000
0001
1000
0010
0100
1000
,  // measure 37
0100
0010
0100
0010
0100
0010
1000
1000
,  // measure 38
0000
1000
0000
1000
0100
0010
0100
0001
,  // measure 39
1000
0100
0010
0001
1000
0010
0100
1001
,  // measure 40
0000
0000
1001
0000
0000
0000
0100
0001
0010
1000
0100
0001
0010
0000
1000
0000
,  // measure 41
0000
0001
0000
0100
0010
1000
0010
0101
,  // measure 42
0000
0101
0000
0101
0000
1000
0010
1010
,  // measure 43
0000
1010
0000
2020
0000
3000
0030
0101
,  // measure 44
0000
1010
0000
0100
0010
0100
0010
0110
,  // measure 45
0000
1000
0010
0100
0001
0100
0000
0110
,  // measure 46
0000
0100
1000
0010
0100
0101
1000
0010
,  // measure 47
0100
0110
0000
0100
0010
0100
0010
0110
,  // measure 48
0000
1000
0010
0100
0010
1000
0001
0011
,  // measure 49
0100
0010
0100
0010
1000
0001
0100
2100
,  // measure 50
0000
3100
0210
0000
0310
0001
0012
0000
,  // measure 51
0013
0100
0120
0000
1030
0100
0010
0110
,  // measure 52
0000
0100
0010
1000
0010
0100
0001
0101
,  // measure 53
0000
1000
0010
0100
0010
1000
0000
1100
,  // measure 54
0000
1000
0010
0100
0010
0101
0100
0010
,  // measure 55
0100
0000
0100
0000
0100
0010
0100
0110
,  // measure 56
0000
1000
0000
0100
1000
1100
0000
0100
,  // measure 57
0010
0100
0010
0001
0010
0001
0010
0002
,  // measure 58
0000
0013
0200
0000
0310
1000
0020
0000
,  // measure 59
0130
0010
0000
0100
0010
0110
0100
0001
,  // measure 60
0002
0100
0003
0010
1000
0010
0100
0010
,  // measure 61
1000
0010
0100
0010
1000
0001
0100
1000
,  // measure 62
0100
0000
0010
0000
0001
0000
0010
0000
0100
0000
1000
0001
0100
0000
0010
0000
,  // measure 63
0100
0010
0100
0001
0110
1000
0100
0011
,  // measure 64
0000
0110
0000
1000
0010
0100
0010
0110
,  // measure 65
0000
1000
0010
0100
0010
1000
0001
0101
,  // measure 66
0000
0100
0010
0100
0010
0110
1000
0100
,  // measure 67
0010
0000
0100
0010
0100
0010
0100
0110
,  // measure 68
0000
0001
0000
0010
0001
0010
0100
0010
,  // measure 69
0100
0010
0100
1000
0100
0010
0001
0102
,  // measure 70
0000
0013
0120
0000
1030
0010
0210
0000
,  // measure 71
1300
0010
0110
1000
0100
0010
0001
2000
,  // measure 72
0000
3010
0000
0100
0001
0100
0020
0000
,  // measure 73
1030
0000
0001
0100
0010
1000
0100
0010
,  // measure 74
0001
0010
0100
1000
0100
0010
0001
0100
,  // measure 75
0010
0100
0010
0220
0330
0000
1001
0000
,  // measure 76
0110
0000
1000
0100
0010
0100
0110
0000
,  // measure 77
1000
0100
0010
0100
0001
0100
0101
0000
,  // measure 78
0100
0010
0100
0010
0100
0010
0110
0000
,  // measure 79
1000
0100
0010
0100
0010
0100
1001
0000
,  // measure 80
0100
0010
0100
0010
0100
0010
1001
0000
,  // measure 81
0100
0010
0100
0001
0100
0010
1000
0000
,  // measure 82
0010
0200
0000
0301
1000
0020
0000
0130
,  // measure 83
0001
1000
0010
0100
0010
0100
0110
0000
,  // measure 84
0100
0010
0100
0010
1000
0010
0110
0000
,  // measure 85
1000
0010
0100
0001
0010
0001
0011
0000
,  // measure 86
0100
0010
1000
0010
1100
0000
0100
0010
,  // measure 87
0110
0000
1000
0100
0010
0001
0011
0000
,  // measure 88
0100
0010
0100
0010
0110
0000
1000
0100
,  // measure 89
0010
0100
0001
0010
0001
0010
0011
0000
,  // measure 90
0010
0110
0000
1000
0100
1100
0000
0100
,  // measure 91
0010
0100
0010
0100
0001
1100
2002
0000
,  // measure 92
0000
0000
0000
0000
,  // measure 93
0000
0000
0000
0000
,  // measure 94
0000
0000
0000
0000
,  // measure 95
0000
0000
0000
0000
,  // measure 96
0000
3003
0000
0000
0000
0000
0000
0000
;

//---------------dance-single - ----------------
#NOTES:
     dance-single:
     :
     Easy:
     6:
     0.250,0.432,0.243,0.167,0.000: // measure 1
0000
1100
0000
0000
0000
0100
0000
0110
,  // measure 2
0000
0000
0000
0000
0000
0010
0000
1001
,  // measure 3
0000
0000
0000
0000
0000
0010
0000
0110
,  // measure 4
0000
0000
0000
0000
0000
1000
0000
1001
,  // measure 5
0000
0000
0000
0000
0000
0010
0000
0110
,  // measure 6
0000
0000
0000
0000
0000
0000
0000
1001
,  // measure 7
0000
0110
0000
0110
,  // measure 8
0000
0000
0000
0000
0000
0000
0000
0100
,  // measure 9
0000
0000
0100
0000
0000
0000
0000
0020
,  // measure 10
0000
0030
0010
0000
0000
0100
0000
2000
,  // measure 11
0000
0000
0000
0000
0000
3000
0000
0010
,  // measure 12
0000
0000
0100
0000
0000
0001
0000
0001
,  // measure 13
0000
0000
0000
0000
0000
0000
0000
1000
,  // measure 14
0010
0000
0100
0000
0000
0000
0000
0010
,  // measure 15
0000
0010
0000
1000
,  // measure 16
0000
0001
1000
0002
,  // measure 17
0000
0000
0000
0000
,  // measure 18
0003
0000
0000
0100
0000
0000
1000
0000
,  // measure 19
0010
0200
0000
0000
0000
0000
0000
0000
,  // measure 20
0000
0000
0000
0000
0000
0000
0000
0300
,  // measure 21
0000
0000
0000
1000
0000
0000
0000
0001
,  // measure 22
0000
0000
0000
0100
0000
0000
0000
0010
,  // measure 23
0000
1001
0000
0000
0000
0100
0000
0110
,  // measure 24
0000
0000
0000
0001
0000
0001
0000
1001
,  // measure 25
0000
0000
0000
0010
0000
0100
0000
0110
,  // measure 26
0000
0000
0000
1000
0000
0000
0000
0001
,  // measure 27
0000
1001
0000
0100
0000
0110
0000
1000
,  // measure 28
0000
1001
0000
0100
0000
0101
0000
1000
,  // measure 29
0000
1010
0000
0100
0000
0101
0000
1000
,  // measure 30
0100
0000
0000
0100
0000
0010
0000
1000
,  // measure 31
0000
0001
0000
0100
0000
0010
0000
2000
,  // measure 32
0000
0000
0000
0000
,  // measure 33
0000
0000
0000
0000
0000
0000
3000
0002
,  // measure 34
0000
0000
0000
0000
,  // measure 35
0000
0000
0000
0000
0000
0003
0000
0200
,  // measure 36
0000
0000
0000
0000
,  // measure 37
0000
0000
0000
0000
0000
0300
0000
0020
,  // measure 38
0000
0000
0000
0000
,  // measure 39
0000
0000
0000
0000
0000
0030
0000
1000
,  // measure 40
0000
0100
0000
0010
0000
0110
0000
1000
,  // measure 41
0000
0001
0000
0100
0000
0000
0000
1000
,  // measure 42
0000
0001
0000
2000
0000
3000
0000
0001
,  // measure 43
0000
0100
0000
1000
0000
0000
0000
0100
,  // measure 44
0000
0000
0100
0000
0000
0000
0000
1000
,  // measure 45
0000
0000
0001
0000
0000
0100
0000
0020
,  // measure 46
0000
0000
0000
0000
0000
0030
0000
1000
,  // measure 47
0000
0000
0001
0000
0000
0100
0000
0010
,  // measure 48
0000
0000
1000
0000
0000
0000
0000
0100
,  // measure 49
0000
0000
0100
0000
0000
0000
0000
1000
,  // measure 50
0000
1000
0000
1000
,  // measure 51
0000
0000
1000
0000
0000
0000
0000
0010
,  // measure 52
0000
0000
1000
0000
0000
0000
0000
0100
,  // measure 53
0000
0000
0010
0000
0000
0100
0000
2002
,  // measure 54
0000
0000
0000
0000
0000
0000
0000
3003
,  // measure 55
0000
0000
0000
0000
0000
0100
0000
1001
,  // measure 56
0000
0000
0000
0010
0000
0000
0000
1000
,  // measure 57
0000
0000
0000
0000
0000
0000
0000
1001
,  // measure 58
0000
0110
0000
1000
,  // measure 59
0100
0010
0001
0200
,  // measure 60
0000
0000
0000
0000
,  // measure 61
0300
0000
0000
0100
0000
0000
1000
0000
,  // measure 62
0000
0200
0000
0000
0000
0000
0000
0000
,  // measure 63
0000
0000
0000
0000
0000
0300
0000
1000
,  // measure 64
0000
0000
0100
0000
0000
0000
0000
0010
,  // measure 65
0000
0000
0001
0000
0000
0010
0000
2000
,  // measure 66
0000
0000
0000
0000
0000
3000
0000
0100
,  // measure 67
0000
0000
0000
0000
0000
1000
0000
1001
,  // measure 68
0000
0000
0000
0010
0000
0000
0000
1000
,  // measure 69
0000
0000
0001
0000
0000
0000
0000
0100
,  // measure 70
0000
0010
0000
1000
,  // measure 71
0000
0000
0010
0000
0000
0100
0000
0010
,  // measure 72
0000
0000
0000
0000
,  // measure 73
0000
0000
0000
1000
0000
0000
0000
0001
,  // measure 74
0000
0000
0000
0100
0000
0000
0000
0010
,  // measure 75
0000
0000
0000
1000
0000
0000
0110
0000
,  // measure 76
0000
1000
0000
0000
0000
0000
0100
0000
,  // measure 77
0000
0010
0000
0000
1000
0000
2002
0000
,  // measure 78
0000
0000
0000
0000
,  // measure 79
0000
0000
3003
0200
,  // measure 80
0000
0000
0000
0310
,  // measure 81
0000
1000
0000
1001
,  // measure 82
0000
0110
0000
0000
0000
1100
0000
0000
,  // measure 83
0000
0100
0010
1000
,  // measure 84
0000
0100
0000
0000
0000
0000
0100
0000
,  // measure 85
0000
0010
0000
0000
1000
0000
2002
0000
,  // measure 86
0000
0000
0000
0000
,  // measure 87
0000
0000
3003
0100
,  // measure 88
0000
0000
0010
1000
,  // measure 89
0000
0000
0000
0010
,  // measure 90
0000
1000
0000
0000
0000
0010
0000
0000
,  // measure 91
0000
0100
0000
0000
0010
0000
2002
0000
,  // measure 92
0000
0000
0000
0000
,  // measure 93
0000
0000
0000
0000
,  // measure 94
0000
0000
0000
0000
,  // measure 95
0000
0000
0000
0000
,  // measure 96
3003
0000
0000
0000
;

//---------------dance-single - ----------------
#NOTES:
     dance-single:
     :
     Medium:
     8:
     0.553,0.576,0.546,0.038,0.000: // measure 1
0000
0000
0000
0000
0000
0010
0000
0000
,  // measure 2
0000
0010
0000
1000
0000
0010
0000
0101
,  // measure 3
0000
0010
0000
0100
0000
0110
0000
1000
,  // measure 4
0000
0100
0000
0010
0000
0100
0000
0101
,  // measure 5
0000
0100
0000
0010
0000
0110
0000
1000
,  // measure 6
0000
1100
0000
0100
0000
0110
0000
0110
,  // measure 7
0000
0010
0011
0000
0010
0100
0110
0000
,  // measure 8
0100
0010
0110
0000
1000
0100
0000
0010
,  // measure 9
0000
1000
0001
0000
0100
0010
0000
1000
,  // measure 10
0000
0001
0100
0000
1000
0100
0010
0101
,  // measure 11
0000
0100
0010
0000
0100
0010
0100
0001
,  // measure 12
0100
0000
0010
0000
1000
0100
0000
0110
,  // measure 13
0000
0001
0000
0010
0000
0100
0000
1000
,  // measure 14
0100
0000
0010
0000
0000
0100
0000
0101
,  // measure 15
0000
0100
0110
0000
1000
0010
0110
0000
,  // measure 16
1000
0001
0101
0000
1000
0010
0100
0010
,  // measure 17
0000
1000
0000
0100
0010
1000
0001
0000
,  // measure 18
0000
0100
0000
0010
1000
0000
0001
0000
,  // measure 19
0100
0010
0000
1000
0001
0100
0000
0010
,  // measure 20
1000
0001
0000
1000
0010
0001
0000
0101
,  // measure 21
0000
0010
0000
1000
0010
0100
0000
0001
,  // measure 22
0000
1000
0000
1000
0010
0100
0000
0001
,  // measure 23
0000
1001
0000
0100
0000
0110
0000
1000
,  // measure 24
0000
1001
0000
0100
0010
0110
0000
1000
,  // measure 25
0000
0001
0000
1000
0000
0010
0000
0100
,  // measure 26
0000
0010
0000
0001
0000
1000
0000
0010
,  // measure 27
0000
0101
0000
1000
0000
1010
0000
0100
,  // measure 28
0000
0110
0000
1000
0000
1001
0000
0100
,  // measure 29
0000
0110
0000
0100
0000
0101
0000
1000
,  // measure 30
0010
0100
0001
1000
0100
0010
0001
0010
,  // measure 31
0100
1000
0100
0010
1000
0001
0100
0010
,  // measure 32
0000
1000
0010
0000
0100
0001
0100
0000
,  // measure 33
0010
0100
0010
0000
0100
0001
0000
1000
,  // measure 34
0000
0100
0010
0000
1000
0001
0100
0000
,  // measure 35
0010
0000
1000
0000
0100
0001
0000
1000
,  // measure 36
0000
0010
0100
0000
1000
0100
0010
0000
,  // measure 37
0001
0000
0010
0000
0100
1000
0000
1000
,  // measure 38
0000
1000
0001
0000
0100
0000
0010
0000
,  // measure 39
1000
0001
0100
0002
,  // measure 40
0000
0000
0000
0000
,  // measure 41
0003
0000
0000
0000
0000
0000
0000
1001
,  // measure 42
0000
1001
0000
1001
0000
0000
0000
0110
,  // measure 43
0000
0110
0000
0110
0000
1000
0100
0010
,  // measure 44
0000
0000
0100
0000
0000
0010
1000
0010
,  // measure 45
0000
0100
0001
0000
1000
0100
0000
0002
,  // measure 46
0000
0000
0000
0003
0000
0000
0100
0010
,  // measure 47
0100
0000
1000
0000
0100
0010
0000
1000
,  // measure 48
0000
0100
0010
0000
1000
0001
0100
0010
,  // measure 49
0000
1000
0100
0000
0000
0010
0000
1001
,  // measure 50
0000
0100
0110
0000
1000
0001
1001
0000
,  // measure 51
0100
0010
0110
0000
1000
0010
0000
1000
,  // measure 52
0000
0001
0100
0000
0010
1000
0010
0100
,  // measure 53
0000
0010
1000
0000
0100
0010
0000
2000
,  // measure 54
0000
0001
0000
0000
0000
3001
0000
0100
,  // measure 55
0010
1000
0001
0100
0010
1000
0000
1000
,  // measure 56
0000
1100
0000
0100
0010
0100
0000
0010
,  // measure 57
0001
0000
0010
0000
0100
0001
0000
0101
,  // measure 58
0000
1000
1010
0000
1000
0001
1001
0000
,  // measure 59
0100
0010
0110
0000
1000
0100
0010
0001
,  // measure 60
0000
0100
0000
0010
0100
0001
1000
0000
,  // measure 61
0000
0100
0000
1000
0100
0000
0010
0000
,  // measure 62
1000
0001
0000
0100
0010
1000
0000
0001
,  // measure 63
0100
0000
0010
1000
0001
0100
0000
1001
,  // measure 64
0000
0110
0000
1000
0100
0010
0000
1000
,  // measure 65
0000
0001
0100
0000
0010
1000
0000
1001
,  // measure 66
0000
0100
0010
0000
1000
0010
0100
0001
,  // measure 67
1000
0000
0100
0000
0010
1000
0000
0101
,  // measure 68
0000
1000
0000
0010
0000
0100
0000
1000
,  // measure 69
0100
0000
0010
0000
0100
0001
0000
0101
,  // measure 70
0000
0010
0110
0000
1000
0010
1010
0000
,  // measure 71
0100
0001
0101
0000
1000
0010
0100
0001
,  // measure 72
0000
1000
0000
1000
0100
0010
0001
0000
,  // measure 73
0100
0010
1000
0001
0000
0000
0100
0000
,  // measure 74
0010
1000
0000
0001
0100
0000
0010
1000
,  // measure 75
0001
0100
0010
0100
0000
1000
0000
0000
,  // measure 76
0100
0000
0010
1000
0010
0100
0001
0000
,  // measure 77
1000
0100
0000
0010
0100
0000
0101
0000
,  // measure 78
1010
0000
0100
0010
0110
0000
1000
0001
,  // measure 79
1001
0000
0010
0100
0110
0000
1001
0000
,  // measure 80
0110
0000
1000
0100
0110
0000
0100
0000
,  // measure 81
0001
0100
0010
1001
,  // measure 82
0010
0110
0000
1000
0001
1001
0000
0100
,  // measure 83
0010
0110
0000
1000
0001
0000
1001
0000
,  // measure 84
0000
0010
0000
0100
0001
1000
0010
0000
,  // measure 85
0000
0001
0000
1000
0010
0000
1001
0000
,  // measure 86
0010
0000
0000
0100
0001
0000
1010
0000
,  // measure 87
0101
0000
0000
0010
0100
0000
0001
0000
,  // measure 88
1000
0010
0100
0001
,  // measure 89
1000
0010
0100
1001
,  // measure 90
0000
0110
0000
0000
1001
0000
0000
0000
,  // measure 91
0000
0110
1001
0220
,  // measure 92
0000
0000
0000
0000
,  // measure 93
0000
0000
0000
0000
,  // measure 94
0000
0000
0000
0000
,  // measure 95
0000
0000
0000
0000
,  // measure 96
0000
0330
0000
0000
0000
0000
0000
0000
0000
0000
0000
0000
0000
0000
0000
0000
0000
0000
0000
0000
0000
0000
0000
0000
0000
0000
0000
0000
0000
0000
0000
0000
0000
0000
0000
0000
0000
0000
0000
0000
0000
0000
0000
0000
0000
0000
0000
0000
0000
0000
0000
0000
0000
0000
0000
0000
0000
0000
0000
0000
0000
0000
0000
0000
0000
0000
0000
0000
0000
0000
0000
0000
0000
0000
0000
0000
0000
0000
0000
0000
0000
0000
0000
0000
0000
0000
0000
0000
0000
0000
0000
0000
0000
0000
0000
0000
0000
0000
0000
0000
0000
0000
0000
0000
0000
0000
0000
0000
0000
0000
0000
0000
0000
0000
0000
0000
0000
0000
0000
0000
0000
0000
0000
0000
0000
0000
0000
0000
0000
0000
0000
0000
0000
0000
0000
0000
0000
0000
0000
0000
0000
0000
0000
0000
0000
0000
0000
0000
0000
0000
0000
0000
0000
0000
0000
0000
0000
0000
0000
0000
0000
0000
0000
0000
0000
0000
0000
0000
0000
0000
0000
0000
0000
0000
0000
0000
0000
0000
0000
0000
0000
0000
0000
0000
0000
0000
0000
0000
0000
0000
0000
0000
;

//---------------dance-single - Copied from----------------
#NOTES:
     dance-single:
     Copied from:
     Beginner:
     2:
     0.131,0.216,0.144,0.061,0.000: // measure 1
0000
0000
0000
0000
0000
0000
0000
1000
,  // measure 2
0000
0000
0000
0000
0000
0000
0000
1000
,  // measure 3
0000
0000
0000
0000
0000
0000
0000
0001
,  // measure 4
0000
0000
0000
0000
0000
0000
0000
0100
,  // measure 5
0000
0000
0000
0000
0000
0000
0000
0010
,  // measure 6
0000
0000
0000
0000
0000
0000
0000
1001
,  // measure 7
0000
0000
0000
0000
,  // measure 8
0000
0000
0000
0000
0000
0000
0000
1000
,  // measure 9
0000
0000
0000
0000
0000
0000
0000
0001
,  // measure 10
0000
0000
0000
0000
0000
1000
0000
2000
,  // measure 11
0000
0000
0000
0000
0000
0000
0000
3000
,  // measure 12
0000
0000
0000
0000
0000
0001
0000
0001
,  // measure 13
0000
0000
0000
0000
0000
0100
0000
0100
,  // measure 14
0000
0000
0000
0000
0000
0000
0000
1001
,  // measure 15
0000
0000
0000
0000
0000
0000
0000
0110
,  // measure 16
0000
0000
0000
0000
0000
0000
0000
1001
,  // measure 17
0000
0000
0000
0000
0000
0000
0000
1000
,  // measure 18
0000
0000
0000
0000
0000
0000
0000
0001
,  // measure 19
0000
0000
0000
0000
0000
0000
0000
0001
,  // measure 20
0000
0000
0000
0000
0000
0000
0000
1000
,  // measure 21
0000
0000
0000
0000
0000
0000
0000
0100
,  // measure 22
0000
0000
0000
0000
0000
0000
0000
0010
,  // measure 23
0000
0000
0000
0000
0000
0000
0000
0001
,  // measure 24
0000
0000
0000
0100
0000
0000
0000
1000
,  // measure 25
0000
0000
0000
0000
0000
0000
0000
0001
,  // measure 26
0000
0000
0000
0000
0000
0000
0000
1000
,  // measure 27
0000
0000
0000
0000
0000
0000
0000
0100
,  // measure 28
0000
0000
0000
0000
0000
0000
0000
0010
,  // measure 29
0000
0000
0000
0000
0000
0000
0000
1000
,  // measure 30
0000
0000
0000
0000
0000
0000
0000
0001
,  // measure 31
0000
0000
0000
0000
0000
0000
0000
1001
,  // measure 32
0000
0000
0000
0000
,  // measure 33
0000
0000
0000
0000
0000
0000
0000
1000
,  // measure 34
0000
0000
0000
0000
,  // measure 35
0000
0000
0000
0000
0000
0000
0000
0001
,  // measure 36
0000
0000
0000
0000
,  // measure 37
0000
0000
0000
0000
0000
0000
0000
0100
,  // measure 38
0000
0000
0000
0000
,  // measure 39
0000
0000
0000
0000
0000
0000
0000
0010
,  // measure 40
0000
0000
0000
0000
0000
0000
0000
1001
,  // measure 41
0000
0000
0000
0000
0000
0000
0000
1000
,  // measure 42
0000
1000
0000
1000
0000
0000
0000
0001
,  // measure 43
0000
0001
0000
0001
0000
0000
0000
1001
,  // measure 44
0000
0000
0000
0000
0000
0000
0000
1001
,  // measure 45
0000
0000
0000
0000
0000
0000
0000
1001
,  // measure 46
0000
0000
0000
0000
0000
0000
0000
1000
,  // measure 47
0000
0000
0000
0000
0000
0000
0000
0010
,  // measure 48
0000
0000
0000
0000
0000
0000
0000
1000
,  // measure 49
0000
0000
0000
0000
0000
0000
0000
1001
,  // measure 50
0000
0000
0000
1001
,  // measure 51
0000
0000
0000
0000
0000
0000
0000
1000
,  // measure 52
0000
0000
0000
0000
0000
0000
0000
1000
,  // measure 53
0000
0000
0000
0000
0000
0000
0000
0020
,  // measure 54
0000
0000
0000
0030
,  // measure 55
0000
0000
0000
0000
0000
0000
0000
0100
,  // measure 56
0000
0000
0000
0000
0000
0000
0000
0010
,  // measure 57
0000
0000
0000
0000
0000
0000
0000
0001
,  // measure 58
0000
0000
0000
0000
,  // measure 59
0000
0000
0000
0000
0000
0000
0000
1000
,  // measure 60
0000
0000
0000
0000
0000
0000
0000
0001
,  // measure 61
0000
0000
0000
0000
0000
0000
0000
0010
,  // measure 62
0000
0000
0000
0000
,  // measure 63
0000
0000
0000
0000
0000
0000
0000
1001
,  // measure 64
0000
0000
0000
0000
0000
0000
0000
0010
,  // measure 65
0000
0000
0000
0000
0000
0000
0000
2002
,  // measure 66
0000
0000
0000
0000
3000
0003
0000
0000
,  // measure 67
0000
0000
0000
0000
0000
0100
0000
0100
,  // measure 68
0000
0000
0000
0000
0000
0000
0000
0010
,  // measure 69
0000
0010
0000
0010
0000
0000
0000
0001
,  // measure 70
0000
0000
0000
0000
0000
0000
0000
1000
,  // measure 71
0000
0000
0000
0000
0000
0000
0000
1000
,  // measure 72
0000
0000
0000
0000
0000
0000
0000
0001
,  // measure 73
0000
0000
0000
0000
0000
0000
0000
0100
,  // measure 74
0000
0000
0000
0000
,  // measure 75
0000
0000
0000
1001
0000
0000
0100
0000
,  // measure 76
0000
0000
0000
1000
,  // measure 77
0000
0000
0100
0200
,  // measure 78
0000
0000
0000
0000
,  // measure 79
0000
0000
0000
0300
,  // measure 80
0000
0000
1000
1001
,  // measure 81
0000
0000
0000
1001
,  // measure 82
0000
0110
0000
0000
0000
0000
1000
0000
,  // measure 83
0000
0100
0010
0001
,  // measure 84
0000
0000
0000
1000
,  // measure 85
0000
0000
1000
2000
,  // measure 86
0000
0000
0000
0000
,  // measure 87
0000
0000
0000
0000
0000
0000
0000
3000
,  // measure 88
0000
0000
0000
0001
,  // measure 89
0000
0000
0000
1000
,  // measure 90
0000
0000
0000
1001
,  // measure 91
0000
0000
0000
2002
,  // measure 92
0000
0000
0000
0000
,  // measure 93
0000
0000
0000
0000
,  // measure 94
0000
0000
0000
0000
,  // measure 95
0000
0000
0000
0000
,  // measure 96
3003
0000
0000
0000
;
