#TITLE:F.D.D;
#SUBTITLE:Chaos Head Opening Theme;
#ARTIST:Itou Kanako;
#TITLETRANSLIT:;
#SUBTITLETRANSLIT:;
#ARTISTTRANSLIT:;
#GENRE:;
#CREDIT:;
#BANNER:F.D.D..png;
#BACKGROUND:F.D.D.-bg.png;
#LYRICSPATH:;
#CDTITLE:;
#MUSIC:F.D.D..mp3;
#OFFSET:-1.140;
#SAMPLESTART:0.050;
#SAMPLELENGTH:12.000;
#SELECTABLE:YES;
#BPMS:0.000=165.000
,42.500=330.000
,50.500=165.000
,142.000=82.500
,144.000=165.000
;
#STOPS:8.500=0.182,
9.000=0.182,
10.000=0.182,
97.000=0.182
;
#BGCHANGES:0.000=F.D.D..avi=1.000=0=0=0=StretchNoLoop====,
99999=-nosongbg-=1.000=0=0=0 // don't automatically add -songbackground-
;
#KEYSOUNDS:;
#ATTACKS:;

//---------------dance-single - ----------------
#NOTES:
     dance-single:
     :
     Hard:
     14:
     0.575,0.600,0.180,0.285,0.058,337.000,17.000,27.000,0.000,0.000,0.000,0.575,0.600,0.180,0.285,0.058,337.000,17.000,27.000,0.000,0.000,0.000:
0000
0000
0000
0000
,
0000
0000
0000
0000
,
1000
0110
0110
1100
0011
0100
0010
0100
,
0000
0001
1000
0001
1000
0001
1000
0001
,
0000
0000
1000
0000
0010
0000
0100
0000
0010
0100
2000
0000
0000
0000
0001
0000
,
0000
0001
0000
0001
3000
0002
0000
0100
,
0000
0100
1000
0100
1000
0103
0000
1000
,
0010
0000
0100
0000
0010
1000
0100
0000
0000
0000
1000
0000
0100
0000
0010
0000
,
0001
0000
0010
0000
0100
1000
0010
0000
0100
0000
2000
0000
0000
0000
0001
0000
,
0000
0001
0000
0001
3000
0002
0000
0100
,
0000
0100
0000
0100
0003
2002
0000
0000
,
0000
0000
0000
0000
,
0000
0000
0000
3003
0000
0110
0000
1000
,
0100
0010
0000
0100
0001
0100
0000
1000
,
0100
0010
0100
0010
0100
0010
0000
1000
,
0100
0010
0001
0010
0100
0010
0100
0010
,
0100
0010
0100
0010
0100
1000
0000
0100
,
0010
0100
0010
0100
1000
0001
0000
0100
,
0010
0100
0010
0100
0010
1000
0000
0100
,
0010
0100
0010
0100
1000
0100
0010
0001
,
0010
0100
1000
0100
0000
1002
1000
0100
,
1003
0000
0100
0010
2010
0000
0010
0001
,
3010
0000
0001
0100
0010
1001
0000
0001
,
0100
0000
0001
0100
0010
0000
1000
0100
,
0010
1000
0110
0001
0001
0000
1000
0000
,
0010
0100
0010
0100
1000
0100
0010
0100
,
0010
0100
0010
0100
0002
0000
1000
0000
,
1000
0000
1000
0003
2001
0000
0001
0000
,
0001
3001
0210
0010
,
0010
0000
0010
0300
0120
0000
0100
0000
,
0100
0000
0100
0030
2001
0000
0001
0000
,
0001
0000
0001
3000
1002
0000
1000
0000
,
1000
0000
1000
0003
0100
0010
0100
0010
,
0100
1000
0100
0010
0001
0010
0100
1000
,
0100
0010
0100
0001
2000
0000
0001
0000
,
0001
0000
0001
3000
2002
0000
0000
3003
,
0100
0000
1000
0000
0100
0000
0010
0000
0100
1000
0010
0000
0100
0000
1000
0000
,
0100
0000
0010
0000
0001
0010
0100
0000
0000
0000
0100
0000
0010
0000
0100
0000
,
0010
0100
1000
0000
0100
0000
0010
0000
0100
0000
0010
0000
0100
0000
0010
0000
,
1000
0001
0100
0000
0010
0000
0001
0000
0010
0000
0100
0000
1000
0000
0100
0000
,
0020
1000
1000
1000
,
2030
0000
0010
0000
0010
0000
0010
3000
,
0001
0100
0001
0100
1000
0100
0010
0001
,
0100
0000
0010
0000
0100
0000
0010
0000
0100
0000
0010
1000
0100
0010
0001
0000
,
1000
0100
0010
0100
0001
1000
0100
0010
,
0100
0010
0100
0002
0000
0100
1000
0100
,
1000
0100
2003
0000
0010
0000
0001
0000
,
0010
0000
0001
0000
3010
0100
0010
0100
,
1000
0100
0010
0100
0010
0100
1000
0100
,
0010
0001
0010
0100
0001
0000
0100
0010
,
0100
0000
1000
0100
0010
0100
0010
0100
,
0020
0000
1000
0000
1000
0000
1000
0030
,
2001
0000
0000
0010
0001
0000
0000
0010
,
0000
0001
0000
0000
0001
0000
0001
3000
,
0002
0000
0100
0000
1000
0000
0000
0100
,
1000
0000
1000
0000
0000
0000
1000
0000
0000
1000
0000
1000
0000
0000
0000
0000
,
2003
0000
0010
0000
0001
0000
0010
3000
,
0002
0100
1000
0100
,
2000
0003
0000
0000
0000
0000
0000
0000
,
0010
0010
0010
3010
;

//---------------dance-single - ----------------
#NOTES:
     dance-single:
     :
     Medium:
     11:
     0.512,0.505,0.095,0.275,0.005,304.000,9.000,26.000,0.000,0.000,0.000,0.512,0.505,0.095,0.275,0.005,304.000,9.000,26.000,0.000,0.000,0.000:
0000
0000
0000
0000
,
0000
0000
0000
0000
,
0100
1000
0010
0001
0010
1000
0010
1000
,
0000
0001
0100
0001
0100
0001
0100
0001
,
0000
0100
0010
1000
0010
0200
0000
0001
,
0000
0001
0000
0001
0300
0002
0000
1000
,
0000
1000
0000
1000
0000
1003
0000
0100
,
0010
1000
0010
1000
0000
0100
1000
0010
,
0001
0010
1000
0010
1000
0200
0000
0001
,
0000
0001
0000
0001
0300
0002
0000
1000
,
0000
1000
0000
1000
0003
0002
0000
0000
,
0000
0000
0000
0000
,
0000
0000
0000
0000
0000
1003
0000
0100
,
1000
0010
0000
1000
0001
1000
0000
0100
,
1000
0000
1000
0010
1000
0000
0000
0100
,
1000
0010
0001
0010
1000
0010
1000
0010
,
1000
0010
1000
0010
1000
0100
0000
1000
,
0100
0000
0010
1000
0100
0001
0000
1000
,
0010
1000
0010
1000
0010
0100
0000
1000
,
0010
1000
0010
1000
0100
1000
0010
0001
,
0010
1000
0100
1000
0000
0102
0000
1003
,
0000
0000
1000
0010
0200
0000
0010
0000
,
0310
0000
0001
1000
0010
0001
0000
0001
,
1000
0000
0001
1000
0010
0000
0100
1000
,
0010
0100
1000
0001
0001
0000
0100
0000
,
0010
1000
0010
1000
0100
1000
0010
1000
,
0010
1000
0010
1000
0002
0000
0100
0000
,
0100
0000
0100
0003
0201
0000
0001
0000
,
0001
0301
2010
0010
,
0010
0000
0010
3000
1020
0000
1000
0000
,
1000
0000
1000
0030
0201
0000
0001
0000
,
0001
0000
0001
0300
0102
0000
0100
0000
,
0100
0000
0100
0003
1000
0010
1000
0010
,
1000
0100
1000
0010
0001
0010
1000
0100
,
1000
0010
1000
0001
0200
0000
0001
0000
,
0001
0000
0001
0300
0202
0000
0000
0303
,
1000
0100
1000
0010
1000
0010
1000
0100
,
1000
0010
0000
1100
0000
1000
0010
1000
,
0010
0000
1000
0010
1000
0010
1000
0010
,
0200
0000
0010
0000
0310
1000
0100
1000
,
0020
0100
0000
0130
,
0200
0000
0010
0000
0000
0000
0010
0300
,
0001
1000
0001
1000
0100
1000
0010
0001
,
1000
0010
1000
0010
1000
0010
1000
0001
,
0100
1000
0010
1000
0001
0100
1000
0010
,
1000
0010
1000
0001
0000
1000
0100
1000
,
0100
0200
0010
0001
,
0010
0000
0001
0000
0310
1000
0010
0000
,
0000
1000
0010
1000
0010
1000
0100
1000
,
0010
0001
0010
1000
0001
0000
1000
0010
,
1000
0000
0100
1000
0010
1000
0010
1000
,
0020
0000
0100
0000
0100
0000
0100
0030
,
0201
0000
0000
0000
0001
0000
0000
0010
,
0000
0001
0000
0000
0001
0000
0001
0300
,
0002
0000
1000
0000
0100
0000
0000
1000
,
0000
0000
0100
0000
0000
0000
0100
0000
0000
0000
0000
0100
0000
0000
0000
0000
,
0203
0000
0010
0000
0000
0000
0010
0300
,
0002
1000
0000
1000
,
0200
0003
0000
0000
0000
0000
0000
0000
,
0010
0000
0000
0310
;

//---------------dance-single - Copied from----------------
#NOTES:
     dance-single:
     Copied from:
     Easy:
     6:
     0.275,0.347,0.011,0.222,0.000,160.000,1.000,21.000,0.000,0.000,0.000,0.275,0.347,0.011,0.222,0.000,160.000,1.000,21.000,0.000,0.000,0.000:
0000
0000
0000
0000
,
0000
0000
0000
0000
,
0000
0001
0000
0000
1000
0000
0000
0000
,
0000
0000
0000
1000
0000
1000
0000
1000
,
0000
0000
0000
0000
0000
0000
0000
0010
,
0000
0100
0000
0010
0000
0000
0000
1000
,
0000
0001
0000
0100
0000
0010
0000
0000
,
0000
0000
0000
0100
0000
0100
0000
0000
,
0000
0000
0000
1000
0000
1000
0000
0000
,
0000
0000
0000
0001
0000
0000
0000
1000
,
0000
0000
0000
0000
0000
0002
0000
0000
,
0000
0000
0000
0000
,
0000
0000
0000
0000
0000
0003
0000
0000
,
0000
0000
0100
0000
,
0010
0010
0010
0000
,
0010
0100
0010
0010
,
0010
0010
0010
0000
,
1000
0001
1000
0000
,
0001
0001
0001
0000
,
0001
0001
1000
0001
,
0001
1000
0000
0000
,
0000
0010
2000
0001
,
3001
0100
0001
0000
,
0010
0100
0001
1000
,
0001
0010
0100
1000
,
0001
0001
1000
0001
,
0001
0001
0200
1000
,
0000
0000
1000
0300
2000
0000
0000
0000
,
0000
3100
0020
0000
,
0000
0000
0001
0030
0002
0000
0010
0000
,
0000
0000
0010
0003
2000
0000
0100
0000
,
0000
0000
0100
3000
0200
0000
1000
0000
,
0000
0000
1000
0300
0010
0000
0010
0000
,
0010
0010
0100
0010
,
0010
0010
2000
0100
,
0100
0000
0100
3000
2200
0000
0000
3300
,
0010
0010
0010
0010
,
0010
0000
0000
0001
,
0001
0010
0010
0010
,
2000
0001
3001
1000
,
0002
1000
0000
1003
,
2000
0000
0001
0000
0000
0000
0001
3000
,
0100
0100
1000
0001
,
0010
0010
0010
0010
,
1000
0001
0100
0010
,
0010
0010
0000
1000
,
1000
2000
0001
0000
,
0100
0000
3001
0001
,
0000
0001
0001
1000
,
0001
0001
0100
0010
,
0010
1000
0001
0001
,
0002
0000
1000
0000
0000
0000
1000
0003
,
2000
0000
0100
0000
,
0000
0000
0000
0000
0100
0000
0000
3000
,
0200
0000
1000
0000
,
0000
0000
0000
0000
,
2300
0000
0001
0000
0000
0000
0001
3000
,
0200
0010
0000
0010
,
2000
0300
0000
0000
0000
0000
0000
0000
,
0001
0000
0000
3001
;

//---------------dance-single - ----------------
#NOTES:
     dance-single:
     :
     Beginner:
     2:
     0.118,0.158,0.011,0.201,0.000,58.000,1.000,19.000,0.000,0.000,0.000,0.118,0.158,0.011,0.201,0.000,58.000,1.000,19.000,0.000,0.000,0.000:
0000
0000
0000
0000
,
0000
0000
0000
0000
,
0000
0001
0000
0000
1000
0000
0000
0000
,
0000
0000
0000
1000
0000
0000
0000
0000
,
0000
0000
0000
0000
0000
0000
0000
0010
,
0000
0000
0000
0000
0000
0000
0000
1000
,
0000
0000
0000
0000
0000
0000
0000
0010
,
0000
0000
0000
0000
0000
0000
0000
1000
,
0000
0000
0000
0000
0000
0000
0000
0001
,
0000
0000
0000
0000
0000
0000
0000
1000
,
0000
0000
0000
0000
0000
0002
0000
0000
,
0000
0000
0000
0000
,
0000
0000
0000
0000
0000
0003
0000
0000
,
0000
0000
0100
0000
,
0000
0000
0010
0000
,
0000
0000
0010
0000
,
0000
0000
0010
0000
,
0000
0000
1000
0000
,
0000
0000
0001
0000
,
0000
0000
1000
0000
,
0000
0000
0010
0000
,
0000
0000
2000
0000
,
3000
0000
0001
0000
,
0000
0000
0001
0000
,
0000
1000
0000
0000
,
0000
0001
0000
0000
,
0000
0001
0000
0000
,
0000
2000
0000
3000
,
0000
0200
0000
0300
,
0000
0002
0000
0003
,
0000
0020
0000
0030
,
0000
0200
0000
0300
,
0000
1000
0000
0000
,
0000
0010
0000
0000
,
0000
0010
0000
0000
,
0000
0000
0000
0000
2002
0000
0000
3003
,
0010
0000
0000
0000
,
0010
0000
0000
0000
,
0001
0000
0000
0000
,
2000
0000
3000
0000
,
0002
0000
0003
0000
,
2000
0000
3000
0000
,
0100
0000
0000
0000
,
0010
0000
0000
0000
,
1000
0000
0000
0000
,
0010
0000
0000
0000
,
2000
0000
3000
0000
,
0100
0000
0000
0000
,
0001
0000
0000
0000
,
0001
0000
0000
0000
,
0010
0000
0000
0000
,
0002
0000
0003
0000
,
2000
0000
3000
0000
,
1000
0000
0000
0000
,
0200
0000
0300
0000
,
0001
0000
0000
0000
,
2000
0000
3000
0000
,
0200
0000
0300
0000
,
2000
0000
3000
0000
,
0001
0000
0000
0001
;
