#TITLE:Everlasting Resort;
#SUBTITLE:;
#ARTIST:SUPER STAR -MITSURU-;
#TITLETRANSLIT:;
#SUBTITLETRANSLIT:;
#ARTISTTRANSLIT:;
#GENRE:;
#CREDIT:;
#BANNER:Everlasting Resort.png;
#BACKGROUND:Everlasting Resort-bg.png;
#LYRICSPATH:;
#CDTITLE:;
#MUSIC:Everlasting Resort.mp3;
#OFFSET:-0.157;
#SAMPLESTART:100.050;
#SAMPLELENGTH:12.000;
#SELECTABLE:YES;
#BPMS:0.000=148.000
,128.500=74.000
,144.500=148.000
,172.500=296.000
,178.500=148.000
;
#STOPS:
;
#BGCHANGES:;
#KEYSOUNDS:;
#ATTACKS:;

//---------------dance-single - ----------------
#NOTES:
     dance-single:
     :
     Hard:
     13:
     0.545,0.617,0.406,0.273,0.084,356.000,46.000,31.000,0.000,0.000,0.000,0.545,0.617,0.406,0.273,0.084,356.000,46.000,31.000,0.000,0.000,0.000:
0000
2000
0000
0000
0000
0000
0000
0000
,
0000
0200
0000
0000
0000
0000
0000
3000
,
0000
0020
0000
0000
0000
0000
0000
0000
,
0300
0002
0000
0000
0000
0000
0030
0000
,
0000
2000
0000
0000
0000
0000
0000
0003
,
0000
0020
0000
0000
0000
0000
0000
3000
,
0000
0200
0000
0000
0000
0000
0000
0030
,
0000
0002
0000
0000
0000
0000
0000
0303
,
0000
0000
1000
0000
0100
0000
0010
1000
0100
0010
0001
0000
0100
0000
0010
0000
,
1000
0000
0100
0000
0010
0000
0001
0010
0100
0010
1000
0000
0100
0000
0010
0000
,
0100
0000
0010
0000
0100
0000
0010
1000
0100
0001
1000
0000
0100
0000
0010
0000
,
0001
0100
0010
0100
0010
1000
0100
0010
,
0001
1000
0001
1000
0001
1000
0100
0010
,
0001
0100
0010
0100
0010
0100
0010
0100
,
0010
0000
1000
0010
0100
0001
0010
0100
0001
1000
0100
0001
0010
1000
0100
0010
,
0001
2002
0000
3000
0100
0000
0000
1003
,
0000
0000
2001
0000
3010
0000
0100
1000
0010
0000
0100
0000
0010
0000
0100
0000
,
0001
1000
0100
0010
0001
0100
0010
0100
,
0001
0000
1001
0000
0000
0000
0100
1000
0010
0000
0100
0000
0010
0000
1000
0000
,
0010
0000
1001
0000
0000
0000
0100
0000
0000
0000
1000
0010
1000
0010
1000
0010
,
1000
0010
1010
0000
0000
0000
0100
0000
0010
0000
0100
0000
0010
0000
0100
0000
,
0001
1001
0000
0100
0010
0110
1000
0001
,
1000
1001
0000
0100
0010
0100
0010
1000
,
0010
1001
0000
1000
1010
0000
1000
0001
,
1000
1001
0000
0100
0010
0100
0010
1000
,
0010
1001
0000
0110
0000
0001
1000
1010
,
1000
0001
0000
1000
0010
1000
0001
0100
,
0010
1001
0000
0100
0000
0010
0100
0010
,
0100
1001
0000
0100
0010
0100
0001
1000
,
0010
1001
0100
0010
1000
1001
0000
0100
,
0010
1001
0100
0010
0100
0101
0100
0010
,
1000
1001
0100
0010
0100
0001
0100
0010
,
0001
2000
0100
0100
3100
0200
0010
0010
,
0010
0300
0020
0000
0001
0000
0001
0000
0031
0000
0002
0000
0010
0000
0010
0000
,
0013
0000
0020
0000
0100
0000
0100
0000
0100
0030
0200
0000
1000
0000
1000
0000
,
1300
2000
0010
0010
3010
0200
0001
0001
,
0001
0300
0002
0000
0000
0000
0100
0000
0000
0000
0100
0000
0000
0000
0103
0000
,
0000
0020
0000
1000
0000
1000
0000
1000
,
0030
2000
0000
0100
0000
0100
0000
3100
,
0000
0200
0000
0001
0000
0001
0000
0001
,
0300
0002
0000
0010
0000
1000
0000
1000
,
0003
2000
0000
0010
0000
0001
0000
0001
,
3000
0002
0000
0100
0000
1000
0000
0103
,
0000
2002
0000
0000
0000
0000
0000
0000
,
0000
0000
0000
0000
0000
3003
0000
0110
,
1000
0001
0100
1010
0000
0100
0001
1001
,
0000
0100
0010
0110
0000
1001
0000
0110
,
1000
0100
0010
1001
0000
0100
0010
0100
,
0000
1000
0100
0010
0001
1000
0010
0101
,
0000
1000
0010
0110
0000
1000
0001
1001
,
0000
0100
0010
1001
0000
1001
0000
0100
,
0010
0100
0010
1000
0000
0100
0010
0100
,
0000
0100
0010
0100
0001
1000
0010
1001
,
0000
0100
0010
1001
0000
0110
0000
1001
,
0000
0100
0010
0100
0000
1001
0000
0100
,
0000
0010
0100
0010
0000
1000
0100
0001
,
0000
0100
0010
0110
0000
0001
0100
0101
,
1000
0100
0010
0100
0001
0100
0010
1001
,
0000
0000
0000
0110
0000
1001
0000
0110
,
1000
0010
0100
0001
1000
0010
1000
2000
,
0000
0001
0000
0010
0000
3001
0000
2002
,
0000
0000
0000
0000
,
0000
0000
0000
0000
,
0000
0000
0000
0000
0000
3003
0000
0000
;

//---------------dance-single - ----------------
#NOTES:
     dance-single:
     :
     Medium:
     8:
     0.365,0.533,0.247,0.168,0.000,243.000,28.000,19.000,0.000,0.000,0.000,0.365,0.533,0.247,0.168,0.000,243.000,28.000,19.000,0.000,0.000,0.000:
0000
1000
0000
0000
0000
0000
0000
0000
,
0000
0200
0000
0000
0000
0000
0000
0000
,
0300
0000
0000
0000
,
0000
0002
0000
0000
0000
0000
0000
0003
,
0000
1000
0000
0000
0000
0000
0000
0000
,
0000
0020
0000
0000
0000
0000
0000
0000
,
0030
0000
0000
0000
,
0000
2000
0000
0000
0000
0000
0000
3000
,
0000
1000
0000
0100
0000
0010
0000
0001
,
0000
0010
0000
0100
0000
1000
0000
0100
,
0000
0010
0000
0001
0000
0010
0000
0100
,
0000
1000
0000
0001
0000
0100
0000
0010
,
0000
1000
0000
1000
0000
0001
0000
0001
,
0000
1000
0000
1000
0000
0001
0000
0001
,
0000
1000
1000
0100
0100
0010
0010
0001
,
0001
2002
0000
0000
0000
0000
0000
3003
,
0000
0100
0000
1000
0000
0100
0000
0010
,
0000
0100
0000
0001
0000
1000
0000
0100
,
0000
0010
0000
1001
0000
0100
0000
1010
,
0000
1000
0000
1100
0000
0100
0000
0110
,
0000
0011
0000
0101
0000
0110
0000
1010
,
0000
0100
0000
0110
0000
1001
0000
0101
,
0000
0010
0000
0101
0000
1001
0000
1010
,
0000
1000
0000
0100
0000
0010
0000
0001
,
0000
1001
0000
0100
0000
0010
0000
0100
,
0000
1000
0000
0100
0000
0010
0000
1000
,
0000
0001
0000
1001
0000
0100
0000
0010
,
0000
1000
0000
0001
0000
2000
0000
3002
,
0000
1003
0000
0010
0000
0100
0000
0001
,
0000
1001
0000
0100
0000
0010
0000
1000
,
0000
1001
0000
0100
0000
0110
0000
0100
,
0000
1001
0000
1001
0000
1001
0000
1001
,
0000
2000
0010
0010
0010
3002
0100
0100
,
0100
2003
0010
0010
0010
3200
0010
0010
,
0010
0320
0100
0100
0100
0032
0100
0100
,
0100
2003
0010
0010
0010
3100
0010
0001
,
1000
1001
0000
0100
0000
0010
0100
0010
,
0000
1000
0000
1000
0000
1000
0001
1000
,
0000
0010
0000
0010
0000
0100
0000
0100
,
0000
0001
0000
0001
0000
0001
0000
0001
,
0000
1000
0000
1000
0000
0001
1000
0001
,
0000
0100
0000
0100
0000
0010
0100
0010
,
0000
1000
0000
0001
0000
0000
1000
0001
,
0000
2002
0000
0000
0000
0000
0000
0000
,
0000
0000
0000
0000
0000
3003
0000
0100
,
0000
0010
1000
0010
0000
0100
0000
0001
,
0000
1000
0010
1000
0000
0001
0000
0100
,
0000
0010
0100
0010
0000
1000
0000
1000
,
0000
0001
0000
0001
0000
1000
0000
1000
,
0000
0010
0100
0010
0000
0100
0000
0100
,
0000
0001
1000
0001
0000
0100
0000
0010
,
0000
1000
0000
0001
0100
0001
0000
1000
,
0010
1000
0000
0100
0010
0100
0000
0001
,
0000
0001
0000
0100
0010
0100
0000
1000
,
0000
1000
0000
0100
0010
0100
0000
0001
,
0000
0001
0000
0100
0010
0100
0010
0100
,
0000
1000
0000
1000
0001
1000
0001
1000
,
0000
0010
0000
1000
0000
0001
0000
1001
,
0000
0000
0000
0010
0000
0100
0000
1001
,
0000
1000
0000
1000
0000
0100
0000
0200
,
0000
0000
0000
0000
0000
0000
0000
0020
,
0000
0000
0000
0000
,
0000
0000
0000
0000
,
0000
0000
0000
0000
0000
0330
0000
0000
;

//---------------dance-single - ----------------
#NOTES:
     dance-single:
     :
     Easy:
     5:
     0.260,0.253,0.212,0.106,0.000,170.000,24.000,12.000,0.000,0.000,0.000,0.260,0.253,0.212,0.106,0.000,170.000,24.000,12.000,0.000,0.000,0.000:
0000
1000
0000
0000
0000
0000
0000
0000
,
0000
0010
0000
0000
0000
0000
0000
0000
,
0000
0001
0000
0000
0000
0000
0000
0000
,
0000
1000
0000
0000
0000
0000
0000
0000
,
0000
0010
0000
0000
0000
0000
0000
0000
,
0000
0001
0000
0000
0000
0000
0000
0000
,
0000
0100
0000
0000
0000
0000
0000
0000
,
0000
0010
0000
0000
0000
0000
0000
0000
,
0000
0001
0000
0000
0000
1000
0000
0000
,
0000
0001
0000
0000
0000
1000
0000
0000
,
0000
0001
0000
0000
0000
0100
0000
0000
,
0000
0010
0000
0000
0000
1000
0000
0000
,
0000
0001
0000
0001
0000
0000
0000
0000
,
0000
1000
0000
1000
0000
1000
0000
1000
,
0000
1000
0000
1000
0000
0100
0000
0100
,
0000
1001
0000
0000
0000
0000
0000
0010
,
0000
1001
0000
0100
0000
0001
0000
1000
,
0000
0001
0000
0000
0000
1000
0000
0001
,
0000
1001
0000
0000
0000
0010
0000
0100
,
0000
0110
0000
1000
0000
0100
0000
0010
,
0000
1001
0000
0000
0000
0001
0000
0010
,
0000
0100
0000
1000
0000
0100
0000
0010
,
0000
0001
0000
0000
0000
0100
0000
1000
,
0000
1001
0000
0000
0000
0000
0000
0001
,
0000
1001
0000
0100
0000
0010
0000
0100
,
0000
1001
0000
0000
0000
0001
0000
1000
,
0000
1001
0000
0000
0000
0010
0000
0100
,
0000
0110
0000
0000
0000
1000
0000
0001
,
0000
1001
0000
0000
0000
0010
0000
0100
,
0000
1001
0000
0000
0000
0010
0000
0100
,
0000
1001
0000
0000
0000
1000
0000
0001
,
0000
1001
0000
0000
0000
0000
0000
1000
,
0000
2000
0000
0000
0000
3002
0000
0000
,
0000
0203
0000
0000
0000
0320
0000
0000
,
0000
2030
0000
0000
0000
3002
0000
0000
,
0000
0203
0000
0000
0000
0320
0000
0000
,
0000
1030
0000
0100
0000
1000
0010
1000
,
0000
0001
0000
0001
0000
0001
0000
0001
,
0000
1000
0000
1000
0000
1000
0010
1000
,
0000
0001
0000
0001
0000
0100
0000
0100
,
0000
0010
0000
0010
0000
0010
0000
0010
,
0000
1000
0000
1000
0000
1000
0000
1000
,
0000
0001
0000
1000
0000
0001
0000
1000
,
0000
2002
0000
0000
0000
0000
0000
0000
,
0000
0000
0000
0000
0000
3003
0000
0100
,
0000
1000
0000
0100
0000
0000
0000
0010
,
0000
0001
0000
0010
0000
1000
0000
1001
,
0000
0000
0000
0001
0000
0010
0000
0100
,
0000
1000
0000
0100
0000
0010
0000
1001
,
0000
0000
0000
1000
0000
0001
0000
1001
,
0000
0000
0000
0100
0000
0010
0000
0110
,
0000
0000
0000
1000
0000
0001
0000
1000
,
0000
0010
0000
0100
0000
1000
0000
1001
,
0000
0000
0000
0010
0000
0100
0000
0010
,
0000
0000
0000
1000
0000
0001
0000
1000
,
0000
0000
0000
0010
0000
0100
0000
0010
,
0000
0000
0000
1000
0000
0001
0000
1001
,
0000
0000
0000
1000
0000
0001
0000
1001
,
0000
0000
0000
0010
0000
0100
0000
0110
,
0000
0000
0000
1000
0000
0001
0000
1000
,
0000
0100
0000
0010
0000
0001
0000
2002
,
0000
0000
0000
0000
,
0000
0000
0000
0000
,
0000
0000
0000
0000
0000
0000
0000
0000
0000
0000
0000
0000
0000
0000
0000
0000
0000
0000
0000
0000
0000
0000
0000
0000
0000
0000
0000
0000
0000
0000
0000
0000
0000
0000
0000
0000
0000
0000
0000
0000
0000
0000
0000
0000
0000
0000
0000
0000
0000
0000
0000
0000
0000
0000
0000
0000
0000
0000
0000
0000
0000
0000
0000
0000
0000
0000
0000
0000
0000
0000
0000
0000
0000
0000
0000
0000
0000
0000
0000
0000
0000
0000
0000
0000
0000
0000
0000
0000
0000
0000
0000
0000
0000
0000
0000
0000
0000
0000
0000
0000
0000
0000
0000
0000
0000
0000
0000
0000
0000
0000
0000
0000
0000
0000
0000
0000
0000
0000
0000
0000
0000
3003
0000
0000
0000
0000
0000
0000
0000
0000
0000
0000
0000
0000
0000
0000
0000
0000
0000
0000
0000
0000
0000
0000
0000
0000
0000
0000
0000
0000
0000
0000
0000
0000
0000
0000
0000
0000
0000
0000
0000
0000
0000
0000
0000
0000
0000
0000
0000
0000
0000
0000
0000
0000
0000
0000
0000
0000
0000
0000
0000
0000
0000
0000
0000
0000
0000
0000
0000
0000
0000
0000
;

//---------------dance-single - ----------------
#NOTES:
     dance-single:
     :
     Beginner:
     2:
     0.105,0.224,0.079,0.097,0.000,63.000,9.000,11.000,0.000,0.000,0.000,0.105,0.224,0.079,0.097,0.000,63.000,9.000,11.000,0.000,0.000,0.000:
0000
0000
0000
0000
,
0000
0000
0000
0000
,
0000
0000
0000
0000
,
0000
0000
0000
0000
,
0000
0000
0000
0000
,
0000
0000
0000
0000
,
0000
0000
0000
0000
,
0000
0000
0000
0000
,
0000
1000
0000
1000
0000
0000
0000
0000
,
0000
0000
0000
0000
,
0000
0010
0000
0010
0000
0000
0000
0000
,
0000
1000
0000
1000
0000
0000
0000
0000
,
0000
0001
0000
0001
0000
0000
0000
0000
,
0000
0100
0000
0100
0000
0000
0000
0000
,
0000
0010
0000
0010
0000
0000
0000
0000
,
0000
1001
0000
0000
0000
0000
0000
0000
,
0000
0010
0000
0000
0000
0000
0000
0000
,
0000
0100
0000
0000
0000
0000
0000
0000
,
0000
1000
0000
0000
0000
0000
0000
0000
,
0000
0001
0000
0000
0000
0000
0000
0000
,
0000
0010
0000
0000
0000
0000
0000
0000
,
0000
0100
0000
0000
0000
0000
0000
0000
,
0000
1001
0000
0000
0000
0000
0000
0000
,
0000
1000
0000
0000
0000
0000
0000
0000
,
0000
0001
0000
0000
0000
0000
0000
0000
,
0000
0100
0000
0000
0000
0000
0000
0000
,
0000
0010
0000
0000
0000
0000
0000
0000
,
0000
1000
0000
0000
0000
0000
0000
0000
,
0000
1001
0000
0000
0000
0000
0000
0000
,
0000
0110
0000
0000
0000
0000
0000
0000
,
0000
1001
0000
0000
0000
1001
0000
0000
,
0000
1001
0000
0000
0000
0000
0000
0000
,
0000
2000
0000
3000
0000
0002
0000
0003
,
0000
0200
0000
0300
0000
0020
0000
0030
,
0000
2000
0000
3000
0000
0200
0000
0300
,
0000
0020
0000
0030
0000
0002
0000
0003
,
0000
1000
0000
0000
0000
0000
0000
0000
,
0000
0100
0000
0000
0000
0000
0000
0000
,
0000
0010
0000
0000
0000
0000
0000
0000
,
0000
0001
0000
0000
0000
0000
0000
0000
,
0000
1000
0000
0000
0000
0000
0000
0000
,
0000
0100
0000
0000
0000
0000
0000
0000
,
0000
0010
0000
0000
0000
0000
0000
0000
,
0000
0002
0000
0000
0000
0000
0000
0000
,
0000
0000
0000
0000
0000
0003
0000
1000
,
0000
0000
0000
0000
0000
0000
0000
0100
,
0000
0000
0000
0000
0000
0000
0000
0010
,
0000
0000
0000
0000
0000
0000
0000
0001
,
0000
0000
0000
0000
0000
0000
0000
1000
,
0000
0000
0000
0000
0000
0000
0000
0100
,
0000
0000
0000
0000
0000
0000
0000
0010
,
0000
0000
0000
0000
0000
0000
0000
0001
,
0000
0000
0000
0000
0000
0000
0000
1000
,
0000
0000
0000
0000
0000
0000
0000
0100
,
0000
0000
0000
0000
0000
0000
0000
0010
,
0000
0000
0000
0000
0000
0000
0000
0001
,
0000
0000
0000
0000
0000
0000
0000
0100
,
0000
0000
0000
0000
0000
0000
0000
1001
,
0000
0000
0000
0000
0000
0000
0000
0100
,
0000
0000
0000
0000
0000
0000
0000
0010
,
0000
0000
0000
0000
0000
0000
0000
2002
,
0000
0000
0000
0000
,
0000
0000
0000
0000
,
0000
0000
0000
0000
0000
3003
0000
0000
;
