#TITLE:ELECTRIC MASSIVE DIVER;
#SUBTITLE:;
#ARTIST:L.E.D-G;
#TITLETRANSLIT:;
#SUBTITLETRANSLIT:;
#ARTISTTRANSLIT:;
#GENRE:;
#CREDIT:;
#BANNER:ELECTRIC MASSIVE DIVER.png;
#BACKGROUND:ELECTRIC MASSIVE DIVER-bg.png;
#MENUCOLOR:1,0,0,1;
#METERTYPE:DDR X;
#LYRICSPATH:;
#CDTITLE:;
#MUSIC:ELECTRIC MASSIVE DIVER.mp3;
#OFFSET:-0.053;
#SAMPLESTART:100.030;
#SAMPLELENGTH:12.000;
#SELECTABLE:YES;
#BPMS:0.000=89.000,18.500=178.000,46.500=89.000,48.500=178.000,178.500=89.000,179.500=178.000,207.500=89.000,209.500=178.000,239.500=89.000,240.500=178.000,264.500=356.000,280.500=89.000,284.000=178.000,289.000=356.001,296.000=178.000,316.500=356.000,323.500=178.000;
#STOPS:;
#BGCHANGES:;
#KEYSOUNDS:;

//---------------dance-single - ----------------
#NOTES:
     dance-single:
     :
     Hard:
     17:
     1.000,0.352,1.000,0.373,0.082:
0000
0000
0000
0000
0000
2200
0000
0000
,
0000
0300
0020
0000
0000
0000
0000
0000
0000
3000
0200
0000
0000
0000
0000
0000
,
0000
0030
2000
0000
0000
3000
0002
0000
0000
0300
0020
0000
0000
0000
0000
0000
,
0000
0030
0200
0000
0000
0000
0000
0000
0000
0003
0020
0000
0000
0000
0000
0000
,
0000
0300
2000
0000
0000
0030
0002
0000
0000
3003
0100
0000
0110
0000
0100
0000
,
0110
0100
0110
0100
0110
1000
0110
0010
,
1001
0100
0011
0100
1010
1000
0110
0010
,
1001
0100
0011
0100
1010
1000
0101
0010
,
1001
0000
0100
0010
0110
0000
0100
0000
0011
0000
1000
0010
1010
0000
0001
0000
,
1001
0100
0110
0010
0011
1000
1100
0001
,
0011
0100
1100
0010
0011
1000
1100
0001
,
0011
0000
0100
0000
1100
0000
0010
0000
0110
0000
2002
0000
0000
3000
0200
0000
,
0000
0303
1000
0000
0110
0000
1000
0000
0110
0000
1000
0000
0110
0000
1000
0000
,
0110
0010
0101
0010
0101
0010
0101
0010
,
0101
0010
1001
0010
1001
0010
1001
0010
,
1001
0100
0011
0100
0011
0100
0011
0100
,
0011
1000
0110
0010
0110
0010
0110
0010
,
1010
0100
0110
0001
1100
0010
0101
0010
,
1001
0110
0010
1001
0100
0110
0100
1010
,
0100
0011
0100
0110
0100
1010
0100
1010
,
1001
0000
1000
0000
0000
0010
0000
0000
0100
0000
0001
0000
0000
0000
0000
0000
,
0000
1000
1100
1000
1100
1000
1100
1000
,
1100
0110
0110
0110
0100
0100
0110
0100
,
0110
0110
0110
0010
0110
0010
0110
0010
,
0110
0011
0001
0011
0001
0011
0001
0011
,
0011
0011
0110
0010
0110
0010
0110
0010
,
0110
0100
0101
0100
0101
0100
0101
0101
,
0101
0110
0010
1010
0010
0110
0010
0110
,
0011
1001
0101
0001
0011
0001
0101
0001
,
0011
1010
1000
1010
1000
1010
1000
1010
,
1000
0110
0100
0101
0100
0101
0100
0101
,
0100
0110
0010
1010
0010
0110
0010
0011
,
0010
0011
0001
1001
0001
1001
0001
1001
,
0001
1001
1000
1010
1000
1010
1000
1010
,
1000
0110
0100
0101
0100
0101
0100
0101
,
0100
0101
0011
0010
1010
0010
1010
0010
,
1010
0110
0100
0101
0100
0101
1000
0100
,
0010
0110
0101
0110
0101
0110
0101
0110
,
0101
1010
1100
1001
1100
1010
1001
1100
,
1001
1001
0011
0101
0011
1001
0011
0101
,
0011
0000
1100
0000
0110
0000
0110
0000
0110
0000
1010
0000
0000
1000
0010
0000
,
1010
0101
0110
0101
0110
1001
1100
0110
,
0011
1010
0011
0110
1010
0011
1001
0011
,
0011
1100
1100
0101
0101
0110
0110
0011
,
0011
0000
1100
0000
1010
0000
1001
0000
1100
0000
2001
0000
0010
3100
0110
0000
,
1100
1100
1100
1100
1100
1001
1001
1001
,
0110
0110
0110
0110
0110
0101
0101
0101
,
0110
0110
0110
0110
0110
1010
1010
1001
,
1001
1001
1001
1001
1001
1001
1001
1100
,
1010
1001
1010
1100
1010
1001
1010
1100
,
0101
0011
0011
1001
1001
0110
1001
0101
,
0110
1100
0110
0101
1100
0101
1100
2020
,
0000
3030
0202
0300
0100
0103
1020
0000
1000
0000
0100
0000
0001
0000
1000
0000
,
0100
1000
0001
0100
0001
0100
0001
2030
,
0100
0001
0100
3020
0001
0100
0001
0100
,
0001
0100
1000
0230
1000
0001
1000
0302
,
0010
0100
0010
2003
0010
0100
0001
0100
,
0001
0100
0001
3020
0001
0100
1000
0100
,
0001
0100
1000
0230
0001
0010
0001
0010
,
0001
0000
1000
0000
0001
0000
0320
0000
0001
0000
0100
0000
0001
0000
0032
0010
,
0100
0010
2003
0000
0100
0000
0010
0000
0001
0000
0010
0000
0001
0000
0100
0000
,
0001
3020
0100
1000
0100
0230
0001
0010
,
1000
0320
0100
0001
0100
0001
1000
0001
,
0100
0032
1000
0010
0100
2003
0100
0010
,
0001
3020
0100
0001
1000
0100
1000
0100
,
0001
0230
1000
0001
0010
1000
0010
0001
,
1000
0320
0000
0001
0000
1000
0000
0100
,
0000
0032
0000
0010
0000
0100
0000
1003
,
0000
0000
0000
0000
0000
0000
0000
0000
0000
0000
0000
0000
0000
0000
0000
0000
0000
0000
0000
0000
0000
0000
0000
0000
0000
0000
0202
0000
0000
0000
0000
0000
0000
0000
0000
0000
0000
0000
0000
0000
0000
0000
0000
0000
0000
0000
0000
0000
0000
0000
0000
0000
0000
0000
0000
0000
0000
0000
0000
0000
0000
0000
0000
0000
0000
0000
0000
0000
0000
0000
0000
0000
0000
0000
0000
0000
0000
0000
0000
0000
0000
0000
0000
0000
0000
0000
0000
0000
0000
0000
0000
0000
0000
0000
0000
0000
0000
0000
0000
0000
0000
0000
0000
0000
0000
0000
0000
0000
0000
0000
0000
0000
0000
0000
0000
0000
0000
0000
0000
0000
0000
0000
0000
0000
0000
0000
0000
0000
0000
0000
0000
0000
0000
0000
0000
0000
0000
0000
0000
0000
0000
0000
0000
0000
0000
0000
0000
0000
0000
0000
0000
0000
0000
0000
0000
0000
0000
0000
0000
0000
0000
0000
0000
0000
0000
0000
0000
0000
0000
0000
0000
0000
0000
0000
0000
0000
0000
0000
0000
0000
0000
0000
0000
0000
0000
0000
0000
0000
0000
0000
0000
0000
,
0000
2323
0000
0000
0000
0000
0000
3030
,
0000
2002
0000
0000
0000
0000
0000
0000
,
3003
0000
0000
0000
,
0000
2020
0000
0000
,
0000
0000
0000
0000
,
3030
1001
0100
0101
1000
0110
1000
0110
,
0100
0101
0100
0110
0100
0101
0100
0110
,
1000
1010
1010
0110
0110
0101
0101
0110
,
0110
0000
1000
0010
0100
1000
0010
0100
0001
0010
0100
1000
0010
0001
1010
0000
,
0002
2000
0000
0000
3100
0100
0100
0100
,
0000
2000
0000
0000
0000
0000
0000
0000
,
0000
0000
0000
0000
0000
0000
0000
3003
,
0110
1000
0101
1000
0110
0100
0010
0100
,
0101
0100
0010
1000
0110
0100
0110
0100
,
1001
0100
0010
0100
0010
0100
0010
1000
,
0100
0010
0001
0100
0110
0100
0110
0110
,
0110
1000
0001
0100
0010
0100
0001
0100
,
0011
0100
0010
0100
0010
0100
0010
0100
,
0110
1000
0100
0010
0100
0010
0100
0010
,
1001
1000
0110
0100
0110
0100
0101
0100
,
0101
0010
0010
0010
0100
0010
0100
0110
,
0110
0100
0010
0100
0110
0100
0110
1000
,
1010
1000
0010
0100
0001
0100
0010
0100
,
0101
1000
0010
0100
0110
0100
0110
0100
,
1010
1000
0001
0100
0010
1000
0100
0010
,
0001
0100
0010
0001
0100
0010
1000
0010
,
1010
1000
0010
0100
0110
1000
0001
1000
,
0001
1000
0001
1000
0001
1000
0001
1000
0001
1000
0001
1000
0001
1000
0001
1000
,
2002
0000
0000
0000
,
0000
3003
0000
0000
;

//---------------dance-single - ----------------
#NOTES:
     dance-single:
     :
     Medium:
     11:
     0.658,0.563,0.172,0.258,0.000:
0000
0000
0000
0000
0000
2002
0000
3003
,
0000
0220
0000
0330
0000
2200
0000
3300
,
0000
0022
0000
0033
0000
0220
0000
0330
,
0000
2200
0000
3300
0000
0220
0000
0330
,
0000
0022
0000
0033
0000
1000
0100
1000
,
0100
1000
0100
1000
0100
0010
0100
0010
,
0100
0010
0100
0010
0100
0010
0001
0010
,
0001
0010
0001
0010
0001
0010
0100
0010
,
0100
0010
0100
0010
0100
1000
0100
0000
,
0010
0001
0110
1000
0100
0010
0100
0001
,
1000
0100
0010
0001
1000
0100
0010
0001
,
0100
1000
0100
0010
0001
2000
0000
3002
,
0000
1003
0010
0100
0010
0100
0010
0100
,
0010
1000
0100
0010
0001
0010
0100
1000
,
0100
0010
0100
0010
0100
0010
0100
0010
,
0100
1000
0100
0010
0001
0010
0100
1000
,
0100
0010
0100
0010
0100
0010
0100
0010
,
0100
1000
0100
0010
0001
0010
0100
1000
,
0100
0010
0100
0010
0100
0010
0100
0010
,
0100
1000
0100
0010
0001
0010
0100
1000
,
0100
0010
0000
1000
0001
1000
0000
0000
,
0000
1000
0010
1000
0000
0100
0010
0100
,
0000
1000
0001
1000
0001
1000
0001
1000
,
0001
1000
0000
1000
0000
1000
0010
1000
,
0000
0100
0010
0100
0000
1000
0100
0010
,
0001
0100
0001
0100
0001
0100
0001
0100
,
0001
1000
0010
1000
0010
1000
0010
1000
,
0010
1000
0100
0010
0001
0010
0000
1100
,
0100
0000
0000
1000
0000
1100
0000
1100
,
0000
1000
0100
0010
0001
0010
0100
1000
,
0100
0010
0100
0010
0100
1000
0100
0010
,
0001
0010
0100
1000
0100
0010
0001
0010
,
0100
1000
0100
0010
0001
0010
0100
1000
,
0100
0010
0100
0010
0100
0010
0100
0010
,
0100
1000
0100
0010
0001
0010
0100
0010
,
0001
0010
0100
0010
0100
1000
0100
0010
,
0100
0010
0100
1000
0100
0010
0001
0010
,
0100
1000
0001
1000
0001
1000
0001
1000
,
0001
0100
0010
0100
0010
0100
0010
0100
,
0010
1000
0100
0010
0001
0100
0010
0100
,
0010
0100
1000
0100
0010
0001
1000
0000
,
0001
1001
0000
0100
0010
0100
0000
0100
,
0010
1000
0100
0010
0001
0100
0010
0100
,
1000
0100
0010
0001
0010
0100
1000
0100
,
0010
0000
1000
0101
0000
2000
0000
3001
,
0000
0100
0010
0100
0000
0100
0010
0100
,
1000
0100
0010
0001
0010
0100
0010
0100
,
0010
0100
1000
0100
0010
0001
0010
0100
,
1000
0100
0010
0001
0100
0010
0100
1001
,
0100
0010
0100
0110
1000
0010
1000
1001
,
0100
0010
0100
0101
0100
0010
1000
0010
,
1000
0100
0010
0001
0010
0100
1000
2000
,
0000
0001
0000
3001
0100
0010
0100
0010
,
0000
1000
0100
0010
0000
1000
0001
2000
,
0000
0000
3000
0002
0000
0000
0003
1000
,
0010
0100
0001
1000
0010
0100
0001
1000
,
0100
0010
0001
2000
0000
0000
0000
3002
,
0000
0000
0000
2003
0000
0000
0000
3020
,
0000
0000
0030
0200
0000
0000
0300
1000
,
0000
0100
0000
0010
0000
1000
0000
0001
,
0000
1001
0100
0010
0000
0100
0010
1000
,
0000
0100
0010
0100
0000
0100
0001
0010
,
0000
0100
1000
0100
0010
0100
0000
0001
,
0100
0010
0000
1000
0100
0010
0000
0001
,
0010
0100
1000
0100
0000
0010
0100
0010
,
0000
0001
0010
0100
0000
1000
0100
0001
,
0000
1000
0000
0100
0000
0010
0000
0001
,
0000
0010
0000
0100
0000
1000
0000
0100
,
0000
0010
0000
0001
0000
0100
0000
1000
,
0000
0100
0000
0010
0000
0001
0000
0100
,
0000
2002
0000
0000
0000
0000
0000
0000
,
3003
0000
0000
0000
,
0000
2000
0000
0000
,
0000
0000
0000
0000
,
3000
0001
0000
0100
0000
0001
0100
0001
,
0000
1000
0000
0100
0000
1000
0010
1000
,
0000
1000
1000
0100
0100
0010
0010
0001
,
0001
0010
0100
1000
0100
0010
0001
0010
,
0100
2002
0000
0000
0000
0000
0000
3003
,
0000
2002
0000
0000
0000
0000
0000
0000
,
0000
0000
0000
0000
0000
0000
0000
3003
,
0000
0000
0100
0000
0010
0100
0010
0000
,
1000
0100
0010
0001
0010
0100
0100
0000
,
0100
0010
0100
0000
1000
0100
0010
0000
,
0001
0010
0100
1000
0100
0010
1001
0000
,
0100
0010
0100
0000
1000
0100
0010
0000
,
0001
0010
0100
1000
0100
0010
0001
1000
,
0001
0000
1000
0010
1000
0000
0100
0010
,
0100
0000
1000
0100
0010
0001
0010
0100
,
1000
0000
0100
0000
0100
0010
0100
0000
,
1000
0100
0010
0001
0010
0100
1000
0100
,
0010
0100
0010
0000
0100
0001
0100
0000
,
0001
0010
0100
0000
0010
0100
0010
0000
,
1000
0100
0010
0000
0001
0010
0100
0000
,
1000
0100
0010
0000
0001
0010
0100
0000
,
1000
1000
0100
0100
0001
0001
0010
0010
,
0100
0100
1000
1000
0001
0001
1000
0001
,
2002
0000
0000
0000
,
0000
0000
0000
0000
0000
0000
0000
0000
0000
0000
0000
0000
0000
0000
0000
0000
0000
0000
0000
0000
0000
0000
0000
0000
0000
0000
0000
0000
0000
0000
0000
0000
0000
0000
0000
0000
0000
0000
0000
0000
0000
0000
0000
0000
0000
0000
0000
0000
0000
3003
0000
0000
0000
0000
0000
0000
0000
0000
0000
0000
0000
0000
0000
0000
0000
0000
0000
0000
0000
0000
0000
0000
0000
0000
0000
0000
0000
0000
0000
0000
0000
0000
0000
0000
0000
0000
0000
0000
0000
0000
0000
0000
0000
0000
0000
0000
0000
0000
0000
0000
0000
0000
0000
0000
0000
0000
0000
0000
0000
0000
0000
0000
0000
0000
0000
0000
0000
0000
0000
0000
0000
0000
0000
0000
0000
0000
0000
0000
0000
0000
0000
0000
0000
0000
0000
0000
0000
0000
0000
0000
0000
0000
0000
0000
0000
0000
0000
0000
0000
0000
0000
0000
0000
0000
0000
0000
0000
0000
0000
0000
0000
0000
0000
0000
0000
0000
0000
0000
0000
0000
0000
0000
0000
0000
0000
0000
0000
0000
0000
0000
0000
0000
0000
0000
0000
0000
0000
0000
0000
0000
0000
0000
;

//---------------dance-single - ----------------
#NOTES:
     dance-single:
     :
     Easy:
     6:
     0.382,0.282,0.086,0.222,0.000:
0000
0000
0000
0000
0000
2002
0000
3003
,
0000
2000
0000
3000
0000
0200
0000
0300
,
0000
0020
0000
0030
0000
0002
0000
0003
,
0000
2000
0000
3000
0000
0200
0000
0300
,
0000
0020
0000
0030
0000
1000
0001
0100
,
0000
0100
0000
0100
0000
1000
0010
0100
,
0000
0001
0000
0001
0000
0001
1000
0010
,
0000
0100
0000
0100
0000
1000
0100
0010
,
0000
0001
0000
0001
0000
1000
0000
0001
,
0000
1000
0000
0001
0000
1000
0000
1000
,
0000
0010
0000
0010
0000
1000
0010
1000
,
0000
0001
1000
0001
0000
2000
0000
0000
,
0000
3001
0000
0100
0000
0010
0000
1000
,
0000
0100
0000
0100
0000
0100
0000
1000
,
0000
0100
0000
0010
0000
1000
0010
1000
,
0000
0001
0000
0001
0000
1000
0010
1000
,
0000
0100
0000
0100
0000
0100
0000
0100
,
0000
1000
0100
0010
0000
0100
0000
0010
,
0000
0001
0010
0100
0000
1000
0000
0010
,
0000
1000
0100
0010
0000
0001
0000
1000
,
0000
2002
0000
0000
0000
0000
0000
3003
,
0000
1000
0000
1000
0000
0100
0000
0100
,
0000
0100
0010
0100
0000
0001
0000
0001
,
0000
0001
1000
0001
0000
0100
0000
0010
,
0000
1000
0010
1000
0000
0100
0010
0100
,
0000
0001
0000
0001
0000
0001
1000
0001
,
0000
0100
0000
0100
0000
0100
0010
0100
,
0000
0001
1000
0001
0000
0100
0000
0010
,
0000
1000
0001
1000
0000
0100
0010
0100
,
0000
1000
0000
1000
0000
0100
0000
0100
,
0000
0010
0001
0010
0000
0100
0010
0100
,
0000
1000
0100
1000
0000
0100
0010
0100
,
0000
0010
0001
0010
0000
0100
0010
0100
,
0000
1000
0000
1000
0000
1000
0001
0100
,
0000
0010
0000
1000
0000
0001
1000
0100
,
0000
0010
0000
0010
0000
1000
0000
1000
,
0000
1001
0000
0000
0000
0000
0000
0010
,
0000
1001
0000
0100
0000
0100
0000
0100
,
0000
1000
0010
1000
0000
0001
0000
0001
,
0000
0100
0010
0100
0000
0001
0000
0001
,
0000
1000
0001
1000
0000
0010
0000
0010
,
0000
0010
0000
1000
0000
1000
0000
1000
,
0000
1000
0001
1000
0000
0010
0000
0010
,
0000
0001
0100
0001
0000
1000
0000
1000
,
0000
0001
0000
1000
0000
2002
0000
3003
,
0000
0100
0000
0010
0000
0010
0000
1000
,
0001
1000
0000
0100
0000
0100
0000
0010
,
1000
0010
0000
0100
0000
0100
0000
0010
,
1000
0010
0000
0100
0000
0100
0000
0001
,
0000
0001
0000
1000
0000
1000
0000
0010
,
0000
1000
0000
0010
0000
0100
0000
1000
,
0000
0100
0000
0010
0000
1000
0000
0002
,
0000
0000
0000
1003
0000
0100
0000
0010
,
0000
0010
0000
1000
0000
1000
0000
0002
,
0000
0000
0000
2003
0000
0000
0000
3000
,
0000
0000
0000
0020
0000
0000
0000
2030
,
0000
0000
0000
3002
0000
0000
0000
0003
,
0000
0000
0000
2000
0000
0000
0000
3000
,
0000
0000
0000
0020
0000
0000
0000
0030
,
0000
0000
0000
2000
0000
0000
3000
0001
,
0000
1001
0000
0100
0000
0010
0000
0000
,
0000
1000
0000
0100
0000
2000
0000
0000
,
3000
0002
0000
0000
0000
0003
0000
0000
,
0000
0100
0000
1000
0000
0001
0000
1000
,
0000
0010
0000
0010
0000
0100
0000
0100
,
0000
1000
0000
0100
0000
0000
0010
0100
,
0000
1000
0000
0000
0000
0100
0000
0000
,
0000
0100
0000
0000
0000
0010
0000
0000
,
0000
0001
0000
0000
0000
0001
0000
0000
,
0000
1000
0000
0000
0000
0001
0000
0000
,
0000
2002
0000
0000
0000
0000
0000
0000
,
3003
0000
0000
0000
,
0000
0200
0000
0000
,
0000
0000
0000
0000
,
0300
0000
0000
0000
0000
0100
0000
0100
,
0000
0000
0000
0000
0000
0010
0000
0010
,
0000
0000
0000
0000
0000
1001
0000
1001
,
0000
0000
0000
0000
0000
0010
0000
0100
,
0000
1001
0000
0000
0000
0000
0000
0000
,
0000
0002
0000
0000
0000
0000
0000
0000
,
0000
0000
0000
0000
0000
0000
0000
1003
,
0000
0000
0000
0100
,
0100
0000
0010
0010
,
0010
1000
1000
0000
,
0010
0010
0100
0100
,
0001
0000
0000
1000
,
1000
0000
0000
0100
,
0100
0000
0000
0010
,
0010
0001
0001
0000
,
1001
0000
1000
1000
,
1000
0000
0010
0010
,
0010
0000
0000
0001
,
0001
0000
1000
1000
,
0001
0001
1000
1000
,
0001
0001
1000
1000
,
1000
1000
0100
0100
,
0010
0001
0010
0100
,
2002
0000
0000
0000
,
0000
0000
0000
0000
0000
0000
0000
0000
0000
0000
0000
0000
0000
0000
0000
0000
0000
0000
0000
0000
0000
0000
0000
0000
0000
0000
0000
0000
0000
0000
0000
0000
0000
0000
0000
0000
0000
0000
0000
0000
0000
0000
0000
0000
0000
0000
0000
0000
0000
3003
0000
0000
0000
0000
0000
0000
0000
0000
0000
0000
0000
0000
0000
0000
0000
0000
0000
0000
0000
0000
0000
0000
0000
0000
0000
0000
0000
0000
0000
0000
0000
0000
0000
0000
0000
0000
0000
0000
0000
0000
0000
0000
0000
0000
0000
0000
0000
0000
0000
0000
0000
0000
0000
0000
0000
0000
0000
0000
0000
0000
0000
0000
0000
0000
0000
0000
0000
0000
0000
0000
0000
0000
0000
0000
0000
0000
0000
0000
0000
0000
0000
0000
0000
0000
0000
0000
0000
0000
0000
0000
0000
0000
0000
0000
0000
0000
0000
0000
0000
0000
0000
0000
0000
0000
0000
0000
0000
0000
0000
0000
0000
0000
0000
0000
0000
0000
0000
0000
0000
0000
0000
0000
0000
0000
0000
0000
0000
0000
0000
0000
0000
0000
0000
0000
0000
0000
0000
0000
0000
0000
0000
0000
;

//---------------dance-single - ----------------
#NOTES:
     dance-single:
     :
     Beginner:
     4:
     0.129,0.141,0.036,0.093,0.000:
0000
0000
0000
0000
0000
1000
0000
0000
,
0000
0100
0000
0000
0000
0010
0000
0000
,
0000
0001
0000
0000
0000
0010
0000
0000
,
0000
0100
0000
0000
0000
1000
0000
0000
,
0000
0001
0000
0000
0000
1000
0000
0000
,
0000
0000
0000
0000
0000
0010
0000
0000
,
0000
0000
0000
0000
0000
0100
0000
0000
,
0000
0000
0000
0000
0000
0001
0000
0000
,
0000
0000
0000
0000
0000
0010
0000
0000
,
0000
0000
0000
0000
0000
0010
0000
0000
,
0000
0000
0000
0000
0000
1000
0000
0000
,
0000
0000
0000
0000
0000
2000
3000
0000
,
0000
0001
0000
0000
0000
0000
0000
0000
,
0000
0100
0000
0000
0000
0000
0000
0000
,
0000
0100
0000
0000
0000
0000
0000
0000
,
0000
0010
0000
0000
0000
0000
0000
0000
,
0000
0001
0000
0000
0000
0000
0000
0000
,
0000
1000
0000
0000
0000
0000
0000
0000
,
0000
0001
0000
0000
0000
0000
0000
0000
,
0000
0010
0000
0000
0000
0000
0000
0000
,
0000
2002
0000
0000
0000
0000
0000
3003
,
0000
1000
0000
0000
0000
0000
0000
0000
,
0000
0100
0000
0000
0000
0000
0000
0000
,
0010
0000
0000
0000
,
0000
0001
0000
0000
0000
0000
0000
0000
,
0000
0100
0000
0000
0000
0000
0000
0000
,
0000
0010
0000
0000
0000
0000
0000
0000
,
0000
0100
0000
0000
0000
0000
0000
0000
,
0000
1001
0000
0000
0000
0000
0000
0000
,
0000
0010
0000
0000
0000
0000
0000
0000
,
0000
0100
0000
0000
0000
0000
0000
0000
,
0000
1000
0000
0000
0000
0000
0000
0000
,
0000
0010
0000
0000
0000
0000
0000
0000
,
0000
0001
0000
0000
0000
0000
0000
0000
,
0000
0100
0000
0000
0000
0000
0000
0000
,
0000
0010
0000
0000
0000
0000
0000
0000
,
0000
1000
0000
0000
0000
0000
0000
0001
,
0000
1000
0000
0000
0000
0000
0000
0000
,
0000
1000
0000
0000
0000
0000
0000
0000
,
0000
0001
0000
0000
0000
0000
0000
0000
,
0000
1000
0000
0000
0000
0010
0000
0000
,
0000
0010
0000
0000
0000
0000
0000
0000
,
0000
0001
0000
0000
0000
0000
0000
0000
,
0000
1000
0000
0000
0000
0000
0000
0000
,
0000
0100
0000
0000
0000
2000
0000
3001
,
0000
0000
0000
0000
0000
0000
0000
0001
,
0000
0000
0000
0000
0000
0000
0000
1000
,
0000
0000
0000
0000
0000
0000
0000
0100
,
0000
0000
0000
0000
0000
0000
0000
0010
,
0000
0000
0000
0000
0000
0000
0000
0001
,
0000
0000
0000
0000
0000
0000
0000
1000
,
0000
0000
0000
0000
0000
0000
0000
2000
,
0000
0000
0000
3100
0000
0000
0000
0000
,
0000
0000
0000
0000
0000
0000
0000
2000
,
0000
0000
3000
0000
,
0000
0000
0000
0002
0000
0000
0000
0000
,
0000
0003
0000
2000
0000
0000
0000
0000
,
3000
0000
0000
0002
0000
0000
0000
0003
,
0000
0000
0000
2000
0000
0000
0000
3000
,
0000
0000
0000
0002
0000
0000
0003
0000
,
0000
1000
0000
0000
0000
0000
0000
0000
,
0000
0000
0000
0000
0000
0100
0000
0000
,
0000
0100
0000
0000
0000
0000
0000
0000
,
0000
0010
0000
0000
0000
0000
0000
0000
,
0000
0001
0000
0000
0000
0000
0000
0000
,
0000
1000
0000
0000
0000
0000
0000
0000
,
0000
1000
0000
0000
0000
0000
0000
0000
,
0000
0000
0000
0000
,
0000
0001
0000
0000
0000
0000
0000
0000
,
0000
0000
0000
0000
,
0000
1001
0000
0000
0000
0000
0000
0000
,
0000
0000
0000
0000
,
0000
0100
0000
0000
,
0000
0000
0000
0000
,
0000
0001
0000
0000
0000
0000
0000
0000
,
0000
1000
0000
0000
0000
0000
0000
0000
,
0000
0100
0000
0000
0000
0000
0000
0000
,
0000
1000
0000
0000
0000
0001
0000
0000
,
0000
1001
0000
0000
0000
0000
0000
0000
,
0000
0100
0000
0000
0000
0000
0000
0000
,
0000
0000
0000
0000
,
0001
0000
0000
0000
,
1000
0000
0000
0000
,
0100
0000
0000
0000
,
0010
0000
0000
0000
,
0001
0000
0000
0000
,
1000
0000
0000
0000
,
0100
0000
0000
0000
,
0010
0000
0000
0000
,
0001
0000
0000
0000
,
1000
0000
0000
0000
,
0100
0000
0000
0000
,
0010
0000
0000
0001
,
0001
0000
0000
0000
,
1000
0000
0000
0000
,
0001
0001
0001
0001
,
1000
1000
1000
1000
,
2002
0000
0000
0000
,
0000
0000
0000
0000
0000
0000
0000
0000
0000
0000
0000
0000
0000
0000
0000
0000
0000
0000
0000
0000
0000
0000
0000
0000
0000
0000
0000
0000
0000
0000
0000
0000
0000
0000
0000
0000
0000
0000
0000
0000
0000
0000
0000
0000
0000
0000
0000
0000
0000
3003
0000
0000
0000
0000
0000
0000
0000
0000
0000
0000
0000
0000
0000
0000
0000
0000
0000
0000
0000
0000
0000
0000
0000
0000
0000
0000
0000
0000
0000
0000
0000
0000
0000
0000
0000
0000
0000
0000
0000
0000
0000
0000
0000
0000
0000
0000
0000
0000
0000
0000
0000
0000
0000
0000
0000
0000
0000
0000
0000
0000
0000
0000
0000
0000
0000
0000
0000
0000
0000
0000
0000
0000
0000
0000
0000
0000
0000
0000
0000
0000
0000
0000
0000
0000
0000
0000
0000
0000
0000
0000
0000
0000
0000
0000
0000
0000
0000
0000
0000
0000
0000
0000
0000
0000
0000
0000
0000
0000
0000
0000
0000
0000
0000
0000
0000
0000
0000
0000
0000
0000
0000
0000
0000
0000
0000
0000
0000
0000
0000
0000
0000
0000
0000
0000
0000
0000
0000
0000
0000
0000
0000
0000
;
