#TITLE:DM STAR;
#SUBTITLE:~Kansai energy style~;
#ARTIST:NAOKI;
#TITLETRANSLIT:;
#SUBTITLETRANSLIT:;
#ARTISTTRANSLIT:;
#GENRE:;
#CREDIT:;
#BANNER:DM STAR ~Kansai energy style~.png;
#BACKGROUND:DM STAR ~Kansai energy style~-bg.png;
#LYRICSPATH:;
#CDTITLE:;
#MUSIC:DM STAR ~Kansai energy style~.mp3;
#MENUCOLOR:1,0,0,1;
#METERTYPE:DDR X;
#OFFSET:-0.193;
#SAMPLESTART:100.030;
#SAMPLELENGTH:12.000;
#SELECTABLE:YES;
#BPMS:0.000=155.090
;
#STOPS:294.500=0.193
,295.500=0.193
,296.500=0.193
,298.500=0.193
,300.500=0.193
,301.500=0.193
;
#BGCHANGES:;
#KEYSOUNDS:;
#ATTACKS:;

//---------------dance-single - ----------------
#NOTES:
     dance-single:
     :
     Hard:
     17:
     0.839,0.865,0.963,0.299,0.388,570.000,119.000,37.000,0.000,0.000,0.000,0.839,0.865,0.963,0.299,0.388,570.000,119.000,37.000,0.000,0.000,0.000: // measure 0
0000
0000
0000
0000
,  // measure 1
0000
0000
1001
0000
0000
0000
0110
0000
0000
0000
0100
0010
0001
0000
1001
0000
,  // measure 2
0100
0000
0010
0000
0100
0000
0101
0000
1000
0100
0010
0000
0100
0000
0110
0000
,  // measure 3
1000
0000
0001
0000
0100
0000
1001
0000
0100
0000
0010
1000
0100
0000
0110
0000
,  // measure 4
1000
0001
0100
1001
0100
0010
0100
1001
,  // measure 5
0100
0000
0010
0000
1000
0000
1010
0000
0100
0010
0001
0010
0100
0000
0101
0000
,  // measure 6
0100
0001
0010
1000
0100
0000
0110
0000
1000
0100
0001
0100
1000
0000
1001
0000
,  // measure 7
0100
1000
0010
0001
0100
0000
0110
0000
1000
0010
0001
0010
1000
0000
1001
0000
,  // measure 8
0100
0010
0100
0010
1000
1000
0100
0010
,  // measure 9
0010
0000
0100
1000
0100
1000
0001
0010
0001
0010
1000
0100
0020
0000
0000
0000
,  // measure 10
0030
0000
1001
0000
1000
0000
1010
0000
0100
0010
0001
0010
0100
0010
0001
0010
,  // measure 11
0100
0000
1010
0000
0100
0000
0110
0000
0100
0010
0001
0100
1000
0100
0010
1000
,  // measure 12
0100
0000
1001
0000
0100
0000
1001
0000
0100
1000
0010
0001
0100
1000
0010
0000
,  // measure 13
0100
0000
1010
0000
0001
0000
1010
0000
0001
1000
0100
0001
0010
1000
0100
0000
,  // measure 14
0001
1001
0010
1001
0010
1001
0010
0100
,  // measure 15
0010
0110
0100
0110
0100
1001
0100
0010
,  // measure 16
1001
0100
0010
0100
0001
1001
0100
0010
,  // measure 17
0100
1001
0100
0110
0100
1010
1010
2010
,  // measure 18
0000
3000
0001
0010
0001
0010
0001
0010
1000
0100
1000
0100
1000
0100
0001
0010
,  // measure 19
0001
0010
0110
0000
0100
0000
0110
0000
0000
0000
1000
0001
1000
0001
1000
0001
,  // measure 20
1000
0001
1001
0000
0100
1000
0010
0000
0110
0000
1000
0100
0001
0000
1001
0000
,  // measure 21
0001
0100
1001
0000
1000
0000
0001
0000
1000
0000
0001
0100
1000
0100
0001
0100
,  // measure 22
1000
0001
0100
0000
0010
1000
0001
0000
0000
0000
0010
0000
1100
0000
0100
0000
,  // measure 23
0010
0001
0010
0100
1000
0100
0010
0001
,  // measure 24
1000
1001
1000
0001
1001
1000
0010
0100
,  // measure 25
0001
1001
0100
0010
0200
0020
0000
0000
,  // measure 26
0330
1001
0000
1001
0000
1001
0100
0010
,  // measure 27
0100
0110
1000
0001
1000
0001
1000
1010
,  // measure 28
1000
1010
0100
0001
0100
0010
0100
0010
,  // measure 29
0100
0110
1000
0001
0100
0010
1000
1010
,  // measure 30
1000
0101
0100
0010
0100
0010
1000
0001
,  // measure 31
0100
0010
1000
0010
1000
0001
0100
0110
,  // measure 32
1001
0110
0100
0010
1000
0100
1000
0100
,  // measure 33
0010
0000
0100
0000
0010
0000
1000
0000
0100
0000
0010
0000
0100
0010
0001
0100
,  // measure 34
1000
0100
0002
0000
0000
0000
0100
0000
0000
0000
1000
0000
0000
0000
0100
0000
,  // measure 35
0000
2003
0000
0010
0000
0001
0000
0010
,  // measure 36
0000
3002
0000
0100
0000
1000
0000
0100
,  // measure 37
0000
2003
0000
0010
0000
0001
0000
0010
,  // measure 38
0000
3002
0000
0100
0000
0010
0000
0100
,  // measure 39
0000
0203
0000
0010
0000
0010
0000
0010
,  // measure 40
0000
0302
0000
0100
0000
1000
0000
0103
,  // measure 41
0000
2002
0000
0000
0000
0000
0000
0000
,  // measure 42
3003
0000
0110
0000
1000
0000
0101
0000
1000
0100
0010
0001
0100
1000
0010
0001
,  // measure 43
0100
0010
1001
0000
0100
0000
0110
0000
1000
0100
0001
0010
0100
1000
0010
0001
,  // measure 44
0100
0010
1010
0000
1000
0000
1010
0000
1000
0100
0001
0010
0100
1000
0001
0010
,  // measure 45
0100
1000
1010
0000
0000
0000
0010
0000
0100
0000
0010
0000
0100
0000
0010
0000
,  // measure 46
0000
1001
1000
1010
1000
0001
0100
0010
,  // measure 47
0000
1001
0100
0010
0100
0001
0100
0010
,  // measure 48
0000
1010
1000
1010
0100
0001
0100
0110
,  // measure 49
0000
1001
0000
1001
0000
1001
1000
1001
,  // measure 50
0000
0001
0100
0001
0100
0010
1000
0010
1000
0100
1000
0100
0010
0001
1001
0000
,  // measure 51
1000
0000
0010
0000
0100
0000
0010
0000
0000
0000
1000
0010
0100
1000
0010
0100
,  // measure 52
0001
0010
0100
0000
0010
0000
0100
0000
0001
0000
0100
0000
0010
0000
0100
0000
,  // measure 53
0010
0000
1000
0000
0100
0000
1000
0001
0100
1000
0010
1000
0100
0001
0010
1000
,  // measure 54
0100
0010
0001
0000
0010
0000
0001
1000
0010
0000
0100
0001
0010
0000
0100
1000
,  // measure 55
0010
0000
1000
0001
0100
0000
0020
0000
0000
0000
1030
0100
0001
0010
0100
1000
,  // measure 56
0010
0001
2000
0000
0000
0000
3020
0000
0030
0000
0200
0000
0000
0000
0302
0000
,  // measure 57
0000
2003
0000
3020
0000
0230
0000
0002
,  // measure 58
0303
2002
0000
0000
0000
0000
0000
0000
,  // measure 59
0000
0000
0000
0000
,  // measure 60
3003
0220
0000
0000
0000
0000
0000
0000
,  // measure 61
0000
0000
0000
0000
0000
0000
0000
0330
,  // measure 62
1000
2002
0000
0000
0000
0000
0000
0000
,  // measure 63
3000
0200
0000
0000
0000
0000
0000
0000
,  // measure 64
0303
2020
0000
0000
3030
0202
0000
0000
,  // measure 65
0303
0220
0000
0000
0000
0000
0000
0000
,  // measure 66
0330
1010
0000
0110
0000
0101
1000
0110
,  // measure 67
1000
0101
0100
0110
0100
0101
0100
0110
,  // measure 68
0110
0110
0100
0101
0100
0101
0100
0101
,  // measure 69
0110
1000
0110
0100
0110
0100
0001
0100
,  // measure 70
1001
1001
0100
0010
0100
0010
0100
1001
,  // measure 71
1001
0100
0010
0110
0100
0001
0100
0001
,  // measure 72
1000
1001
0100
0010
0100
1001
0100
0010
,  // measure 73
0100
0110
1000
0101
0010
1001
0110
1001
,  // measure 74
0110
0000
0011
0000
0110
0000
1000
0000
0001
0000
0011
0000
0100
1000
0010
0000
,  // measure 75
1000
0110
1001
0011
1000
0202
0000
0000
,  // measure 76
0000
0000
0000
0303
0000
0000
0000
0000
;

//---------------dance-single - ----------------
#NOTES:
     dance-single:
     :
     Medium:
     10:
     0.495,0.464,0.186,0.081,0.000,395.000,23.000,10.000,0.000,0.000,0.000,0.495,0.464,0.186,0.081,0.000,395.000,23.000,10.000,0.000,0.000,0.000:
0000
0000
0000
0000
,
0000
1000
0000
0100
0000
0010
1000
0010
,
0000
0100
0010
0100
0000
1000
0100
0010
,
0000
0001
0010
0100
0000
1000
0100
0010
,
0000
0100
0010
0100
0000
1000
0100
0010
,
0100
0001
0000
0101
0000
0100
0010
0110
,
0000
1000
0000
1001
0000
0100
0010
0110
,
0000
1000
0001
1001
0000
0100
0010
0110
,
0000
1000
0100
0010
0000
0001
0010
0100
,
0000
1000
0100
0010
0001
0100
0020
0000
,
0000
1030
0000
0010
0000
1000
0010
1000
,
0000
0100
0010
0100
0000
1000
0100
0010
,
0001
0100
0000
0010
0000
1000
0010
1000
,
0000
1000
0100
0010
0001
0010
0100
1000
,
0000
0100
0000
0100
0000
0010
0100
0010
,
0000
1000
0000
1000
0000
0001
0010
0100
,
0000
1000
0000
1000
0000
0100
0010
0100
,
0000
1000
0000
1000
0000
1000
0001
1000
,
0000
0010
0100
0010
0000
1000
0001
1000
,
0000
0010
0000
0010
0000
0100
0010
0100
,
0010
0100
0000
0100
0000
1000
0100
1000
,
0000
0100
0000
0110
0000
1000
0100
0010
,
0100
0010
0000
0100
0000
0001
0100
0001
,
0000
0100
0010
0100
0000
1000
0100
0010
,
0001
0100
0000
0010
0000
1000
0001
1000
,
0000
1000
0001
2000
0000
0000
0000
0000
,
3000
0001
0000
0100
0000
0010
0000
1000
,
0001
1000
0000
0010
0000
0100
0000
0001
,
1000
0001
0000
0100
0000
0110
0000
1000
,
0001
1000
0000
0001
0000
0100
0000
0010
,
0100
0110
0000
1000
0000
0001
1000
0001
,
1000
0001
0000
0100
0000
0010
0000
1000
,
0010
1010
0000
0100
0000
0001
1000
0001
,
1000
0001
0000
0100
0000
0010
0000
1000
,
0001
2002
0000
0000
0000
0000
0000
0000
,
3000
0100
0000
1000
0000
0100
0000
1003
,
0000
2010
0000
0000
0000
0000
0000
0000
,
0000
0001
0000
0010
0000
0001
0000
3010
,
0000
0101
0000
0100
0000
0010
0000
0100
,
0000
1000
0000
0100
0000
0010
0000
0001
,
0000
0010
0000
1000
0000
0001
0000
0100
,
0000
2002
0000
0000
0000
0000
0000
3003
,
0000
0100
0000
0010
0000
1000
0010
1000
,
0000
0100
0010
0100
0010
0100
0010
0100
,
0000
0010
0000
0010
0000
0001
0010
0001
,
0000
0100
0001
0100
0001
0100
0001
0100
,
0000
1000
0000
1000
0000
0010
1000
0010
,
0000
0100
0010
0100
0010
0100
0010
0100
,
0000
0001
0000
1001
0000
0100
0000
0110
,
0000
1000
0000
1100
0000
0100
0000
0110
,
0000
0001
0010
0001
0000
0100
0010
0100
,
0000
1000
0100
0010
0001
0010
0100
1000
,
0100
0010
0000
0010
0000
0100
0001
0100
,
0000
1000
0100
0010
0001
0010
0100
1000
,
0100
0010
0000
0100
0001
0100
0000
0010
,
0100
0010
0100
1000
0100
0010
0001
0010
,
0100
1000
0000
0100
0010
0100
0000
1000
,
0100
0010
0000
1000
0100
0001
1000
0100
,
0010
2002
0000
0000
0000
0000
0000
3003
,
0000
0100
0000
0010
0000
1000
0000
0100
,
0010
0100
0000
1000
0000
0100
0010
0001
,
0010
0000
0100
0010
0000
0100
0000
1000
,
0001
1001
0000
0100
0000
0010
0000
1000
,
0100
0010
0000
0100
0000
0001
0000
0001
,
0010
0100
0000
1000
0000
0100
0000
0010
,
0000
1000
0100
0010
0001
0010
0100
1000
,
0100
0001
0000
1000
0000
0001
0000
0100
,
0010
0100
0010
0100
0000
1000
0000
1000
,
0100
0010
0000
0001
0000
0001
0010
0100
,
1000
0000
1000
0100
0000
0010
0000
1000
,
0100
0010
0000
1000
0000
0001
0000
0100
,
0010
1000
0010
0100
0000
0010
0000
1000
,
0100
1001
0000
0100
0000
0110
0000
0100
,
0000
0001
0000
0100
0000
0001
1000
0010
,
1000
0010
0100
0000
0010
1000
0001
0100
,
0000
1001
0100
0010
1000
0002
0000
0000
,
0000
0000
0000
0000
0000
0000
0000
0000
0000
0000
0000
0000
0000
0000
0000
0000
0000
0000
0000
0000
0000
0000
0000
0000
0000
0000
0000
0000
0000
0000
0000
0000
0000
0000
0000
0000
0000
0000
0000
0000
0000
0000
0000
0000
0000
0000
0000
0000
0000
0000
0000
0000
0000
0000
0000
0000
0000
0000
0000
0000
0000
0000
0000
0000
0000
0000
0000
0000
0000
0000
0000
0000
0000
0003
0000
0000
0000
0000
0000
0000
0000
0000
0000
0000
0000
0000
0000
0000
0000
0000
0000
0000
0000
0000
0000
0000
0000
0000
0000
0000
0000
0000
0000
0000
0000
0000
0000
0000
0000
0000
0000
0000
0000
0000
0000
0000
0000
0000
0000
0000
0000
0000
0000
0000
0000
0000
0000
0000
0000
0000
0000
0000
0000
0000
0000
0000
0000
0000
0000
0000
0000
0000
0000
0000
0000
0000
0000
0000
0000
0000
0000
0000
0000
0000
0000
0000
0000
0000
0000
0000
0000
0000
0000
0000
0000
0000
0000
0000
0000
0000
0000
0000
0000
0000
0000
0000
0000
0000
0000
0000
0000
0000
0000
0000
0000
0000
0000
0000
0000
0000
0000
0000
;

//---------------dance-single - ----------------
#NOTES:
     dance-single:
     :
     Easy:
     6:
     0.320,0.309,0.170,0.049,0.000,250.000,21.000,6.000,0.000,0.000,0.000,0.320,0.309,0.170,0.049,0.000,250.000,21.000,6.000,0.000,0.000,0.000:
0000
0000
0000
0000
,
0000
1001
0000
0100
0000
0010
0000
1001
,
0000
0100
0000
0010
0000
0100
0000
1001
,
0000
0100
0000
0010
0000
0100
0000
1001
,
0000
0010
0000
0100
0000
0010
0000
1001
,
0000
1000
0000
0001
0000
1000
0000
1001
,
0000
0001
0000
1000
0000
0001
0000
1001
,
0000
0010
0000
0100
0000
0010
0000
0110
,
0000
0100
0000
0010
0000
0100
0000
0110
,
0000
1000
0000
0100
0000
0010
0001
0000
,
0000
0100
0000
0010
0000
1000
0000
0001
,
0000
0100
0000
0010
0000
1000
0000
0100
,
0000
0001
0000
0001
0000
1000
0000
1000
,
0000
0010
0000
0010
0000
0100
0000
0010
,
0000
1000
0000
1000
0000
0100
0000
0100
,
0000
1000
0000
1000
0000
0010
0000
0010
,
0000
0100
0000
0100
0000
0001
0000
0001
,
0000
1000
0000
0100
0000
0010
0000
1001
,
0000
0100
0000
0100
0000
0100
0000
0100
,
0000
0010
0000
0010
0000
0010
0000
0010
,
0000
1000
0000
1000
0000
0001
0000
0001
,
0000
1000
0000
1000
0000
0100
0000
0100
,
0000
0010
0000
0010
0000
1000
0000
1000
,
0000
0001
0000
0001
0000
1000
0000
1000
,
0000
0001
0000
0001
0000
0100
0000
0100
,
0000
0010
0000
1000
0000
0001
0000
0000
,
0000
1000
0000
0001
0000
1000
0000
0001
,
0000
0100
0000
0010
0000
0100
0000
0010
,
0000
1000
0000
0001
0000
1000
0000
0001
,
0000
0100
0000
0010
0000
0100
0000
0010
,
0000
1001
0000
0100
0000
0010
0000
0100
,
0000
1000
0000
0100
0000
0010
0000
0001
,
0000
1000
0000
0001
0000
1000
0000
0001
,
0000
1000
0000
1000
0000
0100
0000
0100
,
0000
1001
0000
0100
0000
0100
0000
0100
,
0000
0000
0000
0010
0000
0010
0000
0010
,
0000
1001
0000
0100
0000
0100
0000
0100
,
0000
0000
0000
0010
0000
0010
0000
0010
,
0000
1001
0000
0000
0000
0000
0000
0010
,
0000
0010
0000
0000
0000
1000
0000
1000
,
0000
1000
0000
0010
0000
0010
0000
0010
,
0000
2002
0000
0000
0000
0000
3003
0000
,
0000
1000
0000
1000
0000
0010
0000
0010
,
0000
0100
0000
0100
0000
1000
0000
0100
,
0000
0010
0000
0001
0000
0001
0000
0001
,
0000
0010
0000
0100
0000
1000
0000
0100
,
0000
0001
0000
0001
0000
1000
0000
1000
,
0000
0100
0000
0100
0000
0010
0000
0010
,
0000
1000
0000
0001
0000
1000
0000
1001
,
0000
0010
0000
0010
0000
0010
0000
1001
,
0000
0100
0000
0100
0000
0100
0000
0100
,
0000
0010
0000
1000
0000
1000
0000
1000
,
0000
0001
0000
0001
0000
0100
0000
0100
,
0000
0010
0000
1000
0000
0010
0000
1000
,
0000
0010
0000
1000
0000
0100
0000
0010
,
0000
0001
0000
0100
0000
0010
0000
1000
,
0000
1001
0000
0000
0000
1001
0000
0000
,
0000
1001
0000
0000
0000
0000
0000
0000
,
0000
2000
0000
0000
0000
0000
0000
0000
,
0000
0000
3000
0000
,
0000
0002
0000
0000
0000
0000
0000
0000
,
0000
0003
0000
0000
,
0000
0200
0000
0000
0000
0000
0000
0000
,
0000
0300
0000
0000
0000
0000
0000
0000
,
0000
1000
0000
0000
0000
0001
0000
0000
,
0000
1000
0000
0010
0000
0100
0000
0000
,
0000
1000
0000
1000
0000
1000
0000
0000
,
0000
0010
0000
0010
0000
0010
0000
0000
,
0000
0001
0000
0001
0000
0001
0000
0000
,
0000
0100
0000
0100
0000
0100
0000
0000
,
0000
1001
0000
0000
0000
0010
0000
0010
,
0000
0010
0000
0000
0000
1000
0000
1000
,
0000
1000
0000
0000
0000
0001
0000
0000
,
0000
1000
0000
0000
0000
0001
0000
1000
,
0000
0010
0000
0000
0000
1000
0000
0001
,
0000
0000
0000
1000
0000
0002
0000
0000
,
0000
0000
0000
0000
0000
0000
0000
0000
0000
0000
0000
0000
0000
0000
0000
0000
0000
0000
0000
0000
0000
0000
0000
0000
0000
0000
0000
0000
0000
0000
0000
0000
0000
0000
0000
0000
0000
0000
0000
0000
0000
0000
0000
0000
0000
0000
0000
0000
0000
0000
0000
0000
0000
0000
0000
0000
0000
0000
0000
0000
0000
0000
0000
0000
0000
0000
0000
0000
0000
0000
0000
0000
0000
0000
0003
0000
0000
0000
0000
0000
0000
0000
0000
0000
0000
0000
0000
0000
0000
0000
0000
0000
0000
0000
0000
0000
0000
0000
0000
0000
0000
0000
0000
0000
0000
0000
0000
0000
0000
0000
0000
0000
0000
0000
0000
0000
0000
0000
0000
0000
0000
0000
0000
0000
0000
0000
0000
0000
0000
0000
0000
0000
0000
0000
0000
0000
0000
0000
0000
0000
0000
0000
0000
0000
0000
0000
0000
0000
0000
0000
0000
0000
0000
0000
0000
0000
0000
0000
0000
0000
0000
0000
0000
0000
0000
0000
0000
0000
0000
0000
0000
0000
0000
0000
0000
0000
0000
0000
0000
0000
0000
0000
0000
0000
0000
0000
0000
0000
0000
0000
0000
0000
;

//---------------dance-single - ----------------
#NOTES:
     dance-single:
     :
     Beginner:
     3:
     0.123,0.153,0.089,0.016,0.000,93.000,11.000,2.000,0.000,0.000,0.000,0.123,0.153,0.089,0.016,0.000,93.000,11.000,2.000,0.000,0.000,0.000:
0000
0000
0000
0000
,
0000
1001
0000
0000
0000
0000
0000
0000
,
0000
0100
0000
0000
0000
0000
0000
0000
,
0000
0010
0000
0000
0000
0000
0000
0000
,
0000
0001
0000
0000
0000
0000
0000
0000
,
0000
1000
0000
0000
0000
0000
0000
0000
,
0000
0100
0000
0000
0000
0000
0000
0000
,
0000
0010
0000
0000
0000
0000
0000
0000
,
0000
0001
0000
0000
0000
0000
0000
0000
,
0000
1000
0000
0000
0000
0000
0000
0000
,
0000
0001
0000
0000
0000
0000
0000
0000
,
0000
0001
0000
0000
0000
0000
0000
0000
,
0000
1000
0000
0000
0000
0000
0000
0000
,
0000
0100
0000
0000
0000
0000
0000
0000
,
0000
0010
0000
0000
0000
0000
0000
0000
,
0000
0001
0000
0000
0000
0000
0000
0000
,
0000
0100
0000
0000
0000
0000
0000
0000
,
0000
1000
0000
1000
0000
1000
0000
1000
,
0000
0000
0000
0000
,
0000
0001
0000
0000
0000
0000
0000
0000
,
0000
1000
0000
0000
0000
0000
0000
0000
,
0000
0100
0000
0000
0000
0000
0000
0000
,
0000
0010
0000
0000
0000
0000
0000
0000
,
0000
0001
0000
0000
0000
0000
0000
0000
,
0000
1000
0000
0000
0000
0000
0000
0000
,
0000
1001
0000
0000
0000
0000
0000
0000
,
0000
0100
0000
0000
0000
0000
0000
0000
,
0000
0100
0000
0000
0000
0000
0000
0010
,
0000
0010
0000
0000
0000
0000
0000
0000
,
0000
0001
0000
0001
0000
0000
0000
0000
,
0000
1001
0000
0000
0000
0000
0000
0100
,
0000
0100
0000
0000
0000
0000
0000
1000
,
0000
1000
0000
0000
0000
0000
0000
0001
,
0000
0001
0000
0000
0000
0000
0000
1000
,
0000
1001
0000
0000
0000
0000
0000
0000
,
0000
0100
0000
0000
0000
0000
0000
0000
,
0000
1001
0000
0000
0000
0000
0000
0000
,
0000
0010
0000
0000
0000
0000
0000
0001
,
0000
1001
0000
0000
0000
0000
0000
0000
,
0000
0100
0000
0000
0000
0000
0000
0000
,
0000
0010
0000
0000
0000
0000
0000
0000
,
0000
1001
0000
0000
0000
0000
0000
0000
,
0000
0100
0000
0000
0000
0000
0000
0000
,
0000
0010
0000
0000
0000
0000
0000
1000
,
0000
0001
0000
0000
0000
0000
0000
0100
,
0000
0010
0000
0000
0000
0000
0000
0001
,
0000
1000
0000
0000
0000
0000
0000
0100
,
0000
0010
0000
0000
0000
0000
0000
0001
,
0000
1000
0000
0000
0000
0000
0000
1000
,
0000
1000
0000
0000
0000
0000
0000
0001
,
0000
0001
0000
0000
0000
0000
0000
0000
,
0000
0100
0000
0000
0000
0000
0000
0000
,
0000
0010
0000
0000
0000
0000
0000
0000
,
0000
2000
0000
0000
0000
0000
0000
0000
,
0000
3000
0000
0000
0000
0000
0000
0000
,
0000
0002
0000
0000
0000
0000
0000
0000
,
0000
0003
0000
0000
0000
1000
0000
0000
,
0000
0001
0000
0000
0000
0000
0000
0000
,
0000
1001
0000
0000
0000
0000
0000
0000
,
0000
0100
0000
0000
0000
0000
0000
0000
,
0000
0010
0000
0000
0000
0000
0000
0000
,
0000
0001
0000
0000
0000
0000
0000
0000
,
0000
1001
0000
0000
0000
0000
0000
0000
,
0000
0010
0000
0000
0000
0000
0000
0000
,
0000
0100
0000
0000
0000
0000
0000
0000
,
0000
1000
0000
0000
0000
0001
0000
0000
,
0000
1000
0000
0000
0000
0000
0000
0000
,
0000
0001
0000
0000
0000
0000
0000
0000
,
0000
0100
0000
0000
0000
0000
0000
0000
,
0000
0010
0000
0000
0000
0000
0000
0000
,
0000
1001
0000
0000
0000
0000
0000
0000
,
0000
1000
0000
0000
0000
0000
0000
0000
,
0000
1001
0000
0000
0000
0000
0000
0000
,
0000
0001
0000
0000
0000
1000
0000
0000
,
0000
0001
0000
0000
,
0000
1000
0000
0000
0000
0001
0000
0000
;
