#TITLE:BLACK.by X-Cross Fade;
#SUBTITLE:;
#ARTIST:DJ Mass MAD Izm*;
#TITLETRANSLIT:;
#SUBTITLETRANSLIT:;
#ARTISTTRANSLIT:;
#GENRE:;
#CREDIT:;
#BANNER:BLACK.by X-Cross Fade.png;
#BACKGROUND:BLACK.by X-Cross Fade-bg.png;
#LYRICSPATH:;
#CDTITLE:;
#MUSIC:BLACK.by X-Cross Fade.mp3;
#OFFSET:-0.096;
#SAMPLESTART:100.050;
#SAMPLELENGTH:12.000;
#SELECTABLE:YES;
#BPMS:0.000=163.000
,23.000=81.500
,23.500=163.000
,26.500=81.500
,27.000=163.000
,30.000=81.500
,30.500=163.000
,33.500=81.500
,34.000=163.000
,37.000=81.500
,37.500=163.000
,40.500=81.500
,41.000=163.000
,44.000=81.500
,44.500=163.000
,47.500=81.500
,48.000=163.000
;
#STOPS:51.000=0.184,
54.500=0.184,
58.000=0.184,
61.500=0.184,
65.000=0.184,
68.500=0.184,
72.000=0.184,
75.500=0.184
;
#BGCHANGES:;
#KEYSOUNDS:;
#ATTACKS:;

//---------------dance-single - ----------------
#NOTES:
     dance-single:
     :
     Hard:
     15:
     0.770,1.000,0.468,0.368,0.201,545.000,56.000,44.000,0.000,0.000,0.000,0.770,1.000,0.468,0.368,0.201,545.000,56.000,44.000,0.000,0.000,0.000:
0000
0000
0000
0000
,
0000
0000
0000
0000
,
0000
0000
0000
0000
,
0000
0000
0000
0000
,
2002
0000
0000
3003
,
0100
0010
0100
0000
0010
0000
0100
0000
0010
0000
0100
1000
0020
0000
1030
0000
,
0100
0100
0010
0100
0010
0200
1300
0010
,
0100
0000
0010
0000
0100
0000
0010
0100
2000
0000
3100
0000
0100
0000
0010
0000
,
0010
0000
0100
0010
0100
0000
0200
0000
0301
0000
0100
0000
0010
0000
0100
0000
,
0010
0000
0100
0010
0002
0000
0103
0000
0100
0000
0010
0000
0010
0000
1000
0000
,
1000
0100
2000
0000
3010
0000
0100
0000
0010
0000
0100
0000
1000
0000
0010
0100
,
0020
0130
0100
0100
0010
0010
0010
2001
,
3010
0100
0010
0100
0010
0100
1001
0110
,
0100
1100
0100
0010
0100
0110
0011
0100
,
0110
0100
0010
0100
0110
1100
0100
0110
,
0010
0011
0100
0110
0110
0100
0010
0100
,
0010
0100
1010
0110
0100
0110
0010
0001
,
0010
0101
0010
0100
0101
0100
0010
0100
,
1010
0110
0100
0010
0100
0010
0100
0010
,
0002
0000
0000
0000
0103
0000
0010
0000
0100
0010
0100
0010
0100
0000
0010
0000
,
2000
0000
0000
0000
3010
0000
0100
0000
0010
1000
0100
0000
0001
0000
0100
0000
,
0020
0000
0130
0010
2000
3001
0100
0010
,
0200
0320
2030
3200
,
0310
0100
0010
0100
0001
0010
0200
0000
,
0301
1000
0010
0100
0010
0100
0002
0000
,
1003
0010
0100
0010
0100
0001
0100
0010
,
2000
3020
0230
0320
,
0031
1000
0100
0010
0100
0010
0100
0001
,
1001
0100
0010
0100
0001
1000
0010
0100
,
1100
0100
0010
0100
0001
0100
0010
0100
,
0011
0110
1100
0110
,
0001
0000
0100
0000
0010
0000
0100
0000
0001
1000
0001
0000
1000
0001
1000
0000
,
1010
0000
0000
0000
0110
0000
0000
0000
0010
0100
0010
0000
0100
0010
0100
0000
,
0110
0101
0110
1010
,
1010
0100
0010
0100
0001
0100
0010
0100
,
1010
0000
0000
0000
0100
0000
0010
0000
0100
0010
0100
0000
0200
0000
0000
0000
,
0310
0000
1000
0000
0010
0000
0100
0000
0001
0000
0100
0010
0002
0000
0000
0000
,
0103
0000
0100
0000
0010
0000
0010
0000
1000
0000
0001
0100
2000
0000
0000
0000
,
3100
0000
0100
0000
0010
0000
0100
0000
0010
0000
0100
0010
0002
0000
0000
0000
,
0103
0000
0100
0000
0010
0000
0100
0000
0010
0000
0100
0010
0002
0000
0000
0000
,
0103
0000
0100
0000
0010
0000
1000
0000
0010
0000
0100
1000
0020
0000
0000
0000
,
0130
0100
0010
1000
0100
0010
2000
0000
,
3100
0100
0010
0010
0010
0001
0001
0001
,
0100
0010
0100
0010
0100
0000
0110
0010
,
1000
1000
0000
0110
0000
0100
0010
0100
,
1001
0100
0010
0101
0100
0010
0100
0010
,
1010
0100
0010
0110
1000
0001
0100
0001
,
0101
0000
0100
0010
0100
0010
0100
0010
,
1010
0100
0010
0100
0010
0100
0001
0100
,
0011
0100
0001
0100
0010
0100
0001
0100
,
0001
0010
0000
0000
0010
0100
0000
0000
0100
1000
0000
0000
1000
0010
0000
0000
,
1010
0000
0100
0000
0001
0000
0100
0000
0010
0100
0010
0000
0020
0000
0000
0000
,
1030
0000
0100
0000
0010
0000
0100
0010
0001
0000
0100
0000
0110
0000
0000
0000
,
1000
0000
0010
0000
0100
0000
0010
0000
0100
0010
0001
0000
0101
0000
0000
0000
,
0100
0010
1000
0010
0100
0010
0100
0010
,
0010
0000
1000
1000
0010
0010
0000
0010
,
1000
0100
0010
0001
0100
0010
1001
0000
,
0100
0010
0100
0000
0010
0000
0100
0000
0010
0000
0100
0000
0020
0000
0000
0000
,
1030
0100
1000
0000
0100
0000
0010
0000
0010
0000
0100
0000
0002
0000
0000
0000
,
0103
0010
0100
0000
0010
0000
0100
0000
0010
0000
1000
0000
2000
0000
0000
0000
,
3001
0010
0001
0000
0100
0000
0001
0000
0100
0000
0001
0000
0002
0000
0000
0000
,
0203
0010
0320
1000
2030
0200
0000
3300
,
1000
0000
1000
0000
0100
0000
0010
0000
0100
0000
0010
0100
0000
0000
0010
0000
,
0100
0000
0001
0000
0100
0000
0010
0000
0100
0000
0000
0100
0010
0000
0100
0000
,
0010
0000
0100
0000
0010
0000
0100
0000
0010
0000
0100
0010
1000
0000
1000
0000
,
0100
0010
0100
0010
0100
0001
0100
0010
,
2100
0000
3010
0100
0010
0100
0001
0100
,
0012
0000
0103
0010
0010
0100
0010
0100
,
0101
0001
0001
0001
1000
1000
1000
1000
,
0110
0010
0001
0100
0010
0100
0001
0100
,
0101
0100
0010
0100
0110
0100
0010
1000
,
1100
0100
1000
0100
0010
0001
0100
0010
,
1000
0100
1000
0100
0010
0100
0010
0001
0010
0001
0010
0100
0010
0100
1000
0100
,
1000
0100
0010
0001
0010
0100
1000
0100
0010
0001
0010
0100
2002
0000
0000
0000
,
0000
0000
0000
0000
,
0000
0000
0000
0000
,
3003
0000
0000
0000
;

//---------------dance-single - ----------------
#NOTES:
     dance-single:
     :
     Beginner:
     4:
     0.190,0.254,0.201,0.075,0.000,126.000,24.000,9.000,0.000,0.000,0.000,0.190,0.254,0.201,0.075,0.000,126.000,24.000,9.000,0.000,0.000,0.000:
0000
0000
0000
0000
,
0000
0000
0000
0000
,
0000
0000
0000
0000
,
0000
0000
0000
0000
,
2000
0000
3000
0000
,
1000
0000
0000
0000
1000
0000
1000
1000
,
0000
0000
0000
0010
0000
0010
0010
0000
,
0000
0000
0100
0000
0100
0100
0000
0000
,
0000
0001
0000
0001
0001
0000
0000
0000
,
1000
0000
1000
1000
0000
0000
0000
0100
,
0000
0100
0100
0000
0000
0000
0010
0000
,
0010
0010
0000
0000
0000
0001
0000
0001
,
0001
0000
1000
1001
,
0000
0000
0000
0001
0000
1001
0000
0000
,
0000
0010
0110
0000
,
0000
0100
0000
0110
0000
0000
0000
0000
,
1000
0000
0110
0000
0000
0000
0000
0001
,
0000
0110
0000
0000
0000
0000
0100
0000
,
1001
0000
0000
0000
0000
0010
0000
1001
,
1000
0000
0001
0001
,
0001
0000
0000
0000
,
1001
0000
1000
0000
,
1001
0000
0010
0010
,
0010
0000
0100
0100
,
0100
0000
0000
0000
,
1001
0000
0010
0000
,
1001
0000
1000
0000
,
1001
0000
1000
1000
,
1001
0000
0001
0001
,
1001
0000
1001
0000
,
1001
0000
1000
0000
,
1001
0000
0010
0000
,
1001
0000
0100
0000
,
0110
0000
1000
0000
,
0001
0000
0100
0000
,
1000
0000
0000
0000
,
0010
0000
0010
0010
,
0000
0000
0001
0001
,
0000
0000
0100
0100
,
1000
0000
0010
0000
,
0100
0000
0010
0000
,
1000
0000
0001
0000
,
1000
1000
0100
0100
,
0010
0000
0000
0000
,
0001
0000
0000
0000
,
1000
0000
0000
0000
,
0001
0000
0000
0000
,
0100
0000
0000
0000
,
0010
0000
0000
0000
,
1000
0000
0000
0000
,
1001
0000
0000
0000
,
1001
0000
0000
0000
,
0010
0000
0000
0000
,
0100
0000
0000
0000
,
1000
0000
0000
0000
,
0001
0000
0000
0000
,
2002
0000
0000
3003
,
0100
0000
0000
0000
,
0100
0000
0000
0000
,
0010
0000
0000
0000
,
0010
0000
0000
0000
,
1000
0000
1000
0000
,
1000
0000
0000
0000
,
0001
0000
0001
0000
,
0001
0000
0000
0000
,
0100
0000
0100
0000
,
0200
0000
0000
0000
,
0300
0000
0000
0000
,
0020
0000
0000
0000
,
0030
0000
0000
0000
,
2000
0000
0000
0000
,
3000
0000
0000
0000
,
0002
0000
0000
0000
,
0003
0000
0000
2002
,
0000
0000
0000
0000
,
0000
0000
0000
0000
,
3003
0000
0000
0000
;

//---------------dance-single - ----------------
#NOTES:
     dance-single:
     :
     Easy:
     7:
     0.406,0.381,0.276,0.192,0.000,284.000,33.000,23.000,0.000,0.000,0.000,0.406,0.381,0.276,0.192,0.000,284.000,33.000,23.000,0.000,0.000,0.000:
0000
0000
0000
0000
,
0000
0000
0000
0000
,
0000
0000
0000
0000
,
0000
0000
0000
0000
,
2002
0000
0000
3003
,
0100
0000
0010
0000
0100
0000
1000
1001
,
0000
0100
0000
0010
0000
0100
1001
0000
,
0100
0000
0010
0000
0100
1001
0000
0100
,
0000
0010
0000
0100
1010
0000
0100
0000
,
0010
0000
0100
0101
0000
0100
0000
0010
,
0000
0100
0110
0000
0100
0000
0001
0000
,
0010
0110
0000
0100
0000
0010
0000
0100
,
1010
0000
0100
0000
0010
0000
0110
1000
,
0000
0001
0000
0100
0000
0110
1000
0000
,
0001
0000
0100
0000
1001
0100
0000
0010
,
0000
0100
0000
1001
0100
0000
0010
0000
,
0100
0000
1100
0010
0000
0100
0000
0010
,
0000
0011
0100
0000
0010
0000
0001
0000
,
1010
0100
0000
0001
0000
0100
0000
1010
,
0100
0001
0100
0100
,
0110
0100
0010
0010
,
0001
1000
1001
0100
,
1001
0100
1000
1000
,
1000
0100
0010
0010
,
1001
0100
0010
0100
,
1001
0100
1001
0100
,
0100
0100
0010
0010
,
0100
0001
1000
1000
,
1001
0100
0010
0010
,
1001
0100
0110
0100
,
1001
0100
0010
0100
,
1000
0010
0100
0100
,
1000
0100
0100
0100
,
1010
0100
0110
1000
,
1001
0100
0010
0100
,
1000
0100
0010
0001
,
0010
0010
0100
0010
,
1000
0100
0010
0001
,
0100
0010
1000
0010
,
1000
1000
0100
0020
,
1030
0100
0010
0200
,
0310
0001
0010
0002
,
0103
0100
0100
0100
,
1000
0100
0010
0100
,
1001
0100
0010
0100
,
1000
0100
0010
0100
,
1001
0100
0010
0100
,
0100
0010
0010
0010
,
0001
1000
0010
0100
,
1000
0100
0010
0001
,
2000
3100
0020
0032
,
0103
0100
0010
2000
,
3100
0010
0100
0002
,
0103
0100
0010
0020
,
1030
0100
0010
0020
,
0130
0001
1000
0100
,
0010
0001
0010
0100
,
0010
0010
0010
2000
,
3010
0010
0100
0100
,
0010
0001
0010
0200
,
0310
0001
0010
0020
,
0130
1000
0100
0000
,
0010
1000
0001
0001
,
1000
0010
1000
1000
,
0100
0010
0001
0100
,
0100
0010
0010
0001
,
2000
0001
0001
0001
,
3002
0100
0100
0100
,
2003
0010
0010
0010
,
3200
0010
0010
0310
,
1000
0100
0010
0001
,
2000
0010
0010
3010
,
0002
0100
0100
0103
,
1000
0100
0010
2002
,
0000
0000
0000
0000
,
0000
0000
0000
0000
,
3003
0000
0000
0000
;

//---------------dance-single - ----------------
#NOTES:
     dance-single:
     :
     Medium:
     10:
     0.511,0.572,0.150,0.176,0.000,389.000,18.000,21.000,0.000,0.000,0.000,0.511,0.572,0.150,0.176,0.000,389.000,18.000,21.000,0.000,0.000,0.000:
0000
0000
0000
0000
,
0000
0000
0000
0000
,
0000
0000
0000
0000
,
0000
0000
0000
0000
,
2002
0000
0000
3003
,
0100
1000
0010
0100
0010
0100
0020
1030
,
0100
0010
0100
0001
0100
0002
0103
0100
,
0010
1000
0010
0100
0020
1030
1000
0100
,
0010
0100
0001
0200
0310
0010
0100
0010
,
0100
0001
0002
0103
0010
0100
0010
0100
,
0001
0002
0103
0010
1000
0010
0100
0010
,
2000
3100
0010
0100
0000
0110
0010
1000
,
0100
0010
0001
0100
0010
1000
0001
0100
,
0010
0100
0001
1000
0010
1000
0100
0010
,
0001
0100
0010
0100
1001
0100
0010
0100
,
0010
1000
0010
1010
0100
0010
0100
0001
,
0100
0100
0101
0100
0010
0100
0010
1000
,
0010
1010
0100
0010
0100
0001
0100
0010
,
0110
0100
0001
0100
0001
0100
1000
1001
,
0100
0010
0100
0100
,
1010
0000
0100
0000
0010
0100
0010
0100
,
0010
0100
0010
1000
,
0001
0000
1000
0000
0001
1000
0001
1000
,
0001
0000
0100
0000
1000
0010
1000
0010
,
1000
0000
0100
0000
0010
0100
0010
0100
,
0010
0001
0101
1000
,
1010
0100
0010
0100
,
0010
0000
0010
0000
1000
0010
1000
0010
,
1000
0000
0010
0000
0100
0001
0100
0001
,
0100
0010
0110
0001
,
1001
0100
0010
1001
,
0010
0000
0100
0000
0010
0100
0010
0100
,
0010
0000
0100
0000
0001
1000
0001
1000
,
0001
0100
0010
1000
,
0010
0100
0010
2000
,
3001
0100
0010
1000
,
0100
0010
0100
0001
,
0100
0010
0100
1000
,
0100
0010
1000
0010
,
1001
0100
0010
0100
,
0010
0010
1000
1001
,
0100
0010
0100
0001
,
1000
1000
0100
0100
0010
0010
0001
0001
,
0100
0000
0000
0010
0000
0000
1000
0000
,
0001
0000
0000
0100
0000
0010
1000
0000
,
0001
0100
0010
1000
,
0100
0000
0010
1000
0000
0000
0001
0000
,
0100
0000
0010
1000
0000
0000
0001
0000
,
0100
0000
0010
1000
0000
0000
0001
0000
,
0100
0010
1000
0001
,
1000
0001
0100
0010
,
1000
0000
0100
0010
0000
1000
0000
0001
,
0100
0000
0010
1000
0000
0001
0000
0100
,
0010
0000
1000
0010
0000
0100
0000
0010
,
0001
0000
0100
0010
0000
1000
0000
0001
,
0100
1000
0100
0010
0001
0100
0010
0100
,
0001
0001
1000
1000
0010
0010
0200
0000
,
0301
0100
0010
0100
0010
1000
0020
0000
,
0130
0100
0010
0010
1000
0010
2000
0000
,
3001
0001
0100
0010
0100
0010
0020
0000
,
1030
0100
0010
0001
0100
0010
0200
0000
,
0310
1000
0100
0010
0001
0100
0000
0000
,
0010
0000
1000
0001
0110
0000
0100
0000
,
0010
0100
0010
0100
0010
0000
1000
0000
,
0100
0010
0100
0010
0100
0000
0001
0000
,
0010
0100
0010
0100
0010
0100
0010
0000
,
0200
0000
0000
0000
0010
0000
0010
0300
,
0002
0000
0000
0000
0100
0000
0100
0003
,
2000
0000
0000
0000
0010
0000
0010
3000
,
0200
0000
0000
0000
0010
0000
0010
0300
,
1000
0100
0010
0001
0010
0100
1000
0000
,
0010
0100
0010
0100
0010
0100
0010
0000
,
0001
0010
0100
1000
0100
0010
0001
0000
,
1000
1000
0001
2002
,
0000
0000
0000
0000
,
0000
0000
0000
0000
,
3003
0000
0000
0000
;
