#TITLE:Toki wo Kizamu Uta (kors k vs Ryu☆ 'The 4th' Remix);
#SUBTITLE:[FULL SONG][Remix] Clannad ~After Story~ OP;
#ARTIST:Remixed by The 4th feat. LIA;
#TITLETRANSLIT:;
#SUBTITLETRANSLIT:;
#ARTISTTRANSLIT:;
#GENRE:;
#CREDIT:;
#BANNER:[Full Song] Toki wo Kizamu Uta (kors k vs Ryu 'The 4th' Remix).png;
#BACKGROUND:[Full Song] Toki wo Kizamu Uta (kors k vs Ryu 'The 4th' Remix)-bg.png;
#LYRICSPATH:;
#CDTITLE:;
#MUSIC:[Full Song] Toki wo Kizamu Uta (kors k vs Ryu☆ 'The 4th' Remix).mp3;
#MENUCOLOR:0,0,1,1;
#METERTYPE:DDR X;
#OFFSET:-0.735;
#SAMPLESTART:100.030;
#SAMPLELENGTH:12.000;
#SELECTABLE:YES;
#BPMS:0.000=170.000
,127.000=340.000
,127.500=170.000
,483.000=340.000
,483.500=170.000
,619.000=340.000
,619.500=170.000
,867.000=340.000
,867.500=170.000
,995.000=340.000
,995.500=170.000
;
#DISPLAYBPM:170;
#STOPS:127.000=0.088,
483.000=0.088,
619.000=0.088,
867.000=0.088,
995.000=0.088
;
#BGCHANGES:;
#KEYSOUNDS:;
#ATTACKS:;

//---------------dance-single - ----------------
#NOTES:
     dance-single:
     :
     Challenge:
     14:
     0.554,1.000,0.426,0.197,0.048,1322.000,173.000,80.000,0.000,0.000,0.000,0.554,1.000,0.426,0.197,0.048,1322.000,173.000,80.000,0.000,0.000,0.000:
0000
0000
0000
0000
,
0000
0000
0000
0000
,
0000
0000
0000
0000
,
0000
0000
0000
0000
,
0000
0000
0000
0000
,
0000
0000
0000
0000
,
0000
0000
0000
0000
,
0000
0000
0000
0000
,
1000
1000
1000
1000
,
0001
0001
0001
0001
,
0100
0100
0100
0100
,
0010
0010
0010
0010
,
1000
0100
0100
0100
,
0001
0010
0010
0010
,
1000
0001
1000
0001
,
1001
0000
0000
0100
,
1001
0000
0110
0000
1000
0010
0100
0000
,
0101
0000
1010
0000
0100
0010
0100
0000
,
1001
0000
0110
0000
0001
0100
0001
0000
,
1010
0000
0110
0000
0100
0010
0100
0000
,
0101
0000
0110
0000
1000
0010
0100
0000
,
1100
0000
0110
0000
0010
0100
0001
0000
,
0011
0000
0110
0000
0100
0010
1000
0000
,
0110
0000
0101
0000
0100
0010
0100
0000
,
1000
1000
1000
1000
,
0001
0001
0001
0001
,
0100
0100
0100
0100
,
0010
0010
0010
0010
,
1000
0100
0010
0001
,
1000
0100
0010
0001
,
0100
0001
0100
0000
0010
1000
0010
0000
,
0100
0010
0100
0000
0100
0010
0102
0000
,
0103
0010
0100
0010
0100
0000
1000
0100
,
0000
0010
0000
0100
0000
1000
0100
0010
,
0100
0000
0001
0100
0000
0010
0000
0100
,
0000
0010
0100
0000
2010
0000
3100
0010
,
0110
0001
0000
0010
0000
0100
0000
0010
,
0000
1000
0100
0000
0010
0000
0100
0001
,
0100
0010
0000
0100
0000
0010
0000
0100
,
0000
0010
0100
0010
1000
0100
0010
0001
,
0100
0010
0100
0010
0100
0000
1000
0100
,
0000
0010
0000
0100
0000
0001
0100
0010
,
0100
0000
1000
0100
0000
0010
0000
0100
,
0000
0001
0100
0000
0102
0000
0013
0100
,
0110
1000
0010
0100
0010
0100
0010
0100
,
1000
0100
0010
0001
0100
1000
0100
0010
,
0100
0010
0100
0010
0100
1000
0100
0010
,
1001
0100
0000
0110
0000
0010
0110
0000
,
1010
0100
0010
0100
0110
0000
1000
0100
,
0010
0100
0110
0000
0101
0000
0110
0000
,
1010
0000
0110
0000
0100
0010
0110
0000
,
0000
0000
0000
0000
,
1010
0100
0010
0100
0101
0000
0100
0010
,
0100
0010
0110
0000
1010
0000
0110
0000
,
0101
0000
0110
0000
1000
0010
0110
0000
,
0000
0000
0000
0000
0000
0000
1000
0010
,
2000
0010
0010
3010
,
0001
0000
0100
0000
0010
0100
0110
0000
,
0002
0000
0100
0000
0100
0000
0100
0003
,
1000
0010
0100
0000
0010
0000
0110
0000
,
1000
0100
0010
0001
,
0000
0000
1000
0110
,
0110
0000
1000
0000
0010
0100
0000
0010
,
1000
0000
0100
0000
0010
0100
0010
0000
,
1000
0100
0010
0001
0100
0000
0010
0100
,
0001
0100
0110
0000
1010
0000
0110
0000
,
0101
0000
1000
0000
0100
0010
1000
0000
,
0110
0000
0000
0000
,
1000
0010
0100
0010
0110
0000
1000
0001
,
0100
0010
0110
0000
1010
0000
0101
0000
,
0110
0000
1000
0000
0010
0100
0010
0000
,
1001
0000
0000
0000
0000
0000
1000
0010
,
2000
0010
0001
3010
,
0002
0000
0100
0000
1000
0000
0103
1000
,
0020
0100
1000
0130
,
0200
0000
0010
0000
0001
0000
0310
0001
,
0100
0010
0100
0010
0100
0010
0100
0010
,
1000
0100
0010
0001
0100
0010
0001
0100
,
1000
1000
0010
0010
0100
0100
0001
0100
,
0110
1000
0010
0100
0010
0100
0001
0100
,
2002
0000
0000
3000
0100
0000
0103
0000
,
0110
0000
0000
0100
0000
0100
0000
0100
,
0000
0100
0000
0100
0000
0100
0000
0100
,
0000
0100
0000
0100
0000
0100
0000
0100
,
0000
0100
0000
0100
0000
0100
0000
0100
,
0000
0010
0000
0010
0000
0010
0000
0010
,
0000
0010
0000
0010
0000
0010
0000
0010
,
0000
1000
0000
0001
0000
1000
0000
0001
,
0000
0100
0000
0001
0020
0000
0130
0000
,
1001
0000
0000
1000
0000
1000
0000
1000
,
0000
0000
0000
1000
0000
1000
0000
1000
,
0000
0000
0000
0001
0000
0001
0000
0001
,
0000
0000
0000
0100
0000
0100
0000
0100
,
0010
0000
0000
0010
0000
0010
0000
0010
,
0000
0000
0000
0100
0000
0100
0000
0100
,
0000
0000
0000
1000
0000
1000
0000
1000
,
0000
0000
0001
0001
,
2001
0000
0010
0000
0000
0010
0010
0000
,
3002
0000
0100
0000
0000
0100
0100
0013
,
2000
0000
0010
0000
0000
0010
0010
0000
,
3020
0000
0100
0000
0000
0100
0100
0000
,
0230
0000
0010
0000
0000
0010
0010
0000
,
0302
0000
0100
0000
0000
0100
0100
0000
,
0203
0000
0010
0000
0000
0010
0010
0000
,
2300
0000
0100
0000
0000
0100
0100
3001
,
0020
0000
0100
0000
0000
0100
0100
0000
,
0032
0000
0010
0000
0000
0010
0010
0000
,
0203
0000
0010
0000
0000
0010
0010
0000
,
2300
0000
0100
0000
0000
0100
0100
0000
,
3020
0000
0100
0000
0000
0100
0100
0000
,
0230
0000
0010
0000
0000
0010
0010
0000
,
0302
0000
0010
0000
0000
0010
0010
0000
,
1003
0000
0000
0000
,
1001
0100
0100
0100
,
0100
0100
0100
0100
,
0110
0010
0010
0010
,
0010
0010
0010
0010
,
1000
0010
1000
0010
1000
0010
1000
0010
,
0100
0010
0100
0010
0100
0001
0100
0001
,
0100
0010
0100
0010
1000
0100
1000
0100
0010
0001
0010
0001
0100
0010
0100
0000
,
1001
0000
0100
0000
0010
0000
0100
0001
0000
0010
0100
0000
2002
0000
3003
0000
,
0101
0000
0100
0000
0110
1000
0010
0000
,
0100
0000
0010
0000
1001
0100
0010
0000
,
1010
0000
0110
0000
1000
0100
0110
0000
,
0100
0000
0101
0000
1000
0010
0110
0000
,
1010
0000
0110
0000
1000
0100
0110
0000
,
1001
0000
0110
0000
1000
0010
0110
0000
,
0110
0000
0101
0000
1000
0010
0110
0000
,
1000
0000
0110
0000
1000
0001
1000
0000
,
1001
0000
0110
0000
1000
0100
0010
0000
,
0101
0000
0110
0000
1000
0010
0110
0000
,
2000
0000
0100
3000
0002
0000
0100
0003
,
2000
0000
0010
3000
0020
0000
0030
0100
,
0101
0000
0110
0001
1000
0010
0100
0010
,
0100
1000
0100
0010
0001
1000
0100
0010
,
0100
0100
0010
0100
0010
0100
0001
0010
,
1100
0001
0010
1000
0100
0010
0100
0000
,
0011
1000
0001
1000
0001
0000
1000
0010
,
0000
0100
0000
0100
0000
0010
0100
0010
,
0100
0000
1000
0100
0000
0010
0000
0001
,
0000
1000
0100
0000
0021
0000
1030
0001
,
1001
0100
0000
0100
0000
0010
0000
0001
,
0000
0100
0010
0000
0110
0000
0100
1000
,
0100
0010
0000
0010
0000
0010
0000
0010
,
0000
0100
1000
0100
1000
0100
0010
0001
,
1100
0100
0010
0001
0101
0000
1000
0010
,
0000
0100
0000
0010
0000
1000
0100
0010
,
0001
0000
0100
0010
0000
0100
0000
0010
,
0000
0100
0010
0000
0102
0000
0013
0100
,
0110
1000
0010
0100
0010
0100
0010
0100
,
1000
0100
0010
0001
0100
0010
0100
0010
,
1000
1000
0001
0001
1000
1000
0010
0010
,
0110
0100
0010
0100
,
0110
1000
0100
0010
0001
0000
0100
0010
,
0100
0010
0200
0000
0301
0000
0202
0303
,
1001
0000
0110
0000
1000
0100
0110
0000
,
1000
0000
0110
0000
1000
0001
1001
0000
,
0100
0010
0100
0010
0100
0000
1000
0100
,
0010
0001
0100
0000
0010
0000
0100
0000
,
0010
0000
0100
0000
1000
0100
0010
0000
,
0101
0000
0000
0110
0000
0110
0000
0110
,
0110
1000
0010
0110
,
0100
0101
1000
1010
,
0100
0110
1000
1001
,
0100
0101
1000
0110
,
0100
0110
0100
0101
,
1000
1010
0100
0101
,
1000
1010
0100
0001
,
1000
0100
0010
0001
,
2000
0000
0000
0100
0100
0000
0100
0000
,
3001
0100
0001
0000
0100
0000
0110
1000
,
0001
0000
0100
0000
0001
0000
0100
0010
,
2000
0100
0010
3001
,
0100
0000
0010
0100
0010
0100
0002
0000
,
0100
0000
0010
0000
1000
0000
0013
2000
,
0010
0000
0010
0000
0010
0000
0000
3020
,
0100
0000
0100
0000
0100
0000
0100
0030
,
2000
0100
0010
0001
,
3002
0000
0100
0000
0010
0000
1000
0003
,
2000
0010
0010
0010
,
3002
0100
0100
0103
,
1000
0100
0010
0001
0100
0000
0010
0000
,
1000
0100
0010
0001
0100
0000
0010
0000
,
1000
1000
0001
0001
1000
1000
0010
0000
,
0100
0000
0000
0000
,
2000
0000
0000
0000
,
0002
0000
0000
0000
0000
0000
0000
3000
,
0200
0000
0000
0000
0000
0000
0000
0003
,
0020
0000
0000
0000
0000
0000
0000
0300
,
2000
0000
0000
0000
0000
0000
0000
0030
,
0200
0000
0000
0000
0000
0000
0000
3000
,
0020
0000
0000
0000
0000
0000
0000
0300
,
0002
0000
0000
0000
0000
0000
0000
0030
,
0020
0000
0000
0000
0000
0000
0000
0003
,
0200
0000
0000
0000
0000
0000
0000
0030
,
2000
0000
0000
0000
0000
0000
0000
0300
,
0200
0000
0000
0000
0000
0000
0000
3000
,
0020
0000
0000
0000
0000
0000
0000
0300
,
0002
0000
0000
0000
0000
0000
0000
0030
,
2000
0000
0000
0000
0000
0000
0000
0003
,
0200
0000
0000
0300
0002
0000
0000
3003
,
0102
0000
0000
0103
0000
0010
0100
0000
,
0010
0000
0100
0000
0100
0000
0100
0010
,
1000
0000
0100
0000
0010
0000
1000
0010
,
2000
0000
0010
0000
0000
0000
0010
3000
,
0002
0100
0000
0100
,
2003
0010
0000
0010
,
3020
0100
0000
0100
,
0130
0000
0000
0000
0100
0000
0000
0000
0100
0001
0000
1000
0000
0010
0100
0000
,
1001
0000
0100
0000
0010
0100
0010
0000
,
1000
0010
0100
0010
0100
0010
0100
0010
,
1000
0100
0010
0001
0100
0010
0100
0010
,
1000
0100
0001
0100
0010
0010
1000
0010
,
0100
0010
1000
0100
1000
0100
1000
0001
0010
0100
0010
0100
0010
0100
0010
0001
,
0100
0010
0100
0010
0100
0010
0100
1000
0001
0100
0001
0010
0001
0010
0001
0100
,
1000
0010
0100
0001
0010
0100
0001
0010
1000
0100
1000
0010
0100
0010
0100
0010
,
0001
0000
1000
0000
0010
0000
0000
0010
0100
0000
0010
0000
0220
0000
0330
0000
,
0101
0000
0110
0000
1010
0100
0010
0000
,
0110
0000
0101
0000
0110
1000
0110
1000
,
0020
0000
1030
0000
0010
0100
0100
0010
,
0100
0010
0100
0010
1000
0100
0110
0000
,
0001
0100
0010
0100
0010
1000
0100
0010
,
1000
0010
0110
0000
1000
0010
0110
0000
,
1000
0000
0010
0000
0100
0010
0100
0000
,
1000
0100
0010
0001
0100
0010
0100
0010
,
2010
0010
0010
0010
,
3002
0000
0100
0000
0100
0000
0103
0010
,
2000
0000
0100
0000
0010
0000
3100
0010
,
0200
0000
0010
0000
0001
0000
0010
0300
,
0110
1000
0010
0010
0100
0010
0100
0010
,
1000
0100
0010
0001
1000
0010
0100
0001
,
1000
1000
1000
0010
0010
0100
0010
0100
,
0001
0100
0010
0100
0010
0100
0010
0100
,
1010
0100
0010
0100
0101
0000
0110
1000
,
0000
0010
0000
0100
0000
0010
0100
0001
,
0110
0000
0110
1000
0000
0100
0000
0010
,
0100
0001
0100
0000
0210
0000
0301
0010
,
0110
0100
0000
0010
0000
0100
0000
0010
,
0100
0010
1000
0000
0110
0000
1000
0010
,
0110
1000
0001
0100
0010
1000
0010
0100
,
0010
1000
0100
0010
0001
1000
0100
0010
,
1001
0100
0010
0100
0110
0000
1001
0100
,
0010
0100
0010
0100
0010
1000
1000
1000
,
0010
0100
0001
0100
0010
1000
0100
0010
,
0001
0100
0010
1000
2010
0000
3100
0010
,
0110
1000
0010
0100
0010
1000
0100
0010
,
0001
0010
0100
0100
0010
0010
1000
1000
,
0100
0010
0001
1000
0100
0010
0001
1000
,
0110
0000
1000
0000
0010
0000
0010
0100
0000
0010
0100
0000
0022
0000
0033
0000
,
0101
0000
0110
0000
1000
0010
0110
0000
,
1000
1000
1000
1000
,
1001
0001
0001
0001
,
0110
0100
0100
0100
,
0110
0010
0010
0010
,
1001
1000
1000
1000
,
1001
0001
0001
0001
,
0110
0100
0100
0100
,
0110
0100
0100
0100
,
0110
0010
0010
0010
,
0110
0010
0010
0010
,
1001
1000
1000
1000
,
1001
1000
1000
1000
,
0110
0001
0010
0100
,
0110
0001
0100
0010
,
1000
0100
0010
0001
,
1001
0001
0001
0001
,
0001
0001
0001
0001
,
1000
1000
1000
1000
,
1000
1000
1000
1000
,
0010
0010
0010
0010
,
0010
0010
0010
0010
,
0010
0010
0010
0010
,
0010
0010
0010
0010
,
0100
0000
0000
0000
,
1000
0000
0000
0000
,
0001
0000
0000
0000
,
0100
0000
0000
0000
,
0010
0000
0000
0000
,
0100
0000
0000
0000
,
0001
0000
0000
0000
,
1000
0000
0000
0000
0000
0000
0001
1000
;
