#TITLE:Hacking to the Gate (S.A.D.R. Remix);
#SUBTITLE:[FULL SONG] Steins-Gate OP;
#ARTIST:Remixed by samfree feat. Itou Kanako;
#TITLETRANSLIT:;
#SUBTITLETRANSLIT:;
#ARTISTTRANSLIT:;
#CREDIT:;
#BANNER:[Full Song] Hacking to the Gate (S.A.D.R. Remix).png;
#BACKGROUND:[Full Song] Hacking to the Gate (S.A.D.R. Remix)-bg.png;
#LYRICSPATH:;
#CDTITLE:;
#MUSIC:[Full Song] Hacking to the Gate (S.A.D.R. Remix).mp3;
#MENUCOLOR:0,0,1,1;
#METERTYPE:DDR X;
#OFFSET:0.000;
#SAMPLESTART:100.050;
#SAMPLELENGTH:12.000;
#SELECTABLE:YES;
#BPMS:0.000=140.000,320.000=70.000,352.000=140.000,452.000=70.000,468.000=140.000;
#STOPS:472.000=1.286
;
#BGCHANGES:;

//---------------dance-single - ----------------
#NOTES:
     dance-single:
     :
     Challenge:
     12:
     0.408,0.687,0.124,0.107,0.073: // measure 1
0000
0000
0000
0000
,  // measure 2
0000
0000
0000
0000
,  // measure 3
0000
0000
0000
0000
,  // measure 4
0000
0000
0000
0000
,  // measure 5
0000
0000
0000
0000
,  // measure 6
0000
0000
0000
0000
,  // measure 7
0000
0000
0000
0000
,  // measure 8
0000
0000
0000
0000
,  // measure 9
0000
0000
0000
0000
,  // measure 10
0000
0000
0000
0000
,  // measure 11
0000
0000
0000
0000
,  // measure 12
0000
0000
0000
0000
,  // measure 13
0000
0000
0000
0000
,  // measure 14
0000
0000
0000
0000
,  // measure 15
0000
0000
0000
0000
,  // measure 16
0000
0000
0000
0000
,  // measure 17
1001
1000
0100
0010
,  // measure 18
0001
1000
0100
0010
,  // measure 19
0001
0001
0010
0100
,  // measure 20
1000
0001
0010
0100
,  // measure 21
1000
0100
0010
0100
,  // measure 22
0010
0001
1000
0001
,  // measure 23
1000
0010
0100
0010
,  // measure 24
0100
0000
1000
0000
0001
0000
1000
0001
,  // measure 25
1001
0000
0100
0010
0100
0000
0010
0000
,  // measure 26
0010
0000
0010
0100
0010
0000
0100
0000
,  // measure 27
0100
0000
1000
0001
1000
0000
1000
0000
,  // measure 28
1000
0000
0001
1000
0001
0000
0001
0000
,  // measure 29
0001
0000
0100
0010
0100
0000
0100
0000
,  // measure 30
0100
0000
0010
0100
0010
0000
0010
0000
,  // measure 31
0010
0000
1000
0001
1000
0000
1000
0000
,  // measure 32
1000
0000
0001
1000
0001
0000
0001
0000
,  // measure 33
0001
0000
0100
0000
0010
0100
0010
0000
,  // measure 34
0100
0000
0010
0000
0100
0010
0100
0000
,  // measure 35
0010
0000
0100
0000
0010
0100
0010
0000
,  // measure 36
1000
0000
0001
0000
1000
0001
1000
0000
,  // measure 37
0001
0000
1000
0000
0001
1000
0001
0000
,  // measure 38
0100
0000
0010
0000
0100
1000
0001
0000
,  // measure 39
0100
0000
0010
0000
0010
0001
1000
0000
,  // measure 40
0010
0000
0100
0000
0001
0100
1000
0000
,  // measure 41
0110
0000
1000
0000
0010
0000
0100
0010
,  // measure 42
0100
0000
1000
0000
0010
0000
0100
0010
,  // measure 43
0100
0000
0001
0000
0100
0000
0010
0001
,  // measure 44
0100
0000
0010
0000
1000
0000
0001
0100
,  // measure 45
0010
0000
1000
0000
0100
0000
0010
1000
,  // measure 46
0100
0000
0010
0000
0100
0000
0001
0010
,  // measure 47
0100
0000
0001
0000
0100
0000
0010
1000
,  // measure 48
0002
0000
2000
3003
,  // measure 49
0110
0000
0100
0000
0010
0100
0010
0100
,  // measure 50
0010
1000
0100
0010
0000
0100
1000
0010
,  // measure 51
0100
0010
1000
0000
0100
0010
0100
0001
,  // measure 52
1000
0010
0100
0000
1000
0100
0010
0001
,  // measure 53
1000
0010
1000
0000
0100
0010
1000
0001
,  // measure 54
0100
0010
1000
0000
0100
0010
0100
0001
,  // measure 55
1000
0010
0100
0000
1000
0100
0010
0001
,  // measure 56
0100
0010
1000
0000
0100
1000
0100
0010
,  // measure 57
0100
0001
0100
0000
1000
0100
0010
0001
,  // measure 58
0100
0010
0100
0000
1000
0100
0010
0100
,  // measure 59
0001
0100
0010
0000
1000
0100
0010
1000
,  // measure 60
0100
0001
0100
0000
0010
0100
0001
1000
,  // measure 61
0010
0100
0010
0000
0100
1000
0100
0010
,  // measure 62
1000
0001
0100
0000
1000
0100
0010
0100
,  // measure 63
0001
0100
0010
0000
1000
0100
0010
0100
,  // measure 64
0001
1000
0001
0000
2000
0000
3001
0000
,  // measure 65
0100
0010
0100
0000
1000
0100
0010
0000
,  // measure 66
0001
0100
0110
0000
0110
0000
1000
0100
,  // measure 67
0010
0000
0100
0001
1000
0010
0100
0010
,  // measure 68
0110
0000
1001
0110
,  // measure 69
1001
0000
0100
0010
1000
0010
0100
0010
,  // measure 70
1000
0000
0100
0010
1000
0100
0010
0001
,  // measure 71
1000
0000
0010
0000
0100
0001
1000
0000
,  // measure 72
1000
0000
0100
0010
0100
0010
0110
0000
,  // measure 73
0110
0000
1000
0100
0010
1000
0001
0100
,  // measure 74
0010
0100
0010
0000
0000
0000
1000
0100
,  // measure 75
0010
0100
0001
1000
0100
0010
0100
0001
,  // measure 76
0100
0000
0110
1001
,  // measure 77
0110
0000
1000
0100
0010
0100
0001
1000
,  // measure 78
0010
0000
0100
1000
0100
0010
0100
0001
,  // measure 79
0100
0000
0000
1000
0100
0010
0100
0001
,  // measure 80
0100
0000
0010
0000
1000
0000
0001
0000
1000
0100
1000
0100
1000
0100
1000
0100
,  // measure 81
2000
0001
3020
0100
,  // measure 82
0230
0010
0302
1000
,  // measure 83
2003
0001
3200
0010
,  // measure 84
0320
0100
0032
1000
,  // measure 85
2003
0000
0000
0000
0001
0000
0000
3000
0020
0000
0000
0000
0100
0000
0000
0000
,  // measure 86
0230
0010
0302
1000
,  // measure 87
1003
0000
0000
1000
0000
0000
1000
0000
1000
0000
0000
0001
0000
0000
0001
0000
0001
0000
0000
0100
0000
0000
0100
0000
0100
0000
0000
0010
0000
0000
0010
0000
,  // measure 88
0010
0000
0000
0100
0000
0000
0100
0000
0100
0000
0000
0010
0000
0000
0010
0000
0010
0000
0000
0001
0000
0000
0001
0000
0001
0000
0000
1000
0000
0000
1000
0000
,  // measure 89
1001
0000
0000
0000
,  // measure 90
1001
1000
0100
0010
0001
0100
0010
0100
,  // measure 91
0002
0000
0100
0000
0103
1000
0010
0100
,  // measure 92
0000
0000
1000
0100
0000
0001
0000
0100
,  // measure 93
0000
0010
1000
0000
0010
0000
0010
0000
,  // measure 94
1000
0100
0010
0001
0100
1000
0100
0010
,  // measure 95
0200
0000
0010
0000
0310
1000
0001
0100
,  // measure 96
0000
0000
0010
0100
0000
0001
0000
1000
,  // measure 97
0000
0000
0100
0010
0100
0010
0100
0000
,  // measure 98
1001
0100
0010
0001
0100
0010
1000
0010
,  // measure 99
0200
0000
0001
0000
0301
1000
0010
0100
,  // measure 100
0000
0000
1000
0100
0000
0010
0000
0010
,  // measure 101
0000
1000
0200
0000
0010
0000
0310
0000
,  // measure 102
1000
0100
0010
0001
0000
0100
0010
0100
,  // measure 103
0020
0000
1000
0000
1030
0100
0010
0100
,  // measure 104
0000
0000
0100
0010
0000
0001
0000
1000
,  // measure 105
0000
0000
0100
0000
0020
0000
0000
0000
1030
0000
0000
0001
1000
0000
0001
0000
,  // measure 106
1001
0010
0101
0100
,  // measure 107
1000
0101
0010
0110
,  // measure 108
0001
1010
0100
0101
,  // measure 109
0010
1010
0100
0110
,  // measure 110
0001
1001
0100
0110
,  // measure 111
1000
1001
0010
0101
,  // measure 112
0010
1001
0100
1100
,  // measure 113
0100
0000
0000
0000
0110
0000
0000
0000
1000
0000
0000
0010
0100
0010
0100
0010
,  // measure 114
2000
0000
3020
0000
,  // measure 115
0230
0000
0302
0000
,  // measure 116
1003
0000
0000
1000
0000
0000
1000
0000
1000
0000
0000
0010
0000
0000
0010
0000
0010
0000
0000
0100
0000
0000
0100
0000
0100
0000
0000
0001
0000
0000
0001
0000
,  // measure 117
0001
0000
0000
0100
0000
0000
0100
0000
0100
0000
0000
0010
0000
0000
0010
0000
0010
0000
0000
1000
0000
0000
1000
0000
1000
0000
0000
0001
0000
0000
0001
0000
,  // measure 118
2002
0000
0000
0000
,  // measure 119
0000
3003
0000
0000
0110
0000
1000
0000
0100
0000
0010
0000
0001
0000
0100
0000
,  // measure 120
1000
0100
0020
0000
0100
0000
0130
1000
,  // measure 121
0100
0010
0000
0100
1000
0100
0000
0010
,  // measure 122
0000
1000
0000
0100
0010
0000
1000
0100
,  // measure 123
0010
0000
1000
0100
0001
0100
1000
0100
,  // measure 124
0010
0100
0002
0000
0100
0000
0103
1000
,  // measure 125
0100
0010
0000
0100
1000
0001
0000
0100
,  // measure 126
0010
0100
0000
1000
0100
0010
0001
0100
,  // measure 127
0010
0000
1010
0100
0010
0001
0100
1000
,  // measure 128
0100
0010
0200
0000
0001
0000
0301
1000
,  // measure 129
0100
0010
0000
0000
1000
0010
0000
0100
,  // measure 130
0010
1000
0000
1000
0100
0000
0010
0000
,  // measure 131
0110
0000
1000
0100
0010
0001
0100
0010
,  // measure 132
1000
0100
0002
0000
0100
0000
0103
1000
,  // measure 133
0100
0010
0000
0100
1000
0001
0000
0100
,  // measure 134
0000
0010
0000
1000
0100
0000
0010
1000
,  // measure 135
0010
1000
0010
1000
0100
0000
0010
0100
,  // measure 136
0010
0100
0010
0000
1000
0100
0001
0100
,  // measure 137
0010
0100
0000
1000
0100
0010
0001
0100
,  // measure 138
1000
0001
0000
0100
0010
1000
0100
0001
,  // measure 139
0100
0010
0000
1000
0100
0010
0100
0001
,  // measure 140
1000
0010
0000
1000
0100
0010
1000
0001
,  // measure 141
0100
0010
0000
0100
1000
0100
0010
0100
,  // measure 142
1000
0000
0100
0000
0001
0000
0100
0000
0010
0000
0100
0000
0001
0010
0001
0010
,  // measure 143
0001
0010
0001
0010
0001
0000
0000
0000
0010
0000
0000
0000
0010
0000
0000
0000
,  // measure 144
0010
1000
1000
1000
,  // measure 145
1000
0001
0001
0001
,  // measure 146
0001
0100
0100
0100
,  // measure 147
0100
0010
0010
0010
,  // measure 148
0010
1000
1000
1000
,  // measure 149
1000
0001
0001
0001
,  // measure 150
0001
0100
0100
0100
,  // measure 151
0100
0010
1000
0010
,  // measure 152
1000
0001
0100
0001
,  // measure 153
0100
1000
0100
1000
,  // measure 154
0100
0001
0100
0001
,  // measure 155
0100
0010
1000
0010
,  // measure 156
1000
0010
0001
0010
,  // measure 157
0001
0100
0010
0100
,  // measure 158
0010
0002
0000
0000
,  // measure 159
0000
1003
0000
0000
;
