#TITLE:Fuwa Fuwa Time;
#SUBTITLE:[FULL SONG] K-On Insert Song;
#ARTIST:Houkago Tea Time;
#TITLETRANSLIT:;
#SUBTITLETRANSLIT:;
#ARTISTTRANSLIT:;
#CREDIT:;
#BANNER:[Full Song] Fuwa Fuwa Time.png;
#BACKGROUND:[Full Song] Fuwa Fuwa Time-bg.png;
#LYRICSPATH:;
#CDTITLE:;
#MUSIC:[Full Song] Fuwa Fuwa Time.mp3;
#MENUCOLOR:0,0,1,1;
#METERTYPE:DDR X;
#OFFSET:-0.667;
#SAMPLESTART:100.050;
#SAMPLELENGTH:12.000;
#SELECTABLE:YES;
#BPMS:0.000=180.020,456.000=90.010,480.000=180.020;
#STOPS:;
#BGCHANGES:;

//---------------dance-single - ----------------
#NOTES:
     dance-single:
     :
     Challenge:
     14:
     0.611,0.740,0.747,0.193,0.046: // measure 1
0000
0000
0000
0000
,  // measure 2
0000
0000
0000
0000
,  // measure 3
0000
0000
0000
0000
,  // measure 4
0000
0000
0000
0000
,  // measure 5
1001
0000
0110
0000
1000
0010
1010
0000
,  // measure 6
0101
0000
0110
0000
1000
0001
0101
0000
,  // measure 7
0110
0000
1001
0000
1000
0010
1010
0000
,  // measure 8
0101
0000
0110
0000
1000
0010
0110
0000
,  // measure 9
1001
0000
0100
0010
0100
0010
0100
0010
,  // measure 10
0000
1000
0100
0010
0001
0000
0100
0010
,  // measure 11
0100
0010
1000
0000
0100
0010
0100
0000
,  // measure 12
1000
0100
0010
0100
0001
0100
0010
0100
,  // measure 13
0110
0000
1000
0000
0010
0100
0010
0100
,  // measure 14
0010
0000
1000
0100
0010
0100
0001
0000
,  // measure 15
0100
0000
0010
0000
1000
0100
0010
0001
,  // measure 16
0000
0100
0010
0000
0100
0010
0100
0010
,  // measure 17
0002
1000
1000
1003
,  // measure 18
2001
0001
0001
3001
,  // measure 19
0120
0100
0100
0130
,  // measure 20
0210
0010
0010
0310
,  // measure 21
1000
0010
0002
0103
,  // measure 22
2000
3010
0200
0310
,  // measure 23
0020
0000
0130
0000
0001
1000
0010
0000
,  // measure 24
0100
0001
1001
0000
0100
0010
0110
0000
,  // measure 25
1001
0000
0110
0000
1000
0100
0010
0100
,  // measure 26
0010
0100
0010
0000
1000
0100
0001
2000
,  // measure 27
0010
0010
0010
3010
,  // measure 28
2002
0000
0000
3003
,  // measure 29
0110
0000
1001
0000
0100
0010
0100
0010
,  // measure 30
1001
0000
0110
0000
0100
0001
0100
0000
,  // measure 31
1001
0000
0000
0110
0000
0000
1001
0000
,  // measure 32
0000
0100
0010
0100
0010
0100
0110
0000
,  // measure 33
1010
0000
0110
0000
1000
0010
0110
0000
,  // measure 34
1010
0000
0001
1000
0000
0010
0100
1000
,  // measure 35
0020
0000
1000
0000
1000
0000
1000
0030
,  // measure 36
2000
0010
0010
3010
,  // measure 37
0101
0000
1000
0010
0100
0000
0010
0000
,  // measure 38
0100
0002
0100
0100
,  // measure 39
2003
0000
0010
0000
0010
0000
0010
3000
,  // measure 40
0001
0100
0001
0000
0100
0010
0100
0010
,  // measure 41
1010
0000
0101
0000
0100
0010
0100
0010
,  // measure 42
0100
0000
1000
0100
0010
0001
0100
0010
,  // measure 43
2000
0010
0010
3010
,  // measure 44
1001
0000
0110
0101
,  // measure 45
1010
0000
0100
0010
0100
0010
0100
0010
,  // measure 46
1002
0000
0000
0100
0000
0000
0100
0003
,  // measure 47
1010
0000
0110
0000
0100
0010
0110
0000
,  // measure 48
0110
0000
0000
0000
0110
0000
0000
0000
1000
0010
1000
0000
1000
0010
1000
0000
,  // measure 49
1010
0000
0000
0000
0100
0000
0000
0000
1000
0010
1000
0000
1000
0010
1000
0000
,  // measure 50
0110
0000
0000
0000
0100
0000
0000
0000
0001
0100
0001
0000
0001
0100
0001
0000
,  // measure 51
0110
0000
0000
0000
0010
0000
0000
0000
0001
0100
0001
0000
0001
0100
0001
0000
,  // measure 52
0110
0000
0000
0000
0010
0000
0000
0000
0001
1000
0001
0000
0001
1000
0001
0000
,  // measure 53
0110
0000
0000
0000
0010
0000
0000
0000
1000
0001
1000
0000
1000
0001
1000
0000
,  // measure 54
0110
0110
0000
0000
1001
1001
0000
0000
,  // measure 55
0110
0010
0010
0010
,  // measure 56
0010
0010
0100
0010
,  // measure 57
1001
0000
0110
0000
1000
0100
0010
0100
,  // measure 58
0001
0100
0010
0000
1000
0100
0010
0001
,  // measure 59
1001
0000
0100
0000
0010
0100
0010
0100
,  // measure 60
0010
0000
1000
0100
0010
0001
0100
0010
,  // measure 61
2000
3001
0002
0103
,  // measure 62
2000
3010
0200
0310
,  // measure 63
1010
0000
0101
0000
0100
0010
0100
0010
,  // measure 64
1000
0000
0100
0000
0010
0001
0010
0100
,  // measure 65
0010
0000
1000
0000
0010
0000
0100
0010
,  // measure 66
0100
0000
0010
0000
1000
0100
0010
0001
,  // measure 67
0200
0000
0010
0000
0010
0000
0010
0300
,  // measure 68
0002
1000
1000
1003
,  // measure 69
2000
0001
0001
3001
,  // measure 70
0100
0010
0110
0000
1000
0001
1001
0000
,  // measure 71
1001
0000
0110
0000
1000
0010
0100
0010
,  // measure 72
0100
0000
0020
0000
1000
0000
0100
0030
,  // measure 73
2000
0010
0010
3010
,  // measure 74
1001
0000
0000
0100
,  // measure 75
0110
0000
1001
0000
0100
0010
0110
0000
,  // measure 76
1000
0001
0100
0010
0100
0010
0100
0001
,  // measure 77
1000
0000
0000
0110
0000
0000
1001
0000
,  // measure 78
0000
1000
1010
0000
0110
0000
0110
0000
,  // measure 79
1000
0100
0010
0100
0001
0100
0010
1000
,  // measure 80
0200
0000
0010
0000
0010
0000
0310
1000
,  // measure 81
0002
0000
0100
0000
1000
0000
0103
0010
,  // measure 82
1001
0000
0100
0000
1000
0100
0010
0000
,  // measure 83
2000
0000
0010
0000
0010
0000
0010
3000
,  // measure 84
0002
0100
0100
0103
,  // measure 85
1010
0000
0100
0000
0010
0100
0010
0100
,  // measure 86
0001
1000
1001
0000
0110
0000
1001
0000
,  // measure 87
0110
0000
1000
0100
0010
0001
0100
0010
,  // measure 88
1000
0000
0100
0010
0001
0000
0100
0010
,  // measure 89
0002
1000
1000
1003
,  // measure 90
1001
0000
0100
0010
,  // measure 91
1010
0100
0010
0100
,  // measure 92
1001
0000
1001
0000
,  // measure 93
1001
0000
0110
0000
0100
0010
0110
0000
,  // measure 94
1001
0000
1001
0000
1000
0001
1001
0000
,  // measure 95
0110
0000
0110
0000
1000
0001
1001
0000
,  // measure 96
0110
0000
0101
0000
0100
0010
0110
0000
,  // measure 97
1001
0000
1100
0000
1000
0100
1100
0000
,  // measure 98
0110
0000
1001
0000
0010
0001
0011
0000
,  // measure 99
0101
0000
0110
0000
1000
0010
1010
0000
,  // measure 100
0110
0000
0110
0000
1000
0001
1001
0000
,  // measure 101
0110
0000
0110
0000
1000
0100
0110
0000
,  // measure 102
0101
0000
0110
0000
0001
0100
0101
0000
,  // measure 103
0010
0000
0110
0000
1000
0010
1010
0110
,  // measure 104
0000
0000
1001
0000
0000
0000
0110
0000
0000
0000
1000
0001
1000
0000
1001
0000
,  // measure 105
0000
0000
0010
0000
1000
0100
0010
0000
,  // measure 106
1001
0010
0100
0000
1000
0100
0110
0000
,  // measure 107
1000
0100
0010
0100
0001
1000
0100
0020
,  // measure 108
0000
1000
0000
0000
1000
0000
1030
1010
,  // measure 109
0000
0000
0100
0000
0100
1000
0100
0010
,  // measure 110
0100
0010
0100
0000
1000
0100
0010
0001
,  // measure 111
0100
0000
0100
0000
0100
1000
0110
0000
,  // measure 112
1000
0001
0110
0000
0100
0010
0110
0000
,  // measure 113
1002
0000
0000
0000
,  // measure 114
1000
0000
1003
0000
,  // measure 115
1001
0000
1000
0000
,  // measure 116
0010
0010
1001
0000
,  // measure 117
0100
0010
0100
0000
,  // measure 118
0010
0010
0010
0100
,  // measure 119
1000
0000
0010
0001
,  // measure 120
1000
1000
0001
0000
,  // measure 121
1001
0100
0010
1000
,  // measure 122
0100
1000
0100
0010
,  // measure 123
1010
0000
0000
0110
0000
0000
1001
0000
,  // measure 124
0000
0110
0000
0000
1010
0000
1010
0000
,  // measure 125
0110
0000
0000
1000
0000
0000
1000
0000
,  // measure 126
0000
1000
0000
1000
0000
1000
0000
0000
,  // measure 127
1010
0100
0110
0100
,  // measure 128
0010
0100
0010
0000
1000
0100
0010
0001
,  // measure 129
0100
0000
0000
0000
0100
0000
0000
0000
0010
0000
0100
0010
1000
0000
0000
0000
,  // measure 130
1000
0100
0010
0001
0000
0100
0010
0000
,  // measure 131
1000
0100
0010
0001
0100
0000
0100
0000
,  // measure 132
0010
1000
0100
0010
0000
1000
0100
0000
,  // measure 133
0010
0000
1000
0100
0010
0000
1000
0100
,  // measure 134
0000
0010
0100
0001
0000
0010
0100
0010
,  // measure 135
1010
0000
0100
0010
0110
0000
1000
1010
,  // measure 136
0000
0100
0101
1000
1010
0000
0100
0110
,  // measure 137
0000
1000
0100
0010
0110
0100
0001
2000
,  // measure 138
0000
0000
0000
0000
0001
0000
0001
3000
,  // measure 139
0101
0010
0100
1000
0010
0100
0010
0100
,  // measure 140
0001
0010
0100
1000
0100
0010
0100
0010
,  // measure 141
2000
0010
0010
3010
,  // measure 142
0101
0000
0110
0000
0100
0010
0110
0000
,  // measure 143
0002
1003
0020
1030
,  // measure 144
0010
0200
0310
2000
,  // measure 145
3010
0200
0310
0200
,  // measure 146
0301
0100
1010
0110
,  // measure 147
1001
0000
0100
0010
0100
0010
0100
0010
,  // measure 148
1000
0000
0100
0010
0000
0100
0010
0100
,  // measure 149
0020
0000
1000
0000
0100
0000
0001
0030
,  // measure 150
1001
0000
0100
0010
,  // measure 151
1001
0100
0010
0100
,  // measure 152
1001
0000
0110
0000
,  // measure 153
1001
0000
1010
0000
0100
0010
0110
0000
,  // measure 154
1001
0000
0000
0000
0110
0000
0000
0000
0001
1000
0001
0000
0001
1000
0001
0000
,  // measure 155
1001
0000
0000
0000
0110
0000
0000
0000
1000
0001
1000
0000
1000
0001
1000
0000
,  // measure 156
0010
0000
0000
0000
0101
0000
0000
0000
0100
0010
0100
0000
0100
0010
0100
0000
,  // measure 157
1010
0000
0001
0000
0100
0000
0000
0000
0010
0100
0010
0000
0010
0100
0010
0000
,  // measure 158
0110
0100
0001
0000
1000
0010
0110
0000
,  // measure 159
0110
0000
0110
0000
1000
0100
0011
0000
,  // measure 160
0101
0101
0000
0000
1001
1001
0000
0000
,  // measure 161
2002
0000
0000
0000
,  // measure 162
0000
0000
0000
0000
,  // measure 163
0000
0000
0000
0000
,  // measure 164
0000
0000
0000
0000
,  // measure 165
0000
0000
0000
0000
,  // measure 166
3003
0000
0000
0000
,  // measure 167
0000
2002
0000
0000
,  // measure 168
0000
0000
0000
0000
,  // measure 169
3003
0000
0000
0000
;
