#TITLE:Dango Daikazoku (ANIME HOUSE PROJECT Remix);
#SUBTITLE:[FULL SONG][Remix] CLANNAD Anime ED;
#ARTIST:Asana (IOSYS);
#TITLETRANSLIT:;
#SUBTITLETRANSLIT:;
#ARTISTTRANSLIT:;
#CREDIT:;
#BANNER:[Full Song] Dango Daikazoku (ANIME HOUSE PROJECT MIX).png;
#BACKGROUND:[Full Song] Dango Daikazoku (ANIME HOUSE PROJECT MIX)-bg.png;
#LYRICSPATH:;
#CDTITLE:;
#MUSIC:[Full Song] Dango Daikazoku.mp3;
#MENUCOLOR:0,0,1,1;
#METERTYPE:DDR X;
#OFFSET:0.000;
#SAMPLESTART:100.000;
#SAMPLELENGTH:12.000;
#SELECTABLE:YES;
#BPMS:0.000=120.000,416.000=60.000,432.000=120.000;
#STOPS:;
#BGCHANGES:;

//---------------dance-single - ----------------
#NOTES:
     dance-single:
     :
     Challenge:
     8:
     0.391,0.508,0.065,0.343,0.007: // measure 1
0000
0000
0000
0000
,  // measure 2
0000
0000
0000
0000
,  // measure 3
0000
0000
0000
0000
,  // measure 4
0000
0000
0000
0000
,  // measure 5
1000
0100
0010
0001
,  // measure 6
1000
0100
0010
0001
,  // measure 7
0001
0010
0100
1000
,  // measure 8
0001
0000
0000
0000
,  // measure 9
1001
0100
0010
0100
,  // measure 10
1000
0100
0010
1000
,  // measure 11
0010
0001
0100
0010
,  // measure 12
1000
0100
0010
1000
,  // measure 13
0001
0100
0010
1000
,  // measure 14
0100
0010
1000
0010
,  // measure 15
0100
0010
0001
0010
,  // measure 16
1000
0001
1000
0010
,  // measure 17
0100
0010
1000
1000
,  // measure 18
0010
0100
0001
0001
,  // measure 19
0100
0010
0100
0100
,  // measure 20
0001
1000
0010
0010
,  // measure 21
0100
0010
0001
0001
,  // measure 22
1000
0100
0010
0010
,  // measure 23
1000
0010
0100
0100
,  // measure 24
0010
0001
1000
1000
,  // measure 25
2001
3010
0020
0130
,  // measure 26
0200
0301
0002
0013
,  // measure 27
2000
3010
0200
0301
,  // measure 28
0200
0310
0020
1030
,  // measure 29
0200
0301
0002
0013
,  // measure 30
0200
1300
2000
3100
,  // measure 31
0200
0000
0310
0000
0002
0000
0013
0100
,  // measure 32
1000
0000
0000
0000
,  // measure 33
1001
0100
0010
2000
,  // measure 34
3001
0200
0310
0001
,  // measure 35
0100
0010
0100
0000
2000
0000
3100
0000
,  // measure 36
0002
0013
1001
0000
,  // measure 37
1000
0100
1000
0000
0020
0000
0130
0000
,  // measure 38
0002
0013
2000
3001
,  // measure 39
0100
0010
0100
0000
0002
0000
1003
0000
,  // measure 40
1001
0000
0010
0010
,  // measure 41
1000
0100
0010
0000
0100
0000
0010
0000
,  // measure 42
1000
0002
1003
1000
,  // measure 43
1000
0100
0010
0000
1000
0000
0001
0000
,  // measure 44
2000
3010
0101
0000
,  // measure 45
1000
0001
1000
0000
0010
0100
0010
0000
,  // measure 46
2000
3100
0020
0031
,  // measure 47
0001
1000
0001
0000
0200
0000
0310
0000
,  // measure 48
0110
0000
0000
0000
,  // measure 49
1000
0001
1000
0010
0000
0100
0010
0100
,  // measure 50
0010
2000
3100
0001
,  // measure 51
0100
0010
0100
0010
0000
1000
0100
0010
,  // measure 52
0001
2000
3100
0001
,  // measure 53
0100
0010
0100
0010
0000
1000
0100
0010
,  // measure 54
0100
0002
0013
2000
,  // measure 55
3200
0000
0310
0001
1000
0000
0010
0000
,  // measure 56
0101
0000
0110
0000
1000
0100
0010
0100
,  // measure 57
0002
0000
1003
0000
0100
0010
0100
0010
,  // measure 58
1000
0100
0020
0000
1030
0100
0010
0100
,  // measure 59
0020
0000
1030
0010
0000
0100
0010
0100
,  // measure 60
0010
0000
0000
0000
0100
0001
0100
0001
,  // measure 61
0200
0000
0310
1000
0000
0100
0010
0001
,  // measure 62
0100
0010
0100
0000
0020
0000
1030
0000
,  // measure 63
0100
0010
0100
0000
0010
0000
0100
0020
,  // measure 64
0000
1030
0000
0000
0100
0010
0100
0010
,  // measure 65
1001
0000
0100
0010
0000
0100
0010
0100
,  // measure 66
0010
0100
0020
0000
1030
0100
0010
0100
,  // measure 67
0020
0000
0130
0010
0000
1000
0100
0010
,  // measure 68
0001
0000
0000
0000
0010
0100
0010
0100
,  // measure 69
0200
0000
0310
0100
0000
0010
1000
0100
,  // measure 70
0010
0001
0100
0000
0020
0000
1030
0000
,  // measure 71
0200
0000
0310
0000
0100
0000
0010
0200
,  // measure 72
0000
0310
0000
0000
1000
0000
0100
0000
,  // measure 73
0010
0100
0010
0000
1000
0000
0100
0000
,  // measure 74
0001
0000
2000
0000
0000
0000
0000
3000
,  // measure 75
0010
0100
0010
0000
1000
0100
0010
0100
,  // measure 76
0002
0000
0000
0003
,  // measure 77
0100
0010
0100
0000
0010
1000
0010
0200
,  // measure 78
0000
0000
0310
0000
,  // measure 79
0001
0000
1000
0000
,  // measure 80
0010
0000
0100
0010
,  // measure 81
1001
0100
0010
1000
,  // measure 82
0020
0000
0100
0000
1000
0000
0001
0030
,  // measure 83
0100
0010
0100
0000
0010
0100
0010
0000
,  // measure 84
0200
1000
0010
0301
,  // measure 85
0100
0010
0100
0000
0010
1000
0010
0000
,  // measure 86
0200
0301
0020
1030
,  // measure 87
0200
0310
0002
0013
,  // measure 88
2000
0000
3100
0000
0010
0100
0010
0000
,  // measure 89
1000
0000
0100
0000
0010
0100
0010
0000
,  // measure 90
2000
3010
0020
0031
,  // measure 91
0100
0010
0100
0000
0001
0100
0010
0000
,  // measure 92
0002
0013
0020
1030
,  // measure 93
0100
0010
0100
0000
0001
0010
0100
1000
,  // measure 94
2000
3010
0200
0301
,  // measure 95
0200
0310
0010
0010
,  // measure 96
1000
0100
0010
0001
,  // measure 97
2000
0000
3100
0000
0010
0100
0010
0000
,  // measure 98
1000
0100
0010
0000
0100
0010
0100
0000
,  // measure 99
0001
0100
0010
0000
1000
0000
1000
0100
,  // measure 100
0010
0000
0000
0100
0000
0000
0010
0000
0100
0000
0000
0000
1000
0000
0100
0000
,  // measure 101
0010
0000
0100
0010
0100
0000
0010
0100
,  // measure 102
0010
0000
0000
0000
1000
0000
0000
0000
0100
0000
0010
0000
0000
0001
0000
0000
,  // measure 103
0100
0000
0010
0100
0010
0000
1000
0100
,  // measure 104
0010
0100
0010
0000
1000
0100
0010
0001
,  // measure 105
2000
0000
3020
0000
,  // measure 106
0230
0302
2003
0000
,  // measure 107
3200
0000
0320
0000
,  // measure 108
0032
0000
0000
0000
0000
0000
0000
0000
2003
0000
0000
0000
3000
0000
0000
0000
0110
0000
0000
0110
0000
0000
0110
0000
0000
0110
0000
0000
0110
0000
0000
0000
,  // measure 109
1001
0000
0100
0010
0000
1000
0100
0010
,  // measure 110
0001
0100
0020
0000
1030
0100
0010
0001
,  // measure 111
0200
0000
0310
1000
0000
0010
0100
0010
,  // measure 112
0100
0000
0000
0000
1000
0100
0010
0001
,  // measure 113
2000
0000
3010
0100
0000
0010
0100
0010
,  // measure 114
0100
0001
0100
0000
2000
0000
3100
0000
,  // measure 115
0020
0000
0031
0000
0200
0000
0310
2000
,  // measure 116
0000
3010
0000
0000
0100
0010
0100
0010
,  // measure 117
2000
0000
3100
0010
0000
0100
0010
0100
,  // measure 118
0010
1000
0200
0000
0310
1000
0010
0100
,  // measure 119
0020
0000
1030
0100
0000
0010
0100
0010
,  // measure 120
1000
0000
0000
0000
1000
0001
1000
0001
,  // measure 121
0200
0000
0310
1000
0000
0010
0100
0010
,  // measure 122
1000
0100
0010
0000
0002
0000
0103
0000
,  // measure 123
0010
0000
0000
1000
0200
0000
0310
2000
,  // measure 124
0000
3001
0000
0000
0100
0010
0100
0010
,  // measure 125
2000
0000
3100
0010
0000
0100
0001
0100
,  // measure 126
0010
0100
0010
0000
1000
0100
0010
0100
,  // measure 127
0020
0000
1030
0010
0000
0100
0010
0001
,  // measure 128
0100
0000
0000
0000
1000
0001
1000
0001
,  // measure 129
0200
0000
0310
1000
0000
0100
0010
0100
,  // measure 130
0010
0100
0010
0000
2000
0000
3100
0000
,  // measure 131
0002
0000
1003
0100
0010
0000
0100
0020
,  // measure 132
0000
1030
0000
0000
0100
0000
0010
0000
,  // measure 133
2000
3100
0200
0310
,  // measure 134
0020
0031
0002
0013
,  // measure 135
0020
0130
0200
1300
,  // measure 136
1000
0000
0100
0010
0001
0000
0000
0000
,  // measure 137
0002
0013
0020
0130
,  // measure 138
0200
1300
2000
3100
,  // measure 139
0200
0000
0310
0000
0020
0000
0031
0010
,  // measure 140
0100
0000
1001
0110
,  // measure 141
0200
0310
0020
0130
,  // measure 142
2000
3001
0002
1003
,  // measure 143
2000
3001
0002
1003
,  // measure 144
0020
0130
0110
0000
,  // measure 145
1000
0100
0010
0000
0001
0000
0010
0000
,  // measure 146
0001
0010
0100
0000
1000
0000
0100
0000
,  // measure 147
0001
0100
0010
0000
0001
0000
0010
0100
,  // measure 148
0010
0000
0000
0000
,  // measure 149
0001
0000
0010
0000
0100
0010
0100
0010
,  // measure 150
2000
0100
0010
3001
,  // measure 151
0100
0010
1000
0010
0100
0010
0100
0010
,  // measure 152
0002
0010
0100
1003
,  // measure 153
0110
1000
0010
0100
0001
0100
0010
0100
,  // measure 154
0200
1000
0010
0301
,  // measure 155
0010
0100
0010
1000
,  // measure 156
0100
0010
0001
0010
,  // measure 157
0110
1000
0100
0010
0001
0100
0010
0100
,  // measure 158
0020
0001
0100
1030
,  // measure 159
0100
0010
1000
0100
0010
0001
0100
0010
,  // measure 160
2000
0100
0100
3100
,  // measure 161
0100
0010
0100
0010
1000
0100
0010
0001
,  // measure 162
0002
0100
0100
0103
,  // measure 163
1000
0100
0010
0100
,  // measure 164
0010
1000
0100
0010
,  // measure 165
1000
0100
0010
0010
,  // measure 166
0100
0010
0001
0001
,  // measure 167
1000
0100
0010
0100
,  // measure 168
0010
0010
1000
0100
,  // measure 169
0100
0010
0001
0100
,  // measure 170
0010
0010
1000
0100
,  // measure 171
0010
0010
0100
0100
,  // measure 172
0001
0000
1000
0000
0001
0000
1000
0001
;
