#TITLE:ミレナリオ;
#SUBTITLE:魔法科高校の劣等生 ED;
#ARTIST:ELISA;
#TITLETRANSLIT:Millenario;
#SUBTITLETRANSLIT:Mahouka Koukou no Rettousei ED;
#ARTISTTRANSLIT:ELISA;
#CREDIT:;
#BANNER:Millenario.png;
#BACKGROUND:Millenario-bg.png;
#LYRICSPATH:;
#GENRE:IRREGULAR BALLAD;
#MENUCOLOR:0,0,1,1;
#METERTYPE:DDR X;
#CDTITLE:cdtitle.png;
#MUSIC:Millenario.mp3;
#OFFSET:-1.559;
#SAMPLESTART:47.863;
#SAMPLELENGTH:12.000;
#SELECTABLE:YES;
#BPMS:0.000=154.000;
#STOPS:;
#BGCHANGES:;

//---------------dance-single - ----------------
#NOTES:
     dance-single:
     :
     Hard:
     9:
     0.438,0.540,0.194,0.658,0.011: // measure 1
0000
0000
0000
0000
,  // measure 2
0000
0000
0000
0000
,  // measure 3
0000
0000
0000
0000
,  // measure 4
0000
0000
0000
0000
,  // measure 5
0000
0000
0000
0000
,  // measure 6
0000
0000
0000
0000
0000
0000
0000
1000
,  // measure 7
0100
0000
0020
0002
0033
0001
0200
0000
,  // measure 8
0001
0000
0000
0000
0310
0000
0000
1000
,  // measure 9
0200
0000
0301
0100
0000
0100
0020
0000
,  // measure 10
1000
0000
0000
0000
0031
0000
0000
0001
,  // measure 11
0010
0000
0100
2000
0000
3001
0002
0000
,  // measure 12
0010
0000
0023
0230
,  // measure 13
2000
0000
0000
3000
0010
0000
0001
0301
,  // measure 14
0000
0000
0000
0000
0001
0100
0010
0001
,  // measure 15
0100
0000
0001
1000
0000
0100
2000
0000
,  // measure 16
0001
0000
0000
0000
3010
0000
0000
1000
,  // measure 17
0020
0000
0130
0010
0000
1000
0002
0000
,  // measure 18
0100
0000
0000
0000
1003
0000
0000
1000
,  // measure 19
0002
0000
0103
0002
0000
0013
0001
0000
,  // measure 20
0000
2000
3200
0320
,  // measure 21
0002
0030
0013
0020
0000
0100
0130
0000
,  // measure 22
0000
0000
0000
2000
,  // measure 23
3200
0000
0000
0000
1000
0000
0310
0010
,  // measure 24
0000
0000
0000
0001
0002
0000
1003
0001
,  // measure 25
0100
0000
0001
1000
,  // measure 26
0001
0000
0100
0000
0010
0000
1000
0100
,  // measure 27
0010
0000
0010
0200
0000
0301
0100
0000
,  // measure 28
0000
2000
3100
0010
,  // measure 29
0002
0000
0013
0100
0000
0100
0100
0000
,  // measure 30
0000
0000
0000
0000
0000
0000
1010
0110
,  // measure 31
2010
0000
3001
0101
,  // measure 32
1001
0000
0020
0000
0100
0001
0031
0000
,  // measure 33
2002
0000
0000
3000
0100
0000
0003
0000
,  // measure 34
2000
0000
0200
3300
0021
0000
0031
0000
,  // measure 35
2000
0000
0000
0000
0001
0000
0001
3002
,  // measure 36
0100
0000
0100
0003
0110
0000
1000
0100
,  // measure 37
0020
0000
0031
0100
0110
0000
0000
0010
,  // measure 38
0200
0000
2000
3300
0210
0000
0310
2000
,  // measure 39
0010
0010
0001
0001
,  // measure 40
3001
0000
0200
0000
1000
1000
0310
0000
,  // measure 41
2002
0000
0000
0003
0100
0000
3000
0000
,  // measure 42
0002
0000
0020
0033
1200
0000
1300
0000
,  // measure 43
0002
0000
0000
0000
1000
0000
1000
2003
,  // measure 44
0010
0000
0010
3000
0110
0000
1000
0100
,  // measure 45
2000
0000
3010
0100
0110
0000
0010
0001
,  // measure 46
0020
0000
0130
0000
0110
2000
0000
3002
,  // measure 47
0010
0000
0013
0000
0110
0000
1000
0001
,  // measure 48
0100
0001
1000
0100
2000
0000
3001
0000
,  // measure 49
1000
0001
1000
0000
0002
0000
1003
0000
,  // measure 50
0001
1000
0001
0000
0100
0010
0100
0000
,  // measure 51
0010
0100
0010
0000
1000
0100
1000
0000
,  // measure 52
0001
0000
0010
0000
0001
0000
0000
0000
2020
3030
0000
0000
0202
0303
0000
0000
,  // measure 53
1000
0010
0100
0000
0200
0000
0000
1300
,  // measure 54
0100
0000
0000
0000
0000
0000
0020
0000
0000
0000
0000
0000
0000
0000
0000
0000
0000
0000
0000
0000
0000
0000
0000
0000
0031
0000
0000
0000
0000
0000
0000
0000
0010
0000
0000
0000
0000
0000
0000
0200
0000
0000
0000
0000
0000
0000
0000
0000
,  // measure 55
0000
0000
0000
0000
,  // measure 56
0000
0000
0000
0000
0000
0300
0000
0000
;

//---------------dance-single - ----------------
#NOTES:
     dance-single:
     :
     Beginner:
     1:
     0.086,0.150,0.000,0.054,0.000:
0000
0000
0000
0000
,
0000
0000
0000
0000
,
0000
0000
0000
0000
,
0000
0000
0000
0000
,
0000
0000
0000
0000
,
0000
0000
0000
0000
,
1000
0000
0000
0000
,
0000
0000
0000
0000
,
0001
0000
0000
0000
,
0000
0000
0000
0000
,
0100
0000
0000
0000
,
0000
0000
0000
0000
,
0001
0000
0000
0000
,
0000
0000
0000
0000
,
1000
0000
0000
0000
,
0000
0000
0000
0000
,
0001
0000
0000
0000
,
0000
0000
0000
0000
,
1000
0000
0000
0000
,
0000
0000
0100
0000
,
0100
0000
0000
0000
,
0000
0000
0000
0000
,
0010
0000
0010
0000
,
0010
0000
0000
0000
,
0001
0000
0001
0000
,
0001
0000
0000
0000
,
1000
0000
1000
0000
,
1000
0000
0000
0000
,
0010
0000
0000
0000
,
0100
0000
0000
0000
,
1000
0000
1000
0000
,
1000
0000
0001
0000
,
0002
0000
0000
0000
,
1003
0000
0000
0000
,
2000
0000
0000
0000
,
3001
0000
0000
0000
,
0001
0000
0000
0000
,
0001
0000
0000
0000
,
0100
0000
0000
0000
,
0000
0000
0010
0000
,
0020
0000
0000
0000
,
0130
0000
0000
0000
,
0200
0000
0000
0000
,
0310
0000
0000
0000
,
0010
0000
0000
0000
,
1000
0000
0000
0000
,
0001
0000
0000
0000
,
0000
0000
1000
0000
,
1000
0000
0001
0000
,
0001
0000
0100
0000
,
0100
0000
0010
0000
,
0010
0000
1000
0000
,
0001
0000
0100
0000
,
0020
0000
0000
0000
,
0000
0000
0000
0000
,
0000
0000
0000
0000
0000
0000
0000
0000
0000
0000
0000
0000
0000
0000
0000
0000
0000
0000
0000
0000
0000
0000
0000
0000
0000
0000
0000
0000
0000
0000
0000
0000
0000
0000
0000
0000
0000
0000
0000
0000
0000
0000
0000
0000
0000
0000
0000
0000
0000
0000
0000
0000
0000
0000
0000
0000
0000
0000
0000
0000
0000
0000
0000
0000
0000
0000
0000
0000
0000
0000
0000
0000
0000
0000
0000
0000
0000
0000
0000
0000
0000
0000
0000
0000
0000
0000
0000
0000
0000
0000
0000
0000
0000
0000
0000
0000
0000
0000
0000
0000
0000
0000
0000
0000
0000
0000
0000
0000
0000
0000
0000
0000
0000
0000
0000
0000
0000
0000
0000
0000
0000
0030
0000
0000
0000
0000
0000
0000
0000
0000
0000
0000
0000
0000
0000
0000
0000
0000
0000
0000
0000
0000
0000
0000
0000
0000
0000
0000
0000
0000
0000
0000
0000
0000
0000
0000
0000
0000
0000
0000
0000
0000
0000
0000
0000
0000
0000
0000
0000
0000
0000
0000
0000
0000
0000
0000
0000
0000
0000
0000
0000
0000
0000
0000
0000
0000
0000
0000
0000
0000
0000
0000
;

//---------------dance-single - ----------------
#NOTES:
     dance-single:
     :
     Easy:
     3:
     0.156,0.240,0.000,0.119,0.000:
0000
0000
0000
0000
,
0000
0000
0000
0000
,
0000
0000
0000
0000
,
0000
0000
0000
0000
,
0000
0000
0000
0000
,
0000
0000
0000
0000
,
1000
0000
1000
0000
,
0001
0000
0001
0000
,
0100
0000
0100
0000
,
0010
0000
0010
0000
,
1000
0000
1000
0000
,
0001
0000
0001
0000
,
2000
0000
0000
0000
,
3001
0000
0000
0000
,
0001
0000
0001
0000
,
0100
0000
0100
0000
,
0010
0000
0010
0000
,
1000
0000
1000
0000
,
0001
0000
1000
0000
,
0010
0000
0100
0000
,
0010
0000
0010
0000
,
1000
0000
0000
0000
,
0002
0000
0000
0000
,
1003
0000
1000
0000
,
0001
0000
0000
0000
,
0000
0000
0000
0000
,
0020
0000
0130
0000
,
0100
0000
0010
0000
,
0100
0000
0000
0001
,
0000
0000
0000
1000
,
1000
0000
0001
0001
,
0001
1000
0100
0010
,
0002
0000
1003
0000
,
1000
0100
1000
0100
,
0020
0000
0000
0031
,
0001
0000
0000
0001
,
1000
0000
0000
0000
,
1000
0100
0010
0001
,
0020
0000
0000
0000
,
0130
0000
0100
1000
,
0200
0000
0000
0000
,
0310
0001
0010
0000
,
0200
0000
0000
0000
,
2300
0000
0000
0000
,
3001
0000
0001
0000
,
0100
0000
0100
0000
,
0010
0000
0000
0000
,
0000
0000
1000
0000
,
1000
0000
0001
0000
,
0001
0000
0100
0000
,
0100
0000
0010
0000
,
0010
0000
1000
0000
,
0001
0000
1000
0000
,
0002
0000
0000
0000
,
2000
0000
0000
0000
,
0000
0000
0000
0000
0000
0000
0000
0000
0000
0000
0000
0000
0000
0000
0000
0000
0000
0000
0000
0000
0000
0000
0000
0000
0000
0000
0000
0000
0000
0000
0000
0000
0000
0000
0000
0000
0000
0000
0000
0000
0000
0000
0000
0000
0000
0000
0000
0000
0000
0000
0000
0000
0000
0000
0000
0000
0000
0000
0000
0000
0000
0000
0000
0000
0000
0000
0000
0000
0000
0000
0000
0000
0000
0000
0000
0000
0000
0000
0000
0000
0000
0000
0000
0000
0000
0000
0000
0000
0000
0000
0000
0000
0000
0000
0000
0000
0000
0000
0000
0000
0000
0000
0000
0000
0000
0000
0000
0000
0000
0000
0000
0000
0000
0000
0000
0000
0000
0000
0000
0000
0000
0000
3003
0000
0000
0000
0000
0000
0000
0000
0000
0000
0000
0000
0000
0000
0000
0000
0000
0000
0000
0000
0000
0000
0000
0000
0000
0000
0000
0000
0000
0000
0000
0000
0000
0000
0000
0000
0000
0000
0000
0000
0000
0000
0000
0000
0000
0000
0000
0000
0000
0000
0000
0000
0000
0000
0000
0000
0000
0000
0000
0000
0000
0000
0000
0000
0000
0000
0000
0000
0000
0000
;

//---------------dance-single - ----------------
#NOTES:
     dance-single:
     :
     Medium:
     6:
     0.301,0.390,0.065,0.389,0.005:
0000
0000
0000
0000
,
0000
0000
0000
0000
,
0000
0000
0000
0000
,
0000
0000
0000
0000
,
0000
0000
0000
0000
,
0000
0000
0000
0000
0000
0000
0000
1000
,
0001
0000
0100
0000
0000
0001
0100
0000
,
0000
0000
0000
0000
0000
0000
0000
0001
,
1000
0000
0000
0100
0000
1000
0100
0000
,
0000
0000
0000
0000
0000
0000
0000
1000
,
0100
0000
0010
0001
0000
0010
0100
0000
,
0000
0000
0000
1000
,
0002
0000
0000
0000
0000
0000
0103
0010
,
0000
0000
0000
0000
0000
0000
0000
1000
,
0100
0000
0100
1000
0000
1000
0200
0000
,
0000
0000
0000
0000
0000
0000
0000
0310
,
0001
0000
0001
0010
0000
0010
0002
0000
,
0000
0000
0000
0000
0000
0000
0000
1003
,
0001
0000
1000
0010
0000
1000
0100
0000
,
0000
0010
0010
0002
,
0103
0000
0010
0100
0000
0001
1000
0000
,
0000
0000
0000
1000
,
0200
0000
0000
0000
0000
0000
1300
0001
,
0000
0000
0000
0100
2000
0000
3100
0002
,
0000
0000
0000
0000
,
0003
0000
0000
0000
0000
0000
0010
0100
,
0010
0000
0001
0010
0000
0100
1000
0000
,
0000
0002
0103
0010
,
0002
0000
0013
0100
0000
0001
1000
0000
,
0000
0000
0000
0000
0000
0000
1000
0100
,
2000
0000
3001
0100
,
0001
1000
1001
1000
,
0120
0000
0100
0000
,
0230
0320
2030
3200
,
0320
0000
0000
0000
0130
0000
0001
0200
,
0000
0000
0000
0000
0300
0000
1000
0100
,
2000
0000
0010
3010
0000
0000
0000
0100
,
0002
0000
0203
0000
0320
0000
1030
0020
,
0000
0000
0000
0000
,
0000
0130
0110
0100
,
1002
0000
0100
0000
,
2003
3002
0023
0230
,
0320
0000
0000
0000
0000
0000
0031
0200
,
0000
0000
0000
0000
0000
0000
1300
0100
,
0010
0000
0100
0010
0000
0000
0100
0010
,
0002
0000
0013
0000
0100
0020
0000
2030
,
0000
0000
0000
0000
,
3000
0000
1001
0001
,
1000
0001
1000
0000
1001
0000
1000
0000
,
0001
1000
0001
0000
1000
0100
0010
0000
,
0100
0000
0010
0000
0100
0010
0001
0000
,
0010
0100
2000
3200
,
0301
0100
0010
0000
0000
0000
0000
0100
,
0010
0000
0200
0000
0000
0000
0000
0000
1300
0000
0000
0000
0000
2000
0000
0000
,
0000
0000
0000
0000
,
0000
0000
0000
0000
0000
3000
0000
0000
;
