#TITLE:PATRIOTISM;
#SUBTITLE:;
#ARTIST:kobo;
#TITLETRANSLIT:;
#SUBTITLETRANSLIT:;
#ARTISTTRANSLIT:;
#GENRE:;
#CREDIT:;
#MENUCOLOR:;
#NEWMETERSYSTEM:NO;
#BANNER:PATRIOTISM-bn.png;
#BACKGROUND:PATRIOTISM-bg.png;
#LYRICSPATH:;
#CDTITLE:MixMania 4 CD Title.png;
#MUSIC:PATRIOTISM.mp3;
#OFFSET:-0.040;
#SAMPLESTART:53.380;
#SAMPLELENGTH:12.000;
#SELECTABLE:YES;
#LISTSORT:;
#BPMS:0.000=180.000,224.000=90.000,256.000=180.020;
#STOPS:;
#BGCHANGES:;
#ATTACKS:;

//---------------dance-single - ----------------
#NOTES:
     dance-single:
     :
     Easy:
     5:
     0.375,0.428,0.058,0.255,0.000:
0000
0000
0000
0000
,
0000
0000
0000
0000
,
0000
0000
0000
0000
,
0000
0000
0000
0000
,
0000
0100
0100
0100
,
0020
0000
1000
0000
,
0100
0000
1000
0000
,
0230
0000
0010
0000
,
0301
0000
1000
0100
,
0100
0000
0100
0000
,
0010
0000
0001
1000
,
0000
0001
0100
0001
,
0000
1000
0100
1000
,
0000
0010
0100
0010
,
0000
1000
0001
1000
,
0000
0000
0001
0200
0000
0000
0000
0000
,
0310
1000
0001
0100
,
0001
1000
0100
0100
,
0010
0001
1000
0100
,
0010
0100
1000
1001
,
0010
0100
0001
0010
,
0001
0100
0010
1000
,
0100
0010
0001
1000
,
0001
0200
0010
0301
,
0010
1000
0001
1000
,
0010
1000
0001
1000
,
0100
1000
0001
1000
,
0010
1000
0001
1000
,
0100
0001
0100
0001
,
0010
0001
1000
0001
,
0100
0001
1000
0001
,
1000
0001
0010
0001
,
0200
0000
0310
1000
,
0002
0000
0103
0000
,
2000
0000
3100
0010
,
0200
0000
0310
0000
,
0002
0000
0103
0010
,
0200
0000
0310
0000
,
2000
0000
3100
0000
,
0020
0032
0203
0320
,
1030
0100
0001
0100
,
1000
0010
0100
0001
,
0020
0001
0100
0031
,
0200
0010
0010
0310
,
0001
1000
0001
0100
,
0010
1000
0100
0001
,
0100
0010
0001
0100
,
0010
1000
1001
0000
,
0001
0100
0010
1000
,
0001
0100
0001
1000
,
2000
0001
0010
3001
,
0200
0010
0010
0310
,
0001
1000
0100
1000
,
0001
0100
0001
0010
,
0001
0010
0100
1000
,
0001
0100
0001
1001
,
1000
0001
0100
0010
,
1000
0100
0100
0100
0100
0000
0100
0000
,
0001
0100
0001
0010
,
0100
1000
0120
1030
,
1001
0000
0100
0000
0001
0010
0010
0010
,
0010
1000
0010
0100
,
0001
1000
0000
0001
0000
1000
0000
0001
,
0000
0100
0000
0010
0000
0100
0000
0001
,
1001
0001
0100
0001
,
1000
0100
1000
0010
,
0200
0010
0001
0310
,
0002
1000
1000
1003
,
0100
1000
0001
0010
,
0100
1000
0001
0100
,
0001
1000
0100
1000
,
0020
0230
0302
2003
,
3100
0010
0001
1000
,
0001
0010
0001
1000
,
0200
0010
0010
1300
,
2000
0001
0001
3001
,
0100
0010
1000
0001
,
1000
0100
0010
0001
,
1000
0001
0001
0100
,
0002
2003
3200
0310
,
0011
0000
0000
0000
;

//---------------dance-single - Copied from----------------
#NOTES:
     dance-single:
     Copied from:
     Beginner:
     1:
     0.099,0.165,0.025,0.041,0.000:
0000
0000
0000
0000
,
0000
0000
0000
0000
,
0000
0000
0000
0000
,
0000
0000
0000
0000
,
0000
0010
0010
0010
,
0010
0000
0000
0000
,
0000
0000
0000
0000
,
1000
0000
0000
0000
,
0001
0000
0000
0000
,
0000
0000
0000
0000
,
0100
0000
0000
0000
,
0000
0000
0000
0000
,
0010
0000
0000
0000
,
0000
0000
0000
0000
,
1000
0000
0000
0000
,
0000
0000
0000
0000
,
1001
0000
0000
0000
,
0010
0000
0000
0000
,
0001
0000
0000
0000
,
0100
0000
0000
0000
,
0010
0000
0000
0000
,
1000
0000
0000
0000
,
0001
0000
0000
0000
,
2000
0000
3000
0000
,
1000
0000
0000
0000
,
0001
0000
0000
0000
,
0100
0000
0000
0000
,
0010
0000
0000
0000
,
1000
0000
0000
0000
,
0100
0000
0000
0000
,
0010
0000
0000
0000
,
0100
0000
0000
0000
,
1000
0000
0000
0000
,
0000
0000
0000
0000
,
0000
0001
0001
0001
,
0001
0000
0000
0000
,
0100
0000
0000
0000
,
0000
0000
0000
0000
,
0010
0000
0000
0000
,
0010
0000
0000
0000
,
1001
0000
0000
0000
,
1000
0000
0000
0000
,
0200
0000
0000
0000
,
0300
0000
0000
0000
,
0010
0000
0000
0000
,
0001
0000
0000
0000
,
1000
0000
0000
0000
,
0010
0000
0000
0000
,
0100
0000
0000
0000
,
0001
0000
0000
0000
,
0020
0000
0000
0000
,
0030
0000
0000
0000
,
0001
0000
0000
0000
,
1000
0000
0000
0000
,
1000
0000
0000
0000
,
0100
0000
0000
0000
,
0001
0000
0000
0100
,
0100
0000
0010
0000
,
1000
0000
0000
0000
,
0100
0000
0100
0000
,
0010
0000
1000
0000
,
0001
0000
0010
0000
,
0001
0000
0000
0000
,
1000
0000
0100
0000
,
1001
0000
0000
0000
,
1000
0000
0000
0000
,
0002
0000
0000
0000
,
0003
0000
0000
0000
,
1000
0000
0000
0000
,
0010
0000
0000
0000
,
0100
0000
0000
0000
,
0001
0000
0000
0000
,
0100
0000
0000
0000
,
0010
0000
0000
0000
,
2000
0000
0000
0000
,
3000
0000
0000
0000
,
0100
0000
0000
0000
,
0010
0000
0000
0000
,
0001
0000
0000
0000
,
1000
0000
0000
0000
,
0100
0000
0000
0000
;

//---------------dance-single - Copied from----------------
#NOTES:
     dance-single:
     Copied from:
     Medium:
     7:
     0.492,0.560,0.140,0.066,0.000:
0000
0000
0000
0000
,
0000
0000
0000
0000
,
0000
0000
0000
0000
,
0000
0000
0000
0000
,
0010
0100
1010
0101
,
1001
0000
0000
0100
0000
0000
0010
0000
,
1000
0100
0010
0001
,
0100
0000
0000
0001
0000
0000
0000
0000
,
1000
0000
0001
1000
0100
0000
0010
0000
,
0010
0000
0000
0100
0000
0000
0000
0000
,
0001
0000
1000
0000
0001
0100
0001
0000
,
1000
0100
1000
0000
0010
0100
0010
0000
,
1000
0001
0100
0000
0010
1000
0001
0000
,
0001
0010
0001
0000
1000
0100
1000
0000
,
0010
1000
0010
0000
0001
0100
0001
0000
,
1000
0010
0001
0200
0000
0000
0000
0000
,
0310
0000
1000
0001
0100
0001
1000
0000
,
0010
0000
1000
0000
0010
0001
0010
0000
,
1000
0000
0100
0000
0010
1000
0001
0000
,
0100
0000
0001
0000
0001
1000
0001
0000
,
0100
0000
0001
0000
0010
0001
0100
0000
,
0010
0000
1000
0000
0001
1000
0100
0000
,
0010
0000
0100
0000
0010
0001
1000
0000
,
0100
0000
1000
0000
0010
1000
0010
0000
,
0110
0000
0101
0000
1000
0100
0010
0000
,
0100
0001
0010
0000
0100
0010
1000
0000
,
0001
0000
0100
0000
0010
1000
0100
0000
,
0010
0001
0100
0000
0002
0000
2003
0000
,
3100
0010
0100
0000
1000
0001
1000
0000
,
0001
0100
0001
0000
0001
0000
1001
0000
,
0001
0100
0010
0000
1000
0010
0100
0000
,
0001
1000
0001
0000
0100
1000
0100
0000
,
0110
0000
1000
0100
0001
0000
0100
0000
,
0100
0000
0000
0100
0000
0000
0010
0000
,
0100
0001
0101
1001
,
0110
0000
0000
0001
0000
0000
1000
0000
,
0100
0100
0010
0001
,
1000
0001
0100
0001
,
1000
0001
0001
0100
,
0010
0000
0000
0010
0000
0000
1000
0000
,
0001
0100
0010
1000
,
0100
1000
0010
0000
0100
0001
0010
0000
,
0001
1000
0001
1000
0001
0100
0001
0000
,
1000
0001
1000
0001
1000
0100
1000
0000
,
0010
0000
0100
0001
1000
0000
0100
0000
,
1000
0010
0100
0000
0001
0010
0001
0000
,
0100
0010
1000
0001
,
0100
0000
1001
0000
0000
0001
0000
0000
,
1100
0000
0010
0000
0001
0100
0001
0000
,
1000
0100
1000
0010
0100
0000
0001
0000
,
1000
0001
1000
0001
1000
0100
1000
0000
,
0001
1000
0001
1000
0001
0100
0001
0000
,
0010
0000
0001
0100
0010
0000
1000
0001
,
1000
0000
0100
1000
0100
0000
0010
0000
,
0100
0000
0001
0010
0001
0000
1000
0010
,
1000
0000
0100
0000
0000
0100
0000
0000
,
1001
0000
0100
0000
0010
1000
0001
0100
,
0001
1000
1000
1000
0001
0000
0100
0010
,
0110
0000
1000
0001
0100
0000
0010
0010
,
1000
0100
2001
3010
,
1000
0100
0010
0010
0100
0010
0100
0001
,
1001
0000
0001
0100
0010
0100
0010
0000
,
1000
0001
1000
0001
0100
0010
0100
0010
,
1000
0100
1000
0100
0010
0001
0010
0001
,
0100
0010
1000
0000
0001
0100
0001
0000
,
0010
0001
0010
0000
1000
0100
1000
0000
,
0020
2030
3002
0203
,
0301
1000
0001
1000
0100
0010
0100
0000
,
0010
0000
0001
0000
1000
0100
1000
0000
,
0010
0000
0100
0000
0001
1000
0001
0000
,
0100
0000
0010
0000
1000
0001
0100
0000
,
0010
0000
1000
0000
0000
0001
0100
0000
,
0001
0000
1000
0000
0001
0100
0010
0000
,
1000
0000
0100
0000
0010
0001
1000
0000
,
0001
0100
0001
0100
0001
1000
0001
0000
,
1000
0100
1000
0100
1000
0001
1000
0000
,
0010
0000
0100
0001
1000
0000
0010
0000
,
0100
0000
0010
1000
0001
0000
1000
0000
,
0100
0010
0001
0100
,
0001
0000
1000
0000
0000
1000
0100
0000
,
0101
0000
0000
0000
;

//---------------dance-single - Copied from----------------
#NOTES:
     dance-single:
     Copied from:
     Hard:
     9:
     0.674,0.758,0.296,0.033,0.161:
0000
0000
0000
0000
,
0000
0000
0000
0000
,
0000
0000
0000
0000
,
0000
0000
0000
0000
,
0010
0000
0110
0000
1001
0000
0101
1000
,
1100
0000
1000
0010
0100
0000
0001
0000
,
1000
0100
0001
0100
1000
0010
0100
0001
,
0200
0000
0310
2000
0000
3100
0010
0001
,
0100
0000
0001
1000
0001
0000
0101
0000
,
1100
0000
0100
0010
0000
0100
0010
0000
,
1000
0000
0001
0000
0100
0001
1000
0000
,
0100
1000
0010
0000
0100
0001
1000
0000
,
0100
1000
0010
0000
0100
0001
0010
0000
,
0001
0100
0010
0000
1000
0001
0100
0000
,
0001
1000
0010
0000
0100
0001
1000
0000
,
0001
0100
0010
2000
0000
0000
0000
0000
,
3100
0010
0100
0000
0001
1000
0100
0000
,
0010
0001
0100
0001
1000
0010
0100
0000
,
0010
1000
0100
0000
0010
0001
0100
0000
,
0001
0000
1000
0000
0100
0000
0000
0110
0000
0000
0010
0000
0001
0000
0000
0000
,
1000
0001
0100
0010
1000
0001
0100
0000
,
0001
0001
1000
0100
0010
0100
1000
0000
,
0001
0100
0010
0001
1000
0100
0010
0000
,
0100
0000
0001
0000
1000
0000
0000
1001
0000
0000
0100
0000
0010
0000
0000
0000
,
1000
0001
0100
0010
1000
0100
0010
0001
,
1000
0001
0100
0010
0100
0001
0010
0100
,
1000
0100
0010
0001
1000
1000
0100
0001
,
0100
1000
0010
0100
0010
1000
0001
0100
,
0010
0010
1000
0100
0010
1000
0010
0100
,
0001
0100
0010
1000
0001
0100
1000
0100
,
0001
0010
0100
0001
0100
0010
1000
0010
,
0100
0001
1000
0010
0100
0001
1000
0001
,
0110
0000
0001
1000
0001
0000
0100
0000
,
0100
0000
0000
0010
0000
0000
0100
0000
,
0010
0000
1100
0000
0110
0000
0101
0001
,
1100
0000
1000
0001
0100
0000
0010
0000
,
1000
0000
0001
0100
0010
0000
1000
0000
,
0001
0000
1000
0100
0000
0010
0001
0000
,
0100
0001
1000
0100
0010
0001
0100
0010
,
0100
0000
0000
1001
0000
0000
0100
0000
0000
0000
0010
0000
1000
0000
0100
0000
,
1001
0000
0001
0100
0010
1000
0100
0010
,
0001
1000
0001
0100
0010
1000
0001
0100
,
0010
0000
0000
1000
0100
0000
0000
0100
0010
0000
0000
0001
1000
0000
0000
0000
,
0100
0001
0010
0100
1000
0100
0001
1000
,
0110
0000
1000
0001
0010
0100
0010
0001
,
1000
0100
0010
0100
1000
0001
0100
0010
,
1000
0000
0001
0000
1000
0000
0000
1001
0000
0000
0001
0000
0100
0000
0100
0000
,
0010
0000
1000
0000
0100
0000
0000
0110
0000
0000
0010
0000
0001
0000
1000
0000
,
1010
0000
1000
0100
0001
0100
0010
0100
,
1000
0100
0010
0001
0100
0010
1000
0100
,
0001
0000
0000
0100
0001
0000
0000
1000
0010
0000
0000
1000
0100
0000
0000
0000
,
0001
1000
0010
0001
0010
1000
0010
0100
,
1001
0000
0010
1000
0100
0010
0001
0100
,
0001
1000
0010
0100
0001
0001
0100
0010
,
1000
0000
0001
0000
1000
0000
0000
1100
0000
0000
0100
0000
0010
0000
0001
0000
,
1000
0001
0010
0200
0000
0310
0010
0000
,
1001
0000
0010
0100
0010
0100
0000
0000
0001
0000
1000
0000
0100
0010
0000
0000
,
0011
0000
0001
0000
0101
0000
1000
0000
1100
0000
1000
0000
0010
0100
0000
0000
,
0010
0000
0100
0000
0001
0000
1000
0000
0100
0000
0010
0000
0100
0010
0000
0000
,
1001
0000
0010
0000
0101
1000
1000
0010
,
0100
0010
1000
0100
0000
0000
0010
0000
0001
0000
0100
0000
0001
0100
0000
0100
,
0010
0000
1000
0000
0001
0000
0100
0000
1000
0010
0100
0010
1000
0000
0000
0010
,
0100
0010
1000
0010
0100
0010
0001
0010
,
0100
0010
1000
0000
0001
0100
0001
0000
1000
0010
1000
0010
0100
0001
0100
0000
,
1001
0000
0100
0010
0100
0001
0100
1000
,
0001
1000
0001
0100
0010
0100
0001
1000
,
1100
0000
0000
1000
0100
0000
0000
0010
0100
0000
0000
0100
1000
0000
0000
0000
,
1000
0001
0001
0100
0010
0100
0001
0000
,
1001
0000
0001
0100
0010
1000
0001
0100
,
0001
1000
0100
1000
0010
0100
0001
1000
,
0100
0000
0100
0000
1000
0000
0000
1001
0000
0000
0001
0000
0100
0000
0001
0000
,
0010
0000
0010
0000
0001
0000
0000
0101
0000
0000
0100
0000
0010
0000
1000
0000
,
0110
0000
0001
1000
0001
0100
1000
0100
,
0001
0010
1000
0010
0001
1000
0100
0010
,
0100
0000
0000
0001
1000
0000
0000
0001
1000
0000
0000
1000
0100
0000
0000
0000
,
1000
0010
0100
0001
1000
0010
0001
0010
,
1000
0001
0010
0100
1000
0001
0010
0001
,
0100
0010
1000
0001
1000
0010
1000
0001
,
1000
0000
0100
0000
0010
0000
0000
0011
0000
0000
0001
0000
1000
0000
0001
0000
,
0100
0000
0010
0000
1000
0000
0000
1010
0000
0000
0010
0000
0001
0000
0100
0000
,
1001
0000
0000
0000
;

//---------------dance-single - Copied from ----------------
#NOTES:
     dance-single:
     Copied from:
     Challenge:
     10:
     0.766,0.922,0.502,0.033,0.272: // measure 1
0000
0000
0000
0000
,  // measure 2
0000
0000
0000
0000
,  // measure 3
0000
0000
0000
0000
,  // measure 4
0000
0000
0000
0000
,  // measure 5
0000
0000
1001
0000
0011
0000
0110
1000
,  // measure 6
1100
0000
0001
1000
0001
0000
0100
0000
,  // measure 7
0001
0010
0100
1000
0010
0100
0001
1000
,  // measure 8
0002
0000
0103
0020
1000
0000
0130
0000
,  // measure 9
0100
0010
1000
0100
0001
0000
0100
0000
,  // measure 10
0010
1000
0001
0100
0000
0001
0010
0000
,  // measure 11
0001
0100
0010
0000
1000
0100
0001
0000
,  // measure 12
0100
0010
1000
0001
0010
0001
0100
0000
,  // measure 13
0010
1000
0001
0100
0001
0010
0001
0100
,  // measure 14
0010
1000
0010
0100
0001
1000
0001
0100
,  // measure 15
0010
1000
0001
0010
0001
0100
0010
0001
,  // measure 16
1000
0001
0100
0020
0000
0000
0000
0030
,  // measure 17
1001
0001
0010
0100
0001
1000
0010
0100
,  // measure 18
0001
0001
1000
0100
0010
0100
0010
0001
,  // measure 19
1000
0001
0100
0010
1000
0001
0001
0100
,  // measure 20
0010
0000
1000
0000
0001
0000
0000
1000
0000
0000
0010
0000
0100
0000
0000
0000
,  // measure 21
0001
1000
0001
1000
0100
0010
0100
0010
,  // measure 22
0001
0100
0010
1000
0001
0100
1000
0100
,  // measure 23
0001
0010
0100
0010
0001
1000
0001
1000
,  // measure 24
0100
0000
0010
0000
0100
0000
0000
1001
0000
0000
0100
0000
0010
0000
0000
0000
,  // measure 25
0001
1000
0100
0010
0001
1000
0001
0100
,  // measure 26
0010
1000
0001
0100
0010
1000
0100
0010
,  // measure 27
0001
1000
0001
0010
0001
0100
0001
1000
,  // measure 28
0001
1000
0100
1000
0010
1000
0001
0100
,  // measure 29
0010
1000
0010
0001
0010
0100
0001
1000
,  // measure 30
0100
1000
0001
0010
0001
0100
0001
0010
,  // measure 31
0100
0010
0001
1000
0010
1000
0010
0100
,  // measure 32
0010
1000
0100
0010
0001
0100
0001
1000
,  // measure 33
1001
0000
1000
0100
0001
0100
1000
0000
,  // measure 34
0110
0000
0001
1000
0001
0000
0010
0000
,  // measure 35
0001
0001
0101
0000
0110
0000
1100
1000
,  // measure 36
1001
0000
0100
0010
0100
0001
1000
0000
,  // measure 37
0100
1000
0010
0100
1001
0000
0100
0001
,  // measure 38
1000
0000
0001
1000
0001
0100
0010
0001
,  // measure 39
0010
0000
0000
1010
0000
0000
1001
0000
0000
0000
0100
0000
0010
0000
0001
0000
,  // measure 40
1000
0000
0000
0110
0000
0000
0101
0000
0000
0000
0001
0000
0010
0000
0100
0000
,  // measure 41
1001
0000
0000
0100
0010
0000
1000
0000
0100
0000
0100
0000
0010
0000
0001
0000
,  // measure 42
1000
0000
0001
0000
0010
0000
0001
0000
1000
0000
0010
0100
0010
0000
0010
0000
,  // measure 43
1000
0000
0001
0100
0001
0000
1000
0000
0010
1000
0010
0000
0100
0000
0100
0000
,  // measure 44
1001
0000
0000
1000
0100
0000
0000
0001
0100
0000
0000
1000
0100
0000
0000
0000
,  // measure 45
0110
0000
0000
0001
1000
0000
0001
0000
0100
0000
0010
0000
1000
0000
0100
0000
,  // measure 46
1000
0010
0100
0010
1000
0001
0100
0001
,  // measure 47
1000
0000
0010
0000
0110
0000
0000
1001
0000
0000
0100
0000
0010
0000
1000
0000
,  // measure 48
0100
0000
0010
0000
1001
0000
0000
0101
0000
0000
0010
0000
0001
0000
0100
0000
,  // measure 49
0110
0000
0000
0010
1000
0000
0100
0000
0010
0000
0001
0000
1000
0000
0001
0000
,  // measure 50
0100
0000
0010
0000
1000
0000
0001
0000
1000
0000
0001
0100
0001
0000
1000
0000
,  // measure 51
0010
0000
0100
0010
0100
0000
1000
0000
0001
1000
0001
0000
0010
0000
0100
0000
,  // measure 52
1001
0000
0000
0010
0001
0000
0000
1000
0100
0000
0000
0100
0010
0000
0000
0000
,  // measure 53
1001
0000
0000
0001
0010
0000
0100
0000
0010
0000
0001
0000
1000
0000
0010
0000
,  // measure 54
0100
0010
1000
0100
1000
0001
0010
0001
,  // measure 55
0100
0000
0010
0000
1010
0000
0000
1001
0000
0000
0100
0000
0010
0000
0100
0000
,  // measure 56
0001
0000
1000
0000
1100
0000
0000
0011
0000
0000
0001
0000
0100
0000
0010
0000
,  // measure 57
1001
0000
1000
0001
1000
0100
0000
0010
0001
0000
0100
0001
0100
0010
0000
1000
,  // measure 58
0100
0000
0011
0000
1001
0000
0110
0000
1001
0000
0100
0000
0001
0100
0000
0000
,  // measure 59
1001
0000
0010
0001
0100
0010
1000
0000
0001
0000
0100
0000
0001
0010
0000
0100
,  // measure 60
1000
0000
0001
0000
1000
0001
1000
0000
0120
0000
0100
0000
1000
0000
0130
0000
,  // measure 61
1001
0100
1000
0001
0000
0000
1000
0010
0001
0000
0100
0000
0001
1000
0001
0000
,  // measure 62
0110
0000
1000
0001
1000
0100
0010
0000
0001
1000
0100
0010
0001
0000
1000
0000
,  // measure 63
0100
0110
0001
1001
0100
0011
0100
1010
,  // measure 64
0100
0000
0011
0000
0100
0000
1001
0000
1000
0100
1000
0100
0010
0100
0010
0100
,  // measure 65
1001
0000
0000
0100
0010
0000
0001
0000
1000
0000
0001
0000
0100
0000
0010
0000
,  // measure 66
1000
0001
0010
0001
0100
0010
0100
0001
,  // measure 67
1000
0000
0100
1000
0100
0000
0010
0000
0001
0100
0001
0000
0010
0000
0001
0000
,  // measure 68
1001
0000
0000
0001
0100
0000
0000
1000
0100
0000
0000
0010
0100
0000
0000
0000
,  // measure 69
0110
0000
0000
0010
1000
0000
0001
0000
0100
0000
1000
0000
0100
0000
0010
0000
,  // measure 70
1000
0100
0010
0001
1000
0001
0100
0010
,  // measure 71
1000
0000
1000
0000
1001
0000
0000
0110
0000
0000
1000
0000
0001
0000
0010
0000
,  // measure 72
0001
0000
0001
0000
0101
0000
0000
0110
0000
0000
0010
0000
0010
0000
1000
0000
,  // measure 73
1001
0000
0000
1000
0001
0000
0100
0000
0010
0000
1000
0000
0100
0000
0010
0000
,  // measure 74
0001
0100
0001
0010
0001
1000
1000
0100
,  // measure 75
0010
0000
0001
1000
0001
0000
1000
0000
0010
1000
0010
0000
0100
0000
0010
0000
,  // measure 76
1001
0000
0000
0100
0010
0000
0000
0100
0010
0000
0000
0010
1000
0000
0000
0000
,  // measure 77
1001
0000
0000
0001
1000
0000
0100
0000
1000
0000
0001
0000
0010
0000
0001
0000
,  // measure 78
0100
0100
0010
1000
0100
0010
0001
0100
,  // measure 79
0001
0000
0010
0000
0011
0000
0000
1001
0000
0000
0100
0000
0100
0000
0010
0000
,  // measure 80
0010
0000
1000
0000
1100
0000
0000
1001
0000
0000
0100
0000
0010
0000
1000
0000
,  // measure 81
1001
0000
0000
0000
;
