#TITLE:Days;
#SUBTITLE:;
#ARTIST:大浦祐一;
#TITLETRANSLIT:;
#SUBTITLETRANSLIT:;
#ARTISTTRANSLIT:Yuichi Oura;
#GENRE:;
#CREDIT:;
#MENUCOLOR:;
#NEWMETERSYSTEM:NO;
#BANNER:Days-bn.png;
#BACKGROUND:Days-bg.png;
#LYRICSPATH:;
#CDTITLE:MixMania 4 CD Title.png;
#MUSIC:Days.mp3;
#OFFSET:-1.120;
#SAMPLESTART:52.480;
#SAMPLELENGTH:12.000;
#SELECTABLE:YES;
#LISTSORT:;
#BPMS:0.000=153.000;
#STOPS:;
#BGCHANGES:;
#ATTACKS:;

//---------------dance-single - ----------------
#NOTES:
     dance-single:
     :
     Easy:
     3:
     0.243,0.341,0.049,0.176,0.000:
0000
0000
0000
0000
,
0000
0000
0000
0000
,
0000
0000
0000
0000
,
0000
0000
1000
1000
,
0100
0010
0000
0001
,
0100
0001
1000
0100
,
0010
0100
0000
0010
,
0001
0100
0020
0000
,
0130
0000
0100
0010
,
1000
0000
1000
0100
,
0010
0000
0010
0001
,
0010
0000
0100
1000
,
0001
0000
0100
0001
,
1000
0000
0010
0100
,
0001
0000
0001
0000
,
1000
0000
2002
3003
,
0100
1000
0100
0000
,
0010
0001
0100
0000
,
0010
1000
0001
0000
,
0100
0001
0010
0000
,
0100
1000
0001
0000
,
0010
0001
1000
0000
,
0100
0000
0010
0000
,
0100
0010
0100
1000
,
0001
0100
0000
0100
,
0000
0001
0010
0100
,
2000
0001
0000
3001
,
0002
1000
0000
1003
,
0001
0010
0000
1000
,
0000
1000
0100
0010
,
0002
0100
0000
0103
,
0020
1000
0000
1030
,
0200
0320
0032
1003
,
0110
0000
0001
1000
,
0100
0000
1000
0001
,
0010
0000
0001
0010
,
0200
0000
1300
0000
,
1000
0000
0100
0000
,
0010
0000
0001
0000
,
0000
0001
0010
0100
,
0000
1000
0100
0010
,
0002
0000
2003
0000
,
3100
0000
0100
0100
,
1001
0000
1000
0001
,
0100
0000
0010
1000
,
0100
0000
0010
0001
,
0020
0000
0130
0000
,
0010
0000
0001
0000
,
1000
0000
0100
0000
,
0000
1000
0010
0100
,
0000
0001
0100
0010
,
0200
0000
0302
0000
,
1003
1000
0100
0000
,
1001
0000
0100
0000
,
0010
0000
0100
0100
,
0010
0000
1000
0000
,
0100
0000
0010
0000
0000
0000
0000
0220
,
0000
0000
0000
0000
,
0330
0000
0000
0000
;

//---------------dance-single - Copied from----------------
#NOTES:
     dance-single:
     Copied from:
     Beginner:
     1:
     0.101,0.170,0.039,0.010,0.000:
0000
0000
0000
0000
,
0000
0000
0000
0000
,
0000
0000
0000
0000
,
0000
0000
0000
0000
,
0100
0000
0000
0000
,
0000
0000
0000
0000
,
0001
0000
0000
0000
,
1000
0000
0100
0000
,
1000
0000
0000
0000
,
0001
0000
0000
0000
,
0010
0000
0000
0000
,
0100
0000
0000
0000
,
0010
0000
0000
0000
,
0001
0000
0000
0000
,
1000
0000
1000
0000
,
0001
0000
0000
0000
,
0010
0000
0000
0000
,
1000
0000
0000
0000
,
0001
0000
0000
0000
,
1000
0000
0000
0000
,
0100
0000
0000
0000
,
0010
0000
0000
0000
,
0100
0000
0000
0000
,
0010
0000
0000
0000
,
0000
1000
0000
0001
,
0000
0000
0100
0100
,
0100
0000
0000
0000
,
0010
0000
0000
0000
,
0000
1000
0000
0001
,
0000
0000
1000
1000
,
1000
0000
0000
0000
,
0001
0000
0000
0000
,
0100
0000
0010
0000
,
0110
0000
0000
0000
,
1001
0000
0000
0000
,
1000
0000
0000
0000
,
0001
0000
0000
0000
,
0100
0000
0000
0000
,
0001
0000
0000
0000
,
0000
0010
0010
0000
,
0000
1000
1000
0000
,
0100
0000
0000
0000
,
1000
0000
0000
0000
,
1001
0000
0000
0000
,
0110
0000
0000
0000
,
0001
0000
0000
0000
,
0010
0000
0000
0000
,
0100
0000
0000
0000
,
1000
0000
0000
0000
,
0000
0010
0010
0000
,
0000
0100
0100
0000
,
0001
0000
0000
0000
,
0010
0000
0000
0000
,
0000
0100
0000
0100
,
0000
0100
0000
0100
,
0000
0010
0000
0010
,
0000
0000
0010
0000
0000
0000
0000
0002
,
0000
0000
0000
0003
;

//---------------dance-single - Copied from----------------
#NOTES:
     dance-single:
     Copied from:
     Medium:
     5:
     0.350,0.369,0.167,0.049,0.010:
0000
0000
0000
0000
,
0000
0000
0000
0000
,
0000
0000
0000
0000
,
0000
0000
0000
0000
0010
0010
0010
0000
,
1001
0000
0100
0000
0001
0000
1000
0100
,
0000
1000
0001
0100
0000
0000
0010
0000
,
0001
0000
0100
0000
0001
0000
0001
1000
,
0000
0100
1000
0000
1000
0000
0010
0000
,
0001
0000
0000
0010
0100
0000
0000
0100
,
1000
0000
0000
0001
0010
0000
0000
0000
,
0010
0000
0000
0100
0001
0000
0000
1000
,
0100
0000
0000
0010
0100
0000
0000
0000
,
0010
0000
0000
0001
1000
0000
0000
1000
,
0001
0000
0000
0010
0001
0000
0000
0000
,
0100
0000
0001
0000
,
1000
0000
0010
0000
0100
0010
0100
0000
,
1001
0000
0000
0100
0001
0000
0000
1000
,
0010
0000
0000
0100
1000
0000
0001
0000
,
0010
0000
0000
0001
0100
0000
0000
0010
,
1000
0000
0000
0010
0001
0000
0010
0000
,
0001
0000
0000
0100
0010
0000
0000
1000
,
0100
0000
0000
0100
1000
0000
0100
0000
,
1000
0010
0100
0001
,
0010
0100
0010
0001
,
1000
0200
1000
0310
,
0100
0010
1001
0100
,
1001
0010
0001
0100
,
1000
0010
0001
0100
,
1000
0020
0001
0130
,
0001
1000
0011
1000
,
0120
1000
0100
1030
,
0110
0000
0001
1000
0000
0100
0000
0010
,
0100
0000
1000
0100
0010
0000
1001
0000
,
0100
0000
0001
1000
0000
0110
0000
0000
,
1000
0000
0000
0100
0000
0000
0010
0000
0000
0000
1001
0000
0000
0000
0000
0000
,
0001
0000
0001
1000
0000
0001
0000
0011
,
0000
0011
0000
0000
0010
0100
1000
0000
,
0100
0000
0010
0100
0010
0000
0001
0000
,
0100
1000
0010
0001
,
1000
0000
0100
0010
0001
0000
1000
0000
,
1000
0000
0100
0010
0001
0000
1000
0000
,
0001
0000
1000
0010
1000
0000
0001
0000
,
0100
0000
0010
1000
0001
0000
0010
0000
,
0100
0000
0010
0001
0000
1001
0000
0000
,
0010
0000
0000
0100
0000
0000
1000
0000
0000
0000
1001
0000
0000
0000
0000
0000
,
1000
0000
0001
0010
0000
0100
0000
1100
,
0000
1100
0000
0000
1000
0010
0100
0000
,
0010
0100
0001
1000
,
0001
0010
0100
0000
0010
0001
1000
0000
,
0001
0000
0010
0000
0100
1000
0010
0000
,
0001
0000
0010
0000
0100
1000
0010
0000
,
0100
0000
0010
0000
1000
0000
0001
1000
,
0100
0000
0010
0001
1000
0000
0010
0000
,
0100
0000
0000
0001
0100
0000
0000
1000
,
0100
0000
0000
0010
1000
0000
0100
0000
,
0010
0000
0000
1000
0010
0000
0000
0001
,
0010
0000
1000
0000
0001
0000
0000
2020
,
0000
0000
0000
0000
,
3030
0000
0000
0000
;

//---------------dance-single - Copied from----------------
#NOTES:
     dance-single:
     Copied from:
     Hard:
     7:
     0.466,0.426,0.176,0.362,0.010:
0000
0000
0000
0000
,
0000
0000
0000
0000
,
0000
0000
0000
0000
,
0000
0000
0000
0000
0001
0010
0200
0000
,
1300
0000
0001
0000
0100
0001
1000
0100
,
0000
1000
0010
0100
0000
0001
1000
0000
,
0001
0000
0010
0000
0001
0100
0010
1000
,
0000
1000
0100
0000
1100
0000
0011
0000
,
0101
0000
0001
1000
0100
0000
0010
0001
,
1000
0000
0100
1000
0100
0010
0001
0000
,
0100
0000
0001
0010
0001
0000
1000
0100
,
1000
0000
0010
0100
0001
1000
0100
0000
,
0010
0000
0100
0010
0001
0000
1000
0100
,
0010
0000
0001
0010
0100
1000
0001
0000
,
0100
0100
0010
0010
,
1000
0001
1000
0000
0101
0000
0101
0000
,
1100
0000
1000
0010
0100
0000
0001
1000
,
0010
0000
0100
0001
0010
0100
0100
0000
,
1000
0000
0001
0100
0010
0000
1000
0001
,
0100
0000
0010
0001
1000
0010
0010
0000
,
1000
0000
0010
0001
0100
0000
0010
1000
,
0100
0000
1000
0100
0010
0001
0001
0000
,
0100
0001
1000
0000
0010
1000
0001
0000
,
0100
0001
0010
0100
1000
0001
0010
0100
,
1000
0000
1100
0000
1000
0001
0101
0000
,
0010
0200
0302
2003
,
3200
0010
1000
0310
,
0010
1000
0000
0001
0000
1000
0000
1000
,
0001
0000
0011
0000
0100
1000
1100
0000
,
0010
0200
0302
2003
,
3020
0100
1000
0130
,
0010
0100
0000
0001
0000
0010
0000
0100
,
1000
0000
1000
0100
0010
0000
1001
0000
,
1001
0000
0001
2000
0000
3200
0000
0300
,
0110
0000
0000
0010
0000
0000
0002
0000
0000
0000
2003
0000
0000
0000
3001
0000
,
0100
0001
0000
1000
0000
0010
0000
0100
,
0000
0001
0100
0000
0010
1000
0100
0000
,
0110
1000
0001
1000
,
0010
0100
0001
1000
0100
0000
1000
0010
,
0100
0002
0023
0230
,
1300
0002
0023
0230
,
1300
0000
0100
0001
0100
0000
1000
0010
,
1000
0000
0001
0100
0001
0010
0100
0000
,
0110
0000
0001
2000
0000
3002
0000
0003
,
0101
0000
0000
0001
0000
0000
2000
0000
0000
0000
3200
0000
0000
0000
1300
0000
,
0001
0010
0000
0001
0000
0001
0000
1000
,
0000
0010
0100
0000
0001
0010
0100
0000
,
1001
0100
0010
0001
,
1000
0100
0010
0000
0100
0010
0001
0000
,
0001
2000
3200
0320
,
0031
2000
3200
0320
,
0031
0000
1000
0100
1000
0000
0001
0100
,
0001
0000
0010
0100
0010
0001
1000
0000
,
0002
0000
0000
1003
0200
0000
0000
0310
,
0200
0000
0000
1300
0020
0000
0100
0030
,
2000
0000
0000
3100
0020
0000
0000
0130
,
1000
0001
0100
0000
0001
1000
0010
2002
,
0000
0000
0000
0000
,
3003
0000
0000
0000
;

//---------------dance-single - Copied from ----------------
#NOTES:
     dance-single:
     Copied from:
     Challenge:
     7:
     0.519,0.483,0.167,0.333,0.010: // measure 1
0000
0000
0000
0000
,  // measure 2
0000
0000
0000
0000
,  // measure 3
0000
0000
0000
0000
,  // measure 4
0000
0000
0000
0000
0010
0100
0001
0000
,  // measure 5
0101
0000
1100
0000
0010
0100
0001
1000
,  // measure 6
0000
0100
0010
0001
0000
1000
0001
0100
,  // measure 7
0001
0010
0100
0000
0100
1000
0010
0200
,  // measure 8
0000
0301
0010
0100
0010
0100
0010
0001
,  // measure 9
1001
0000
0001
0100
0010
0000
1000
0100
,  // measure 10
0010
0000
0010
0001
0100
0001
1000
0100
,  // measure 11
1000
0000
0100
0010
1000
0000
0100
0010
,  // measure 12
0001
0000
0100
1000
0010
0100
0010
1000
,  // measure 13
0001
0000
0100
0010
0100
0000
0010
0001
,  // measure 14
0010
0000
1000
0100
1000
0010
0100
0001
,  // measure 15
0010
0000
0001
0000
0001
0000
0001
0010
,  // measure 16
0100
0000
0100
0000
1000
0010
0001
0010
,  // measure 17
0110
0000
0010
1000
0100
0000
1000
0010
,  // measure 18
0100
0000
0010
0001
0100
0001
1000
0001
,  // measure 19
0100
0000
0100
0010
1000
0000
1000
0100
,  // measure 20
0010
0000
0010
1000
0010
0001
1000
0100
,  // measure 21
0010
0000
0010
0001
1000
0000
0100
0010
,  // measure 22
1000
0000
0100
0010
0001
0000
1000
0100
,  // measure 23
0020
0230
2300
3002
,  // measure 24
0103
0010
0100
0010
1000
0001
1000
0001
,  // measure 25
0100
0000
0101
0000
0001
0010
0100
0000
,  // measure 26
1000
0100
0020
0000
2030
0000
3002
0000
,  // measure 27
0103
0000
0110
0000
0010
1000
0001
0000
,  // measure 28
0100
0000
0110
0000
0010
0001
1000
0100
,  // measure 29
0010
0000
0001
0000
0100
1000
0010
0100
,  // measure 30
0001
0020
0032
2003
,  // measure 31
3100
0000
0010
0100
1000
0010
0100
0001
,  // measure 32
0100
0000
0100
1000
0010
0100
0001
0010
,  // measure 33
0002
0000
0103
0010
2000
0000
3100
0000
,  // measure 34
1100
0000
0001
0100
1000
0100
0001
0010
,  // measure 35
0100
0000
0000
1000
0000
0000
0100
0000
0000
0000
0010
0000
0000
0000
0001
0000
,  // measure 36
1000
0001
0100
0010
0000
0010
1000
0001
,  // measure 37
0000
0101
0000
0000
1000
0000
0010
0000
,  // measure 38
0100
0000
0001
1000
0001
0010
1000
0010
,  // measure 39
0100
1000
0010
0100
0000
0001
0000
0010
,  // measure 40
0001
0100
0002
0000
2003
0000
3002
0000
,  // measure 41
0103
0001
0200
0000
0320
0000
0230
0000
,  // measure 42
0301
0101
1000
1100
,  // measure 43
0010
0100
0001
0100
1000
0100
0010
0100
,  // measure 44
1001
0000
1000
0100
0010
0001
0100
0001
,  // measure 45
1000
0000
0000
0100
0000
0000
0010
0000
0000
0000
0001
0000
0100
0000
1000
0000
,  // measure 46
0100
0010
0100
0001
0000
1001
0000
1100
,  // measure 47
0000
1000
0100
0000
0010
0001
0100
0010
,  // measure 48
0001
0000
1000
0001
1000
0000
0010
1000
,  // measure 49
0100
0001
0100
1000
0010
1000
0001
0100
,  // measure 50
1000
0200
0302
0023
,  // measure 51
0130
2000
3200
2300
,  // measure 52
3001
0101
1000
1100
,  // measure 53
0010
0100
0010
0100
0001
1000
0001
1000
,  // measure 54
0200
0000
1300
0010
2000
0000
3010
0100
,  // measure 55
0002
0000
0013
0001
0200
0010
0310
0000
,  // measure 56
0002
0000
1003
0100
0020
0000
0130
0001
,  // measure 57
2000
0000
3100
0010
0100
1000
0001
0202
,  // measure 58
0000
0000
0000
0000
,  // measure 59
0303
0000
0000
0000
;
