#TITLE:L'erisia (Primary Logic);
#SUBTITLE:;
#ARTIST:Zektbach;
#TITLETRANSLIT:;
#SUBTITLETRANSLIT:;
#ARTISTTRANSLIT:;
#GENRE:;
#CREDIT:;
#MENUCOLOR:;
#NEWMETERSYSTEM:NO;
#BANNER:L'erisia (Primary Logic)-bn.png;
#BACKGROUND:L'erisia (Primary Logic)-bg.png;
#LYRICSPATH:;
#CDTITLE:MixMania III CD Title.png;
#MUSIC:L'erisia (Primary Logic) Akakiteka.mp3;
#OFFSET:0.980;
#SAMPLESTART:76.940;
#SAMPLELENGTH:12.000;
#SELECTABLE:YES;
#LISTSORT:;
#BPMS:0.000=117.000,28.000=234.000,124.000=58.500,138.000=117.000,154.000=234.000,378.000=58.500;
#STOPS:;
#BGCHANGES:;
#ATTACKS:;

//---------------dance-single - ----------------
#NOTES:
     dance-single:
     :
     Easy:
     5:
     0.277,0.389,0.016,0.098,0.000:
0000
0000
0000
0000
,
0000
0000
0000
0000
,
0000
1000
0000
0100
0000
0100
0000
0000
,
0000
0000
0000
0001
,
0001
1000
0000
0000
,
0000
0000
0000
0010
0000
0010
0000
0100
,
0000
0000
0000
0000
,
1000
1000
0000
0100
,
0100
0010
0000
0010
,
0001
0001
0000
0100
,
0001
0100
0000
0010
,
1000
0100
0000
0010
,
0001
1000
0000
0010
,
1000
0010
0000
0100
,
0001
0100
0000
0001
,
0001
0000
1000
0000
,
0001
0000
0100
0000
,
0010
0000
1000
0000
,
0100
0000
0010
0001
,
1000
0000
0010
0000
,
0100
0000
0010
0000
,
0010
0000
0001
0000
,
0100
0000
0010
1000
,
0100
0000
0100
0000
,
1000
0000
0001
0000
,
0100
0000
0001
0000
,
0010
0000
0001
0010
,
0100
0000
0100
0000
,
1000
0000
0010
0000
,
0100
0000
0100
0000
,
0001
0000
0010
0001
,
1000
0000
0100
0000
,
0100
0001
0100
1000
,
0110
0020
0100
0100
,
0100
0230
0310
0001
,
0001
0000
0100
0010
,
1000
0000
1000
0000
,
1000
0001
0100
1000
,
0100
0000
0100
0100
,
0000
0010
0010
1000
,
0000
1000
1000
0100
,
0000
0100
0100
0001
,
0000
0001
0001
1000
,
0000
0010
0010
0100
,
0000
0100
0100
0010
,
0000
1000
1000
0001
,
0000
0100
0100
0001
,
0000
0001
0001
0010
,
0000
0001
0001
1000
,
0000
0010
0010
1000
,
0000
1000
1000
0100
,
0000
0010
0010
0100
,
0000
0010
0010
1000
,
0000
0001
0001
0100
,
0000
0000
0001
0000
,
0001
0000
1000
0000
,
1000
0000
0010
0000
,
0010
0000
0100
0000
,
0001
0100
0001
0000
,
0010
0000
0001
0000
,
0001
0000
1000
0000
,
1000
0000
0100
0000
,
0100
0010
0100
0000
,
0100
0000
1000
0000
,
0100
0010
0001
0000
,
0100
0000
0001
0000
,
1000
0010
1000
0000
,
0001
0000
1000
0000
,
0001
0010
0001
0000
,
0100
0000
0010
0000
,
1000
0000
0200
0000
,
0000
0000
2300
0000
,
0000
0000
3020
0000
,
0000
0000
0230
0000
,
0010
0000
0320
0000
,
0000
0000
2030
0000
,
0000
0000
3002
0000
,
0000
0000
0023
0000
,
0001
0000
0031
0000
,
0001
0000
1000
0000
,
0010
0000
1000
0000
,
0100
0000
1000
0000
,
0010
0010
1000
0000
,
0100
0000
0010
0000
,
0001
0000
1000
0000
,
0001
0000
0010
0000
,
0001
0001
0100
0000
,
0010
0000
1000
0000
,
0001
0000
0001
0000
,
1000
0000
1000
0000
,
0010
1000
0010
0000
,
0100
0000
0010
0000
,
1000
0000
1000
0000
,
0001
0000
0100
0000
,
0010
0000
0220
0000
,
0330
0000
0000
0000
;

//---------------dance-single - Copied from----------------
#NOTES:
     dance-single:
     Copied from:
     Beginner:
     2:
     0.096,0.194,0.090,0.025,0.000:
0000
0000
0000
0000
,
0000
0000
0000
0000
,
0000
0010
0000
0010
0000
0010
0000
0000
,
0000
0000
0000
0100
,
0100
0100
0000
0000
,
0000
0000
0000
0001
0000
0001
0000
0001
,
0000
0000
0000
0000
,
1001
0000
0000
0000
,
0000
0000
0000
0000
,
0000
0000
0000
0000
,
0000
0000
0000
0000
,
0020
0000
0000
0000
,
0030
0000
0000
0000
,
0100
0000
0000
0000
,
0100
0000
0000
0000
,
1000
0000
0000
0000
,
1000
0000
0000
0000
,
1000
0000
0000
0000
,
1000
0000
0000
0000
,
0001
0000
0000
0000
,
0001
0000
0000
0000
,
0001
0000
0000
0000
,
0001
0000
0000
0000
,
0100
0000
0000
0000
,
0100
0000
0000
0000
,
0100
0000
0000
0000
,
0100
0000
0000
0000
,
0010
0000
0000
0000
,
0010
0000
0000
0000
,
0010
0000
0000
0000
,
0010
0000
0000
0000
,
0010
0000
0000
0000
,
1000
0000
0000
0000
,
0000
0001
0000
0000
,
0000
0000
1001
0000
,
0000
0000
0100
0000
,
0000
0000
0100
0000
,
0000
0000
1000
0000
,
0000
0000
0001
0000
,
0000
0000
0000
0000
,
0000
0000
0001
0000
,
0000
0000
0000
0000
,
0000
0000
0100
0000
,
0000
0000
0000
0000
,
0000
0000
0010
0000
,
0000
0000
0000
0000
,
0000
0000
0010
0000
,
0000
0000
0000
0000
,
0000
0000
1000
0000
,
0000
0000
0000
0000
,
0000
0000
0100
0000
,
0000
0000
0000
0000
,
0000
0000
0100
0000
,
0000
0000
0100
0000
,
0000
0000
0100
0000
,
0000
0000
0000
0000
,
0000
0000
0010
0000
,
0000
0000
0000
0000
,
0000
0000
0001
0000
,
0000
0000
0000
0000
,
0000
0000
0001
0000
,
0000
0000
0000
0000
,
0000
0000
0020
0000
,
0000
0000
0000
0000
,
0000
0000
0000
0000
,
0000
0000
0030
0000
,
0000
0000
0200
0000
,
0000
0000
0000
0000
,
0000
0000
0000
0000
,
0000
0000
0300
0000
,
0000
0000
0100
0000
,
0000
0000
0100
0000
,
0000
0000
0100
0000
,
0000
0000
0100
0000
,
0000
0000
0001
0000
,
0000
0000
0001
0000
,
0000
0000
0001
0000
,
0000
0000
0001
0000
,
0000
0000
1001
0000
,
0000
0000
0000
0000
,
0000
0000
1001
0000
,
0000
0000
0000
0000
,
0000
0000
1001
0000
,
0000
0000
0000
0000
,
0000
0000
1001
0000
,
0000
0000
0000
0000
,
0000
0000
0110
0000
,
0000
0000
0000
0000
,
0000
0000
1001
0000
,
0000
0000
0000
0000
,
0000
0000
0110
0000
,
0000
0000
0000
0000
,
0000
0000
1001
0000
,
0000
0000
0000
0000
,
0000
0000
1001
0000
;

//---------------dance-single - Copied from----------------
#NOTES:
     dance-single:
     Copied from:
     Medium:
     7:
     0.427,0.429,0.049,0.049,0.016:
0000
0000
0000
0000
,
0000
0000
0000
0000
,
0000
1000
0001
1000
0000
1000
1000
0000
,
0000
0100
0000
0010
0000
0001
0001
0010
,
0001
0000
0001
0100
0000
0000
0100
0000
,
0010
0000
1000
0100
0100
0010
0000
0001
,
0100
0000
0001
1000
0000
0001
1000
0001
,
0010
0000
0010
0010
,
0001
0001
0000
0001
,
0100
0001
0000
1000
,
0010
1000
0000
0000
,
1000
0100
0010
0001
,
1000
0100
0010
0001
,
0001
0000
1000
0000
,
0001
1000
0001
0000
,
0001
0000
0001
0000
0000
0001
0000
0000
,
0100
0000
0100
0000
0000
0100
0000
0000
,
0010
0000
0010
0000
0000
0010
0000
0000
,
1000
0000
1000
0000
0000
1000
0000
0000
,
0001
0000
1000
0000
0000
0001
0000
0000
,
1000
0000
0010
0000
0000
1000
0000
0000
,
0100
0000
1000
0000
0000
0100
0000
0000
,
1000
0000
0001
0000
0000
1000
0000
0000
,
0010
0000
0010
0000
0000
0010
0000
0000
,
0100
0000
0100
0000
0000
0100
0000
0000
,
0001
0000
0001
0000
0000
0001
0000
0000
,
1000
0000
1000
0000
0000
1000
0000
0000
,
0010
0000
1000
0000
0000
0010
0000
0000
,
0100
0000
0001
0000
0000
0100
0000
0000
,
0001
0000
0010
0000
0000
0001
0000
0000
,
1000
0000
0100
0000
0000
1000
0000
0000
,
1100
1000
0000
0100
0000
0010
0000
0001
,
0010
0001
0000
0100
0000
0010
0000
0100
,
0000
0010
1000
0001
0000
0100
0000
0010
,
0000
0000
1000
0000
0000
0000
0001
0000
0010
0000
0001
0000
0000
0010
0000
0000
,
0010
0000
0000
0000
0100
0000
0000
0000
0100
0000
0010
0000
0000
1000
0000
0000
,
0001
0000
0000
0000
0100
0000
0000
0000
0010
0000
0001
0000
0000
1000
0000
0000
,
0001
0000
0000
0000
0010
0000
0000
0000
1000
0000
0100
0000
0000
0010
0000
0000
,
0001
0100
0010
1000
,
0100
0010
0001
1000
,
0001
0100
0010
0001
,
0010
0100
1000
0100
,
0010
0001
1000
0001
,
1000
0010
1000
0100
,
1000
0100
0001
1000
,
0001
0100
0001
0010
,
0001
1000
2000
3001
,
0000
0011
0000
0000
0002
0000
1003
0000
,
0000
1100
0000
0000
0020
0000
1030
0000
,
0000
0101
0000
0000
0200
0000
0301
0000
,
0000
1010
0000
0000
0001
0000
1000
0000
,
0001
1000
0010
1000
,
0010
1000
0100
1000
,
0001
0100
0010
0100
,
0001
1000
0100
0100
,
0000
1000
0000
0000
0100
0000
0010
0000
,
0000
0001
0000
0000
1000
0000
0001
0000
,
0000
0100
0000
0000
0010
0000
1000
0000
,
0000
0001
0000
0000
0001
0000
0010
0000
,
0000
0001
0000
0000
0100
0000
0010
0000
,
0000
1000
0000
0000
0001
0000
1000
0000
,
0000
0100
0000
0000
0010
0000
0001
0000
,
0000
1000
0000
0000
0001
0000
0010
0000
,
0100
1000
0001
0010
,
0100
1000
0010
1000
,
0100
1000
0001
0100
,
0001
0001
1000
0100
,
0010
0001
1000
0100
,
0010
0001
1000
1000
,
0010
0100
0001
1000
,
0001
0100
0001
0010
,
0100
1000
0001
0010
,
0100
1000
0010
0100
,
0001
0001
1000
0001
,
0100
0010
1000
0100
,
0010
0001
1000
0100
,
0010
0001
1000
1000
,
1000
1000
0100
0100
,
0100
0100
1000
0001
,
0000
0100
0001
0000
0010
0000
0001
0000
,
0000
0001
0100
0000
0010
0000
1000
0000
,
0000
0100
1000
0000
0010
0000
0100
0000
,
0000
0001
0010
0000
0100
0000
1000
0000
,
0000
0010
0100
0000
0001
0000
1000
0000
,
0000
0100
0010
0000
0100
0000
0010
0000
,
0000
0001
1000
0000
0010
0000
1000
0000
,
0000
0001
0100
0000
0010
0000
1000
0000
,
0100
0010
0001
1000
,
0001
1000
0001
0000
0010
0000
0001
0000
,
0100
0010
1000
0100
,
1000
0001
1000
0000
0100
0000
0010
0000
,
0001
1000
0001
1000
,
0010
0000
1000
0000
0100
1000
0100
0000
,
0100
0000
0100
0000
0010
0001
0010
0000
,
0001
0100
0001
0000
2002
0000
0000
0000
,
0000
3003
0000
0000
;

//---------------dance-single - Copied from----------------
#NOTES:
     dance-single:
     Copied from:
     Hard:
     10:
     0.774,1.000,0.713,0.197,0.090: // measure 1
0000
0000
0000
0000
,  // measure 2
0000
0000
0000
0000
,  // measure 3
0000
0000
0001
1000
0001
0000
0100
0000
0001
1000
0001
0000
0100
0000
0000
0000
,  // measure 4
0001
0000
0100
0000
0000
0000
0010
0000
1000
0000
0100
0000
1000
0100
1000
0000
,  // measure 5
0010
0000
1000
0100
1000
0000
0010
0000
0000
0000
1000
0000
0001
0000
0000
0000
,  // measure 6
1000
0000
0100
0000
0010
0000
0001
0010
0001
0000
0100
0000
0001
0010
0001
0000
,  // measure 7
0100
0000
0010
0100
0000
0010
1000
0100
,  // measure 8
0010
0000
0010
0000
0001
0100
0001
0000
,  // measure 9
0010
0000
1000
0000
0100
1000
0010
0000
,  // measure 10
1000
0000
0100
0000
0010
0001
1000
0000
,  // measure 11
0001
0000
0100
0000
0010
1000
0100
0000
,  // measure 12
0010
0001
1000
0000
0010
1000
0001
0000
,  // measure 13
1000
0001
0100
0000
0001
0100
0001
0000
,  // measure 14
0100
0010
1000
0100
,  // measure 15
0010
0001
1000
0100
1000
0001
0010
0000
,  // measure 16
0110
0000
1010
0000
0000
0101
0000
0000
,  // measure 17
0011
0000
1001
0000
0000
0011
0000
0000
,  // measure 18
0101
0000
1001
0000
0000
1100
0000
0000
,  // measure 19
1010
0000
0101
0000
0000
1001
0000
0000
,  // measure 20
0110
0000
0011
0000
0000
1100
0000
0000
,  // measure 21
1010
0000
0011
0000
0000
1010
0000
0000
,  // measure 22
1100
0000
1010
0000
0000
0011
0000
0000
,  // measure 23
1001
0000
0101
0000
0000
1010
0000
0000
,  // measure 24
1001
0000
1001
0000
0100
0010
0001
0000
,  // measure 25
0101
0000
1010
0000
0001
1000
0100
0000
,  // measure 26
0110
0000
0011
0000
0001
1000
0001
0000
,  // measure 27
1001
0000
1010
0000
1000
0100
0010
0001
,  // measure 28
0110
0000
1100
0000
0100
0010
0001
0000
,  // measure 29
0101
0000
1010
0000
0010
1000
0001
0000
,  // measure 30
1001
0000
0110
0000
0001
1000
0010
0000
,  // measure 31
1100
0000
0011
0000
0100
0010
0001
1000
,  // measure 32
0110
0000
0101
0000
1000
0100
0010
0000
0001
0000
0100
0000
0001
0010
0001
0100
,  // measure 33
0110
0000
1010
0000
1000
1100
1000
0000
0100
0010
0001
1000
0001
0100
0010
0010
,  // measure 34
0100
0100
1100
0110
0010
0010
0010
0010
,  // measure 35
0010
0000
0010
0000
0010
0000
0010
0000
1001
0000
1000
0000
0000
0001
0000
0000
,  // measure 36
1000
0000
0100
0010
0001
0000
0100
0000
0001
0000
1000
0000
0000
0010
0000
0000
,  // measure 37
1000
0000
0100
1000
0010
0000
0100
0000
0010
0000
0100
0000
0000
0001
0000
0000
,  // measure 38
0001
0000
0100
0001
0010
0000
0001
0000
1000
0000
0010
0000
0000
0010
0000
0000
,  // measure 39
0010
0000
1000
0100
1000
0000
0100
0000
0010
0000
0001
0000
0010
0000
0001
0000
,  // measure 40
1000
0010
1000
0100
0010
0001
1000
0001
,  // measure 41
0100
0010
1000
0000
0100
0001
1000
0100
,  // measure 42
0010
0001
1000
0001
1000
0010
0100
0010
,  // measure 43
1000
0100
0010
0000
0001
1000
0001
0000
,  // measure 44
0001
0010
0001
0000
1000
0001
1000
0000
,  // measure 45
1000
0100
1000
0000
1000
0100
0010
0001
,  // measure 46
1000
0100
0010
0000
0001
0010
0100
1000
,  // measure 47
0001
0010
0100
0000
1000
0001
1000
0000
,  // measure 48
0001
2000
0000
3000
0001
0010
0001
0000
,  // measure 49
0001
0200
0000
0300
0010
1000
0010
0000
,  // measure 50
0100
0020
0000
0030
0010
0001
1000
0000
,  // measure 51
1000
0002
0000
0003
0010
0001
1000
0000
,  // measure 52
0010
0100
0001
0000
0010
0001
0010
0000
,  // measure 53
0100
1000
0001
0000
0101
0000
0101
0000
,  // measure 54
0101
0101
0011
0011
,  // measure 55
0011
0000
0011
0000
1001
0000
1000
0100
,  // measure 56
0010
0002
0000
0003
1001
0000
0010
0100
,  // measure 57
0010
2000
0000
3000
1100
0000
0010
0100
,  // measure 58
0001
2000
0000
3000
0101
0000
0001
1000
,  // measure 59
0010
0200
0000
0300
1100
0000
0010
0001
,  // measure 60
1000
0020
0000
0030
1001
0000
0001
1000
,  // measure 61
0001
2000
0000
3000
0101
0000
1000
0100
,  // measure 62
0010
0002
0000
0003
1001
0000
1000
0001
,  // measure 63
1000
0200
0000
0300
1000
0001
0010
0100
,  // measure 64
0010
0000
0010
0000
0010
0100
0001
0100
,  // measure 65
0001
0000
0001
0000
0001
1000
0010
1000
,  // measure 66
0100
0000
0100
0000
0100
1000
0010
0100
,  // measure 67
0010
0000
0010
0000
0010
0001
0010
0001
,  // measure 68
1000
0000
1000
0000
1000
0100
0010
0001
,  // measure 69
0100
0000
0100
0000
0100
0001
1000
0001
,  // measure 70
0100
0010
1000
0000
1000
0010
0100
0001
,  // measure 71
1000
0001
0010
0000
0100
0010
1000
0001
,  // measure 72
0010
0002
0000
0003
0010
0001
1000
0010
,  // measure 73
0100
0020
0000
0030
1000
0001
0100
0010
,  // measure 74
0001
2000
0000
3000
0010
1000
0100
0010
,  // measure 75
0001
0200
0000
0300
0010
1000
0001
0000
,  // measure 76
0100
0001
1000
0000
0100
0010
0001
0000
,  // measure 77
0010
0100
1000
0000
0101
0000
0101
0000
,  // measure 78
0101
0101
1100
1100
,  // measure 79
1100
0000
1100
0000
1001
0000
1000
0001
,  // measure 80
0100
0020
0100
0030
1001
0000
0001
0100
,  // measure 81
0010
2000
0100
3000
1010
0000
0100
0010
,  // measure 82
0001
2000
0001
3000
0110
0000
0101
0000
,  // measure 83
1010
0000
0110
0000
1001
0000
0001
1000
,  // measure 84
0001
0200
0001
0300
0110
0000
0010
0001
,  // measure 85
1000
0020
1000
0030
1100
0000
0001
1000
,  // measure 86
0001
0020
0100
0030
1100
0000
1010
0000
,  // measure 87
0101
0000
0011
0000
1000
0001
0100
0010
,  // measure 88
1000
0001
0010
0000
0100
1000
0010
0100
,  // measure 89
0001
1000
0001
0000
0010
0001
1000
0001
,  // measure 90
1000
0010
0001
0000
0001
0010
1000
0100
,  // measure 91
1000
0010
0100
0000
1000
0001
0010
1000
,  // measure 92
0001
0100
1000
0100
0010
0001
1000
0001
,  // measure 93
0100
0001
1000
0010
1000
0001
0100
0010
,  // measure 94
1000
0001
1000
0010
0001
0010
0100
0001
,  // measure 95
1000
0100
0010
0000
2200
0000
0000
0000
,  // measure 96
0000
3300
0000
0000
;

//---------------dance-single - Copied from Copied f----------------
#NOTES:
     dance-single:
     Copied from Copied f:
     Challenge:
     10:
     0.846,1.000,0.819,0.197,0.188:
0000
0000
0000
0000
,
0000
0000
0000
0000
,
0000
0000
1000
0001
0010
0000
0110
0000
1000
0001
0010
0000
0110
0000
0000
0000
,
1000
0100
0010
0001
0000
0000
0100
0000
1000
0000
0001
0000
1000
0010
1000
0000
,
0011
0000
1000
0010
1000
0000
0011
0000
0000
0000
1000
0010
0001
0010
0000
0000
,
0010
0000
1000
0000
0010
0000
0100
1000
0001
0000
0101
0000
0010
1000
0001
0000
,
0101
0000
0000
0000
0010
0001
0100
0010
0000
0000
0001
0000
0010
0000
0100
0000
,
1100
0000
0010
0000
0001
1000
0001
0000
,
0010
0000
0001
0000
0010
0100
1000
0000
,
0010
0000
1000
0000
0001
0100
1000
0000
,
0010
0000
0100
0000
0010
0001
0100
0000
,
0010
1000
0001
0000
0010
1000
0001
0000
,
1000
0100
0010
0000
0100
1000
0010
0000
,
1000
0001
0010
0100
,
0010
0001
0100
0010
1000
0100
0010
0000
,
0101
0000
1100
0000
0000
0011
0000
0000
,
1001
0000
0101
0000
0000
1001
0000
0000
,
0011
0000
0101
0000
0000
0110
0000
0000
,
1100
0000
0011
0000
0000
0101
0000
0000
,
1010
0000
1001
0000
0000
0110
0000
0000
,
1100
0000
1001
0000
0000
1100
0000
0000
,
0110
0000
1100
0000
0000
1001
0000
0000
,
0101
0000
0011
0000
0000
1100
0000
0000
,
0101
0000
1010
0000
0001
1000
0001
0000
,
1010
0000
0101
0000
0001
0010
0100
0000
,
1100
0000
0101
0000
0001
1000
0010
0000
,
1000
0001
0100
0001
1000
0100
0010
0001
,
0110
0000
0011
0000
1000
0010
0001
0000
,
0011
0000
0110
0000
0100
0001
0010
0000
,
0011
0000
1100
0000
0010
1000
0001
0000
,
0110
0000
1001
0000
0001
0010
0100
1000
,
1001
0000
0101
0000
1000
0100
0010
0001
0010
0100
1000
0100
0010
0001
0010
0100
,
1100
0100
0110
0010
0001
0110
1000
0100
0010
0001
0010
0100
1000
0100
0010
0001
,
0010
0100
1000
0100
0110
0010
0011
0010
0100
1000
0100
0010
0001
0010
0100
1000
,
0100
0010
0001
0010
0100
1000
0100
0010
1001
0000
0010
0000
0000
0110
0000
0000
,
0100
0000
1000
0100
0010
0000
0100
0000
1000
0000
0001
0000
0000
0110
0000
0000
,
1000
0000
0100
1000
0010
0000
0100
0000
0110
0000
1000
0000
0000
1001
0000
0000
,
1000
0000
0010
1000
0001
0000
0001
0000
0100
0000
1000
0000
0000
0011
0000
0000
,
0100
0000
1000
0010
0100
0000
0100
0000
0010
0000
1000
0000
0010
0000
0100
0000
,
0001
0010
0100
0010
0001
1000
0100
0001
,
0100
1000
0100
0010
0001
0100
0010
1000
,
0010
0100
0001
1000
0100
1000
0010
0100
,
0001
0100
1000
0100
0001
0100
0001
0000
,
1000
0010
1000
0000
0100
0001
0100
0000
,
0010
1000
0010
0000
0001
0010
0100
1000
,
0001
0010
0100
0000
1000
0100
0010
0001
,
1000
0100
0010
0000
0100
0001
0100
0010
,
1000
0200
0000
0300
0001
1000
0001
0010
,
0001
0020
0000
0030
1000
0100
0010
0001
,
0010
2000
0000
3000
1000
0001
0100
0010
,
0100
0002
0000
0003
0010
0001
1000
0000
,
0010
0100
0001
0000
1000
0001
1000
0100
,
0010
0001
0100
0000
1100
0000
1100
0000
,
1100
1100
1001
1001
,
1001
0000
1001
0000
1010
0000
0100
0010
,
1000
0002
0000
0003
0101
0000
1000
0010
,
1000
0200
0000
0300
0110
0000
0001
1000
,
0001
0200
0000
0300
0011
0000
0001
0010
,
1000
0020
0000
0030
0110
0000
1000
0010
,
0100
0002
0000
0003
0101
0000
0001
0100
,
0001
2000
0000
3000
0011
0000
0100
0010
,
1000
0002
0000
0003
0101
0000
0100
0001
,
0100
0020
0000
0030
1000
0001
0010
0100
,
1000
0100
0010
0001
0010
0100
1000
0000
,
0001
0000
1001
0000
0100
0010
0001
0010
,
0100
0010
0100
1000
0100
0010
0001
0000
,
1000
0000
1001
0000
1000
0100
0010
0001
,
0010
0100
1000
0100
0010
0001
0010
0000
,
0100
0000
1001
0000
0010
0001
0100
0001
,
0010
1000
0100
0000
0100
1000
0010
0001
,
0100
0001
1000
0000
0010
1000
0100
0001
,
1000
0002
0000
0003
0001
0010
1000
0010
,
0100
0020
0000
0030
0100
0001
0010
1000
,
0001
0200
0000
0300
1000
0100
0010
1000
,
0001
0020
0000
0030
1000
1000
0001
0000
,
0010
0010
0100
0000
1000
0010
0001
0000
,
1000
0100
0001
0000
1100
0000
1100
0000
,
1100
1100
0011
0011
,
0011
0000
0011
0000
1001
0001
0100
0001
,
1000
0200
0010
0300
1001
0001
1000
0100
,
0010
0002
0010
0003
1010
1000
0100
0010
,
0001
0020
0100
0030
0011
0001
0101
0000
,
1010
1000
1100
0000
1001
0001
0010
1000
,
0010
0200
1000
0300
0110
0010
0001
1000
,
0100
0020
0001
0030
1100
0010
0001
1000
,
0001
0200
0010
0300
1010
0001
0011
0000
,
0101
1000
1100
0000
0001
0010
0100
0010
,
0001
0010
0100
1000
1000
0010
0001
0010
,
1000
0001
0010
0000
0100
0010
0001
0100
,
0001
1000
0010
0100
0010
1000
0001
0010
,
0001
1000
0010
0000
0001
0010
1000
0010
,
0100
0010
0001
1000
0100
0010
0001
0010
,
1000
0010
0001
0100
0001
1000
0010
0100
,
1000
0100
0010
0100
0001
0010
0100
1000
,
0100
0010
0001
1000
0202
0000
0000
0000
,
0000
0303
0000
0000
;
