#TITLE:the shadow;
#SUBTITLE:;
#ARTIST:kors k;
#TITLETRANSLIT:;
#SUBTITLETRANSLIT:;
#ARTISTTRANSLIT:;
#GENRE:;
#CREDIT:;
#MENUCOLOR:;
#NEWMETERSYSTEM:NO;
#BANNER:the shadow-bn.png;
#BACKGROUND:the shadow-bg.png;
#LYRICSPATH:;
#CDTITLE:MixMania CD Title.png;
#MUSIC:the shadow.mp3;
#OFFSET:-0.420;
#SAMPLESTART:12.720;
#SAMPLELENGTH:12.000;
#SELECTABLE:YES;
#LISTSORT:;
#BPMS:0.000=156.000;
#STOPS:;
#BGCHANGES:;
#ATTACKS:;

//---------------dance-single - ----------------
#NOTES:
     dance-single:
     :
     Easy:
     5:
     0.382,0.465,0.247,0.187,0.000:
0000
0000
0000
0000
,
0000
0000
0000
0000
,
0000
0000
0000
0000
,
0000
0000
0000
0000
,
1001
0000
0000
0000
,
0000
0000
0000
0000
,
0000
0000
0000
0000
,
2000
0000
0002
3003
,
1001
0010
0001
0010
,
0100
0001
1000
0100
,
1000
0010
1000
0100
,
0001
1000
0002
1003
,
1001
0100
1000
0100
,
0010
1000
0001
0020
,
0130
0001
0010
0001
,
0100
1000
0100
0010
,
1001
0010
1000
0100
,
1000
0001
0010
0200
,
1300
0010
0001
2000
,
3001
1000
0010
0002
,
2003
3100
0001
1000
,
0002
2003
3100
0200
,
0301
0010
1000
0001
,
0100
0010
0001
1000
,
1001
0010
0100
0010
,
0011
0100
0001
1000
,
1010
0100
1000
0001
,
1010
0100
0001
1000
,
0011
0100
0001
0010
,
1100
1000
0001
0100
,
1001
0010
0100
0001
,
2000
0000
0020
3030
,
1001
0001
1000
0100
,
0001
0100
0010
1000
,
0001
0100
0010
1000
,
0001
0100
0020
0230
,
0310
1000
0001
0100
,
1000
0100
0010
0001
,
1000
0001
0010
0100
,
0001
1000
0200
0320
,
0130
1000
0010
0100
,
0001
1000
0100
0001
,
1000
0010
0100
1000
,
0001
0100
0020
0031
,
1100
0001
0100
0010
,
0001
1000
0100
0010
,
1000
0001
0100
0010
,
2000
0000
0002
3003
,
1001
0000
0000
0000
,
0010
0000
0000
0000
,
0100
0000
0000
0000
,
1000
0000
0001
0000
,
1000
0001
0010
0100
,
0001
1000
0100
0010
,
1000
0100
1000
0001
,
1000
0010
0100
0010
,
0001
1001
0010
0100
,
0010
1001
0010
0100
,
0010
1001
0010
0100
,
0010
1001
0100
0010
,
0100
1001
0010
1001
,
0100
1001
0010
1001
,
0100
1001
0110
0011
,
1100
0110
2002
0000
,
3003
0000
0100
0000
0010
0001
1000
0000
,
1001
0000
0010
1000
0010
0000
0110
0000
,
1001
0000
0100
0000
1000
0000
0010
1000
,
0100
0001
1000
0100
,
0010
0000
1000
0000
0100
0000
0010
0001
,
0100
0000
0001
0000
1000
0001
1000
0000
,
0010
0000
0100
0000
0001
0000
1000
0010
,
0100
0000
0001
0000
1000
0000
0010
0001
,
0100
0010
0001
0100
,
0010
0000
1000
0000
0100
0001
0020
0000
,
0130
0000
0100
0000
0001
0000
1000
0100
,
1000
0000
0010
0000
0100
0000
0001
1000
,
0100
0000
0010
0000
0001
0000
0100
0010
,
0001
0000
1000
0000
0001
0000
0100
0001
,
1000
0000
0001
1000
0100
0000
0010
0000
,
0100
0000
0010
0001
1000
0000
0001
0000
,
0100
0001
0010
0000
0100
1000
0010
0000
,
0001
1000
0100
0010
,
2002
0000
0000
3003
,
0110
0000
0000
0000
;

//---------------dance-single - Copied from----------------
#NOTES:
     dance-single:
     Copied from:
     Beginner:
     1:
     0.167,0.279,0.112,0.060,0.000:
0000
0000
0000
0000
,
0000
0000
0000
0000
,
0000
0000
0000
0000
,
0000
0000
0000
0000
,
1001
0000
0000
0000
,
0000
0000
0000
0000
,
0000
0000
0000
0000
,
0000
0000
0000
0000
,
1000
0000
0001
0000
,
1000
0000
0010
0000
,
0001
0000
0100
0000
,
0010
0000
1000
1000
,
1000
0000
0100
0000
,
1000
0000
0010
0010
,
0000
0001
0000
1000
,
1000
0000
0100
0000
,
0010
0000
0001
0000
,
1000
0000
0001
0000
,
0010
0000
0100
0000
,
1000
0000
0001
0000
,
0100
0000
1000
0000
,
0010
0000
0001
0000
,
1000
0000
0100
0000
,
0010
0000
0100
0000
,
1001
0000
0100
0000
,
0001
0000
0010
0000
,
0001
0000
1000
0000
,
0100
0000
1000
0000
,
0010
0000
0100
0000
,
1000
0000
0001
0000
,
0100
0000
0010
0000
,
0001
0000
0200
0000
,
0300
0000
0010
0000
,
1000
0000
0100
0000
,
1000
0000
1000
0000
,
0010
0000
0001
0001
,
0001
0000
0010
0000
,
1000
0000
0100
0000
,
0001
0000
1000
0000
,
0010
0000
1000
0000
,
0100
0000
1000
0000
,
0001
0000
0010
0000
,
0001
0000
0100
0000
,
1000
0000
0010
0000
,
0100
0000
1000
0000
,
0100
0000
0001
0000
,
1000
0000
0001
0000
,
0010
0000
0100
0000
,
2002
0000
0000
0000
,
0000
0000
0000
0000
,
0000
0000
0000
0000
,
0000
0000
0000
0000
,
0000
0000
0000
0000
,
0000
0000
0000
0000
,
0000
0000
0000
0000
,
0000
0000
0000
3003
,
0000
1001
0000
0000
,
0000
1001
0000
0000
,
0000
1001
0000
0000
,
0000
1001
0000
0000
,
0000
0110
0000
0110
,
0000
0110
0000
0110
,
0000
1001
0000
1001
,
2002
0000
3003
0000
,
0010
0000
0001
0000
,
0200
0000
0300
0000
,
0010
0000
1000
0000
,
0100
0000
0001
0000
,
1000
0000
0001
0000
,
0010
0000
0100
0000
,
1000
0000
0001
0000
,
0100
0000
0010
0000
,
1000
0000
0001
0000
,
0100
0100
0200
0300
,
0100
0000
0001
0000
,
0010
0000
0001
0000
,
1000
0000
0100
0000
,
0010
0000
1000
0000
,
0001
0000
0010
0000
,
0100
0000
0001
0000
,
1000
0000
0001
0000
,
1000
0000
0020
0000
,
0030
0000
0100
0000
,
1001
0000
0000
0000
;

//---------------dance-single - Copied from----------------
#NOTES:
     dance-single:
     Copied from:
     Medium:
     6:
     0.404,0.496,0.179,0.112,0.000:
0000
0000
0000
0000
,
0000
0000
0000
0000
,
0000
0000
0000
0000
,
0000
0000
0000
0000
,
1001
0000
0000
0000
,
0010
0000
0000
0100
,
0100
0000
0010
0000
,
0100
0001
1000
0010
,
1001
0000
0100
0001
0010
0001
0100
0000
,
1000
0000
0010
0000
1000
0010
0001
0000
,
0100
0001
1000
0001
,
0010
0001
0100
0000
0002
0000
2003
0000
,
3100
0000
1000
0000
0010
0000
1000
0010
,
0001
0000
0100
0000
0001
0000
1000
0001
,
1000
0010
0100
0001
,
0010
0000
0001
0000
0100
0001
0010
1000
,
0100
1000
0010
1000
,
0100
0001
0010
0001
,
1000
0000
0100
0000
0001
0000
0001
1000
,
0001
0100
0010
0200
,
0310
1000
0001
0100
,
0001
0010
0200
0302
,
0013
1000
0100
1000
,
0001
1000
0010
0100
0001
0000
0101
0000
,
1000
0010
0100
1000
,
0001
0000
0100
0000
0010
1000
0100
1000
,
0010
0100
0001
1000
,
0100
0001
0010
0000
0100
0000
1001
0000
,
0010
0000
0100
0000
0001
0000
1000
0010
,
0100
0001
1000
0100
,
0010
0001
0010
0001
,
1000
0100
1000
0010
0200
0000
0000
0000
,
0310
1000
0001
0100
,
0010
0000
1000
0000
0001
0100
0010
0000
,
0001
1000
0001
1000
,
0010
0000
0100
0000
1000
0100
0010
0100
,
0001
1000
0010
0001
,
0010
0000
1000
0000
0100
0001
0010
0000
,
0100
1000
0001
1000
,
0010
0000
0100
0000
1000
0010
0100
0000
,
1000
0010
0100
0001
,
1000
0010
0001
0100
,
1000
0001
1000
0001
,
0010
0100
0011
1100
,
0010
0000
0100
0000
0010
0000
1000
0100
,
0010
0000
0100
0000
1000
0000
0001
0010
,
0100
0010
0001
1000
,
0100
0010
1000
0001
,
0220
0000
0300
0000
,
1000
0000
0000
0000
,
0230
0000
0000
0000
,
0001
0000
0000
0000
,
0320
0000
0000
0000
,
1000
0000
0000
0000
,
0002
0000
0000
0033
,
1000
0000
0100
0000
0010
0100
0001
0010
,
1000
0110
1000
0001
,
0010
1001
0100
0010
,
1000
1001
0001
0100
,
0010
0000
1001
0000
0010
0100
0001
0000
,
0100
1001
0010
1001
,
0010
1001
0100
1001
,
0011
0101
1010
1100
,
0010
1000
0010
0100
0002
0000
0100
0000
,
1003
0100
0010
1000
,
0001
0100
0010
1000
0100
0000
1001
0000
,
0100
0010
1000
0100
0001
0000
0100
0000
,
0010
0001
1000
0000
0100
1000
0010
0000
,
0100
0000
0001
0000
0010
0001
1000
0000
,
0100
0000
0010
1000
0100
0001
0010
0000
,
0100
0000
0001
0000
0010
1000
0100
0000
,
1000
0000
0001
0000
0100
0010
0001
0000
,
0100
0010
1000
0000
1000
0010
0100
0000
,
2002
0000
3003
0110
,
1000
0010
0001
0000
0100
1000
0010
0000
,
0100
0000
0010
0000
0001
1000
0001
0000
,
0100
0010
1000
0000
0010
0100
0001
0000
,
1000
0000
0001
0000
0010
0001
0010
0000
,
0100
1000
0100
0000
0001
1000
0001
0000
,
0100
0000
0010
0000
1000
0010
0001
0000
,
0100
1000
0010
0000
0001
0010
0100
0000
,
0001
1000
0010
0100
,
1002
0100
0010
0103
,
1010
0000
0000
0000
;

//---------------dance-single - Copied from Copied f----------------
#NOTES:
     dance-single:
     Copied from Copied f:
     Hard:
     8:
     0.479,0.496,0.194,0.090,0.045:
0000
0000
0000
0000
,
0000
0000
0000
0000
,
0000
0000
0000
0000
,
0000
0000
0000
0000
,
0110
0000
0000
0000
,
0001
0000
0000
0000
1000
0000
0001
1000
,
0010
0000
1000
0000
,
0100
0000
0010
0010
,
1001
0000
0100
0000
1000
0100
0010
0001
,
0010
0000
0100
0000
0001
1000
0020
0000
,
1030
0000
0100
0000
1000
0010
0001
0100
,
0001
1000
0010
1001
,
0100
0000
0010
1000
0001
0100
0001
0000
,
0010
1000
0001
0000
0100
0010
0100
0010
,
0100
0000
1000
0000
0001
0100
1000
0000
,
0010
1000
0010
0001
0100
0001
1001
0000
,
0100
0010
1000
0000
1000
0100
0001
0000
,
0010
0001
1000
0000
0010
0001
0100
1000
,
0010
1000
0100
0000
1000
0010
0001
0000
,
0100
1000
0010
1000
0100
0000
0010
0000
,
0100
0001
1000
0000
0100
1000
0010
0000
,
0010
0001
0100
0000
0010
1000
0100
0000
,
1000
0001
1000
0001
0010
0001
0010
1000
,
0100
1000
0010
0001
1000
0000
1001
0000
,
0100
0000
1000
0000
0010
0001
0010
0000
,
0100
0000
1000
0000
0001
0010
1000
0000
,
0100
0000
1000
0000
0001
1000
0010
0000
,
0100
0000
1000
0000
1000
0100
1000
0100
,
0010
0000
0100
0000
0001
0010
1000
0000
,
0100
0000
0001
0000
1000
0010
0100
0000
,
0010
0000
1000
0000
0001
0010
0001
0010
,
0100
1000
0100
1000
0010
0000
0010
0000
,
1001
0100
0010
1000
,
0001
0000
0100
0000
1000
0001
1000
0000
,
0010
0001
0100
0001
,
0010
1000
0010
0100
0100
0000
0001
0000
,
0011
0000
0100
0000
0001
0000
1000
0010
,
0001
0100
0010
0001
,
1000
0000
0100
0010
1000
0000
0100
0000
,
0010
0100
2000
3002
,
1003
0000
0010
0000
0100
0000
0010
1000
,
0001
0000
0100
0000
0001
0010
0001
0000
,
1000
0000
0100
0000
0010
1000
0010
0000
,
0001
0010
0001
0000
0100
0010
1001
0000
,
0100
0000
0010
1000
0100
0000
0010
0001
,
0100
0000
0001
0000
1000
0001
1000
0000
,
0010
0100
0001
0010
1000
0100
1000
0010
,
0200
0000
0002
0300
2000
0003
0200
3000
,
0000
0010
0300
0000
0001
0000
0000
0000
0000
0000
0000
1000
0000
0000
0001
0000
,
0000
1000
0000
0000
0001
0000
0000
0000
0000
0000
0000
0010
0000
0000
0001
0000
,
0000
1000
0000
0000
0100
0000
0000
0000
0000
0000
0000
0010
0000
0000
0001
0000
,
1000
0100
1000
0010
0100
0001
0010
0000
,
0000
0001
0000
0000
1000
0000
0000
0000
0000
0000
0000
0001
0000
0000
1000
0000
,
0000
0100
0000
0000
0001
0000
0000
0000
0000
0000
0000
1000
0000
0000
0001
0000
,
0000
0100
0000
0000
1000
0000
0000
0000
0000
0000
0000
1000
0000
0000
0100
0000
,
0010
0001
0100
0010
1000
0100
1000
0000
,
0010
0101
0010
1000
,
0010
0000
0101
0000
0010
0000
1000
0100
,
0010
0101
0010
1000
,
0010
0000
0101
0000
0010
0000
1000
0001
,
0010
0101
0010
0101
,
0010
1100
0010
1100
,
0101
0000
1100
0000
0101
0000
1100
0010
,
2002
0000
3003
0001
,
0110
0000
0001
0000
1000
0100
0010
0000
,
2000
0000
3002
0000
0013
0010
0010
0000
,
1001
0000
0100
0000
0001
1000
0010
0000
,
0100
0001
1000
0000
0100
1000
0010
0100
,
0001
0000
1000
0000
0001
0010
1000
0000
,
0100
1000
0001
0010
0001
1000
0100
1000
,
0010
0000
0100
0000
0001
0000
1000
0010
,
0001
0100
0001
1000
0010
0001
1000
0010
,
0100
0000
0001
0000
1000
0000
0001
1000
,
0010
0000
0100
0000
1000
0001
0110
0000
,
0001
0000
0100
0000
1000
0010
0100
0000
,
0001
0000
1000
0000
0001
0100
0010
0000
,
1000
0000
0001
0000
1000
0001
0010
0000
,
0100
0001
0010
0100
1000
0001
1000
0100
,
0010
0000
1000
0000
0001
1000
0100
0000
,
1000
0010
0100
0000
0001
0100
0010
0000
,
1000
0000
0100
0000
0010
0001
0010
1000
,
0100
0000
1000
0000
0001
0100
0010
0000
,
2100
0000
0001
0000
0010
0001
3010
0000
,
0011
0000
0000
0000
;

//---------------dance-single - Copied from Copied f----------------
#NOTES:
     dance-single:
     Copied from Copied f:
     Challenge:
     9:
     0.655,0.714,0.381,0.097,0.060: // measure 1
0000
0000
0000
0000
,  // measure 2
0000
0000
0000
0000
,  // measure 3
0000
0000
0000
0000
,  // measure 4
0010
0010
0010
0100
,  // measure 5
1001
0000
0100
0000
1000
0000
0100
0001
,  // measure 6
0010
0000
0100
0000
0001
1000
0010
1000
,  // measure 7
0100
0010
1000
0100
,  // measure 8
0001
0100
1000
0100
0001
0100
1001
0000
,  // measure 9
0100
1000
0010
0100
0001
0010
0001
1000
,  // measure 10
0100
1000
0001
1000
0010
0100
0001
1000
,  // measure 11
0010
0001
0100
1000
0010
1000
0001
0100
,  // measure 12
0010
0001
1000
0100
0010
0001
1001
0000
,  // measure 13
1000
0100
0010
1000
0001
0010
0001
0100
,  // measure 14
1000
0010
0100
0001
1000
0001
0010
0100
,  // measure 15
0001
1000
0010
0001
0100
1000
0010
1000
,  // measure 16
0001
0100
0010
1000
0001
0100
0010
0000
,  // measure 17
1001
0100
1000
0010
0001
0100
0010
1000
,  // measure 18
0001
0100
1000
0010
1000
0001
0010
0000
,  // measure 19
0100
1000
0001
0010
0001
1000
0100
1000
,  // measure 20
0001
0010
0100
1000
0010
0001
0100
0000
,  // measure 21
0010
1000
0001
0100
0010
0001
0100
1000
,  // measure 22
0010
0001
1000
0100
0010
1000
0001
0100
,  // measure 23
1000
0001
1000
0100
0001
0010
1000
0100
,  // measure 24
1000
0010
0001
0100
1000
0001
0010
1000
,  // measure 25
0001
0000
1000
0000
0100
0000
0010
0001
,  // measure 26
1000
0000
0010
0100
0001
0010
1000
0000
,  // measure 27
0100
0000
0001
1000
0010
0001
0100
0000
,  // measure 28
0001
0000
1000
0010
0001
0100
0001
0000
,  // measure 29
1000
0000
0010
0100
0001
0010
1000
0000
,  // measure 30
0100
0000
1000
0010
0100
0001
0010
0000
,  // measure 31
1001
0000
0100
0001
0010
0000
0100
0010
,  // measure 32
1001
0000
1001
0000
0110
1001
0110
0000
,  // measure 33
0001
1000
0100
0001
0100
1000
0010
0001
,  // measure 34
0010
0100
0001
1000
0100
0010
1000
0001
,  // measure 35
0100
0010
1000
0001
0010
0100
0010
1000
,  // measure 36
0100
0001
0010
0100
0001
1000
1001
0000
,  // measure 37
0100
0010
0001
1000
0001
0100
0010
1000
,  // measure 38
0001
0100
1000
0100
1000
0010
0100
0001
,  // measure 39
0100
0010
0001
1000
0100
0001
1000
0100
,  // measure 40
0010
1000
0100
0010
0100
0010
0001
0000
,  // measure 41
1001
0100
0010
0001
1000
0001
0010
0001
,  // measure 42
1000
0001
0010
0100
0010
1000
0001
0100
,  // measure 43
0010
1000
0001
1000
0100
0010
0001
1000
,  // measure 44
0001
0100
0010
0100
1000
0001
0010
0000
,  // measure 45
1100
0001
0010
1000
0001
0100
1000
0010
,  // measure 46
0100
0001
1000
0001
0100
0010
1000
0100
,  // measure 47
0010
1000
0001
0010
0100
1000
0001
1000
,  // measure 48
0010
0100
0001
1000
0010
0001
0010
0100
,  // measure 49
0000
1001
0000
0000
1010
0000
0000
0000
0000
0000
0000
1001
0000
0000
1010
0000
,  // measure 50
0000
1001
0000
0000
0101
0000
0000
0000
0000
0000
0000
1001
0000
0000
0101
0000
,  // measure 51
0000
1001
0000
0000
0101
0000
0000
0000
0000
0000
0000
1001
0000
0000
0110
0000
,  // measure 52
1000
0001
0100
0010
0001
1000
0100
0000
,  // measure 53
0000
0110
0000
0000
1001
0000
0000
0000
0000
0000
0000
1001
0000
0000
0110
0000
,  // measure 54
0000
1001
0000
0000
0110
0000
0000
0000
0000
0000
0000
0011
0000
0000
0110
0000
,  // measure 55
0000
0011
0000
0000
0011
0000
0000
0000
0000
0000
0000
1100
0000
0000
0011
0000
,  // measure 56
1000
0100
0001
0100
1000
0010
0001
0000
,  // measure 57
0010
0000
1001
0000
0010
0001
0100
0001
,  // measure 58
0010
0000
1001
0000
0100
1000
0010
0100
,  // measure 59
0001
0000
1001
0000
0010
1000
0100
0001
,  // measure 60
0010
0000
1001
0000
0100
1000
0100
0010
,  // measure 61
0001
0000
1001
0000
0010
1000
1001
0000
,  // measure 62
1000
0010
1001
0000
0001
0010
1001
0000
,  // measure 63
1000
0010
0001
0010
1000
0001
0100
0010
,  // measure 64
2002
0000
0000
0000
3003
0000
0010
0100
,  // measure 65
0001
0000
0010
0000
0100
0000
1000
0000
0000
0100
0000
0000
0020
0000
0000
0100
0000
0000
0032
0000
0000
0010
0000
0000
,  // measure 66
0013
0000
1000
0100
0010
0000
0100
0000
0011
0000
0100
0000
1010
0000
0000
0000
,  // measure 67
1001
0100
0010
0001
0100
0010
1000
0100
,  // measure 68
0001
0100
1000
0010
0100
0001
0010
1000
,  // measure 69
0100
0001
1000
0100
0010
0001
1000
0001
,  // measure 70
0010
1000
0001
1000
0001
0100
0010
1000
,  // measure 71
0001
0100
0001
0010
0100
0001
1000
0100
,  // measure 72
0001
0100
1000
0001
0010
1000
0001
0100
,  // measure 73
1000
0010
1000
0100
0010
0001
1000
0010
,  // measure 74
0200
0000
0302
0000
2003
0010
3010
0000
,  // measure 75
1001
0100
0010
0001
1000
0100
1000
0001
,  // measure 76
1000
0100
0010
1000
0001
0100
1000
0100
,  // measure 77
0010
0001
1000
0001
0100
0010
0001
1000
,  // measure 78
0001
1000
0100
0010
1000
0100
0001
0000
,  // measure 79
1000
0001
0100
0001
1000
0100
0010
0001
,  // measure 80
0200
0001
2300
0010
3100
1000
0100
1000
,  // measure 81
0010
0001
0100
0001
0010
1000
0100
1000
,  // measure 82
0002
0203
0320
2030
,  // measure 83
3001
0000
0000
0010
0000
0000
0001
0000
1000
0000
0001
0000
0100
0000
0000
0000
,  // measure 84
1100
0000
0000
0000
;
