#TITLE:Move Your Body;
#ARTIST:P*Light;
#CREDIT:Lisek;
#BANNER:Move Your Body.png;
#BACKGROUND:Move Your Body-bg.png;
#CDTITLE:cdtitle.png;
#MUSIC:Move Your Body.ogg;
#OFFSET:0.000;
#SAMPLESTART:70.594;
#SAMPLELENGTH:11.300;
#SELECTABLE:YES;
#BPMS:0.000=85.000,16.000=170.000,73.000=85.000,73.250=170.000,73.750=85.000,74.000=170.000,74.500=85.000,74.750=170.000,75.250=85.000,75.500=170.000;
#STOPS:66.500=0.353
,67.500=0.353
,68.500=0.353
;
#BGCHANGES:;

//---------------dance-single - ----------------
#NOTES:
     dance-single:
     Lisek:
     Hard:
     9:
     0.714,0.667,0.222,0.042,0.418: // measure 1
0000
0000
0000
0000
,  // measure 2
0000
0000
0000
0000
,  // measure 3
1000
0000
0001
0000
1000
0000
0001
2000
,  // measure 4
3010
0000
0100
0000
0010
0100
0020
0030
,  // measure 5
1000
0010
1000
0001
0010
0001
1000
0010
,  // measure 6
1000
0100
0001
0100
1000
0010
0001
0010
,  // measure 7
0100
0001
0100
0010
1000
0010
0100
0001
,  // measure 8
0100
1000
0100
0001
0100
0000
1001
0000
,  // measure 9
0001
0010
0001
1000
0100
1000
0001
0010
,  // measure 10
0001
0100
1000
0100
0001
0010
1000
0010
,  // measure 11
0100
1000
0100
0010
0100
1000
0010
1000
,  // measure 12
0002
0010
0100
1003
,  // measure 13
1000
0010
1000
0001
0100
0001
1000
0010
,  // measure 14
1000
0100
0010
0001
0001
0010
0100
1000
,  // measure 15
0001
0100
0001
1000
0010
1000
0001
0100
,  // measure 16
0001
0010
0100
1000
1000
0000
0001
0000
,  // measure 17
1000
0010
1000
0001
0100
0001
1000
0010
,  // measure 18
1000
0001
0100
0001
1000
0010
0100
0001
,  // measure 19
1000
0000
0001
0000
1000
0000
0000
1000
0000
0000
0001
0000
0000
0001
0000
0000
,  // measure 20
0001
0010
0100
1000
0001
0100
0010
1000
,  // measure 21
0001
0010
0100
1000
0001
0000
1001
0000
,  // measure 22
1000
0100
0010
0001
1000
0010
0100
0001
,  // measure 23
1000
0001
1000
0001
1000
0001
1000
0001
1000
0000
0000
0000
1001
0000
0000
0000
,  // measure 24
1000
0100
0010
0001
1000
0010
0100
0001
,  // measure 25
1000
0100
0010
0001
1000
0000
1001
0000
,  // measure 26
0001
0010
0100
1000
0001
0100
0010
1000
,  // measure 27
0010
0100
0010
0100
0010
0100
0010
0100
0010
0000
0000
0000
1001
0000
0000
0000
,  // measure 28
1000
0010
0100
0001
0010
0100
1000
0100
,  // measure 29
0010
0001
0100
0010
1000
0000
1001
0000
,  // measure 30
0001
0100
0010
1000
0100
0010
0001
1000
,  // measure 31
0001
1000
0001
1000
0001
1000
0001
1000
0001
0000
0000
0000
1001
0000
0000
0000
,  // measure 32
0001
0000
0001
1000
0000
1000
0100
0000
0100
0010
0000
0010
,  // measure 33
0001
0000
0001
1000
0000
1000
0001
0000
0000
1001
0000
0000
,  // measure 34
1000
0000
1000
0001
0000
0001
0100
0010
0100
0001
0100
0010
,  // measure 35
0200
0010
0001
0310
,  // measure 36
1000
0000
0100
0000
1000
0100
0000
1000
0100
0000
1000
0100
0000
1000
0100
0000
,  // measure 37
0010
0000
0001
0000
0010
0001
0000
0010
0001
0000
0010
0001
0000
0010
0001
0000
,  // measure 38
1000
0000
0010
0000
1000
0010
0000
1000
0010
0000
1000
0010
0000
1000
0010
0000
,  // measure 39
0100
0000
0001
0000
0100
0001
0000
0100
0001
0000
0100
0001
0000
0100
0001
0000
,  // measure 40
0100
0000
0010
0000
0100
0010
0000
0100
0010
0000
0100
0010
0000
0100
0010
0000
,  // measure 41
1000
0000
0001
0000
1000
0001
0000
1000
0001
0000
1000
0001
0000
1000
0001
0000
,  // measure 42
0100
0000
0010
0000
0100
0010
0000
0100
0010
0000
0100
0010
0000
0100
0010
0000
,  // measure 43
1000
0000
0001
0000
1000
0001
0000
1000
0001
0000
1000
0001
0000
1000
0001
0000
,  // measure 44
1001
0000
0101
0000
,  // measure 45
1001
1010
1001
M00M
,  // measure 46
0001
0100
0010
1000
0100
0010
0001
0010
,  // measure 47
0100
1000
0001
0100
0010
0000
1001
0000
,  // measure 48
1000
0010
0100
0001
1000
0100
0010
0001
,  // measure 49
1000
0001
1000
0001
1000
0001
1000
0001
1000
0000
0000
0000
1001
0000
0000
0000
,  // measure 50
0001
0010
0100
1000
0001
0100
0010
1000
,  // measure 51
0010
0100
0001
0010
0100
0000
1001
0000
,  // measure 52
1000
0010
0100
0001
0010
0100
1000
0010
,  // measure 53
0100
0010
0100
0010
0100
0010
0100
0010
0100
0000
0000
0000
1001
0000
0000
0000
,  // measure 54
0001
0100
0010
1000
0100
0010
0001
0010
,  // measure 55
0100
1000
0010
0100
0001
0000
1001
0000
,  // measure 56
1000
0010
0100
0001
0010
0100
1000
0100
,  // measure 57
1000
0001
1000
0001
1000
0001
1000
0001
1000
0000
0000
0000
1001
0000
0000
0000
,  // measure 58
0001
0000
0001
0010
0000
0010
0100
0000
0100
1000
0000
1000
,  // measure 59
0001
0000
0001
1000
0000
1000
0010
0000
0000
1001
0000
0000
,  // measure 60
1000
0000
1000
0001
0000
0001
1000
0000
1000
0001
0000
0000
,  // measure 61
1001
0000
0000
0000
;

//---------------dance-single - ----------------
#NOTES:
     dance-single:
     Lisek:
     Medium:
     7:
     0.521,0.477,0.169,0.106,0.138: // measure 1
0000
0000
0000
0000
,  // measure 2
0000
0000
0000
0000
,  // measure 3
1000
0000
0001
0000
1000
0000
0001
1000
,  // measure 4
0010
0000
0100
0000
0010
0100
0010
0100
,  // measure 5
0001
0010
0100
1000
,  // measure 6
0010
1000
0010
0000
0100
0001
0100
0000
,  // measure 7
0001
1000
0010
0100
,  // measure 8
0001
0010
0001
0000
1000
0100
1000
0000
,  // measure 9
0001
1000
0010
0100
,  // measure 10
0010
1000
0010
0000
0100
0001
0100
0000
,  // measure 11
0001
1000
0100
0010
,  // measure 12
0100
0010
0100
1000
0001
0100
0001
0000
,  // measure 13
1000
0100
1000
0010
,  // measure 14
0100
0001
0100
0000
0010
1000
0010
0000
,  // measure 15
1000
0100
0010
0001
,  // measure 16
1000
0001
1000
0000
0001
0100
0001
0000
,  // measure 17
1000
0000
0010
0000
1000
1000
1000
1000
,  // measure 18
1000
1000
0001
0000
0100
0000
0001
0000
,  // measure 19
1000
0000
2002
0000
0000
0000
0000
3003
,  // measure 20
0001
0010
0100
1000
0001
0010
0100
1000
,  // measure 21
0001
0010
0100
0000
1000
0000
1001
0000
,  // measure 22
1000
0100
0010
0001
1000
0100
0010
0001
,  // measure 23
2000
0000
3001
1000
,  // measure 24
0001
0100
0010
1000
0001
0100
0010
1000
,  // measure 25
0001
0100
0010
0000
1000
0000
1001
0000
,  // measure 26
1000
0010
0100
0001
1000
0010
0100
0001
,  // measure 27
2000
0000
3001
1000
,  // measure 28
0001
0100
0001
1000
0001
0100
0001
1000
,  // measure 29
0001
0100
0001
0000
1000
0000
1001
0000
,  // measure 30
0010
1000
0010
0100
0010
1000
0010
0100
,  // measure 31
0020
0000
1030
0001
,  // measure 32
1000
0000
0001
0100
0000
0000
0001
0000
1000
0010
0000
0000
,  // measure 33
1000
0000
0001
0100
0000
0000
0001
0000
0000
1001
0000
0000
,  // measure 34
1000
0000
0001
0100
0000
0000
0001
0000
1000
0010
0000
0000
,  // measure 35
2002
0000
0000
3003
,  // measure 36
1000
0000
0010
0000
0000
1000
0000
0000
0010
0000
0000
1000
0000
0000
0010
0000
,  // measure 37
1000
0000
0001
0000
0000
1000
0000
0000
0001
0000
0000
1000
0000
0000
0001
0000
,  // measure 38
1000
0000
0100
0000
0000
1000
0000
0000
0100
0000
0000
1000
0000
0000
0100
0000
,  // measure 39
1000
0000
0001
0000
0000
1000
0000
0000
0001
0000
0000
1000
0000
0000
0001
0000
,  // measure 40
0001
0000
0100
0000
0000
0001
0000
0000
0100
0000
0000
0001
0000
0000
0100
0000
,  // measure 41
0001
0000
1000
0000
0000
0001
0000
0000
1000
0000
0000
0001
0000
0000
1000
0000
,  // measure 42
0001
0000
0010
0000
0000
0001
0000
0000
0010
0000
0000
0001
0000
0000
0010
0000
,  // measure 43
0001
0000
1000
0000
0000
0001
0000
0000
1000
0000
0000
0001
0000
0000
1000
0000
,  // measure 44
1001
0000
0110
0000
,  // measure 45
1001
0110
1001
M00M
,  // measure 46
1000
0010
0100
0010
1000
0010
0100
0010
,  // measure 47
1000
0010
0100
0000
0010
0000
1010
0000
,  // measure 48
1000
0100
0010
0100
1000
0100
0010
0100
,  // measure 49
2000
0000
3001
1000
,  // measure 50
0001
0010
0100
0010
0001
0100
0010
0100
,  // measure 51
0001
0010
0100
0000
0010
0000
0011
0000
,  // measure 52
0001
0100
0010
0100
0001
0100
0010
0100
,  // measure 53
0002
0000
1003
0001
,  // measure 54
1000
0100
1000
0010
0100
0010
1000
0100
,  // measure 55
1000
0010
0100
0000
0010
0000
0110
0000
,  // measure 56
0100
0001
0100
0010
0100
0001
0100
0010
,  // measure 57
0200
0000
0301
1000
,  // measure 58
0001
0000
1000
0100
0000
0000
1000
0000
0001
0010
0000
0000
,  // measure 59
0001
0000
1000
0100
0000
0000
1000
0000
0000
1001
0000
0000
,  // measure 60
0001
0000
1000
0100
0000
0000
1000
0000
0001
0010
0000
0000
,  // measure 61
1001
0000
0000
0000
;

//---------------dance-single - ----------------
#NOTES:
     dance-single:
     Lisek:
     Challenge:
     10:
     0.746,0.667,0.201,0.011,0.498: // measure 1
0000
0000
0000
0000
,  // measure 2
0000
0000
0000
0000
,  // measure 3
1000
0000
0000
0000
0000
0000
0000
0000
0100
0000
0000
0000
0000
0000
0000
0000
1000
0000
0000
0000
0000
0000
0000
0000
0010
0000
0000
0000
1000
0010
0100
0010
,  // measure 4
1000
0000
0000
0000
0000
0000
0000
0000
0001
0000
0000
0000
0000
0000
0000
0000
0100
0000
0000
0000
0001
0000
0000
0000
0100
0001
0010
0001
0100
0000
0000
0000
,  // measure 5
0001
0010
1000
0010
0001
0100
1000
0100
,  // measure 6
0001
0010
1000
0001
0100
1000
0001
1000
,  // measure 7
1000
0010
0001
0010
1000
0100
0001
0100
,  // measure 8
1000
0010
0001
1000
0100
0000
0001
1000
,  // measure 9
0001
0100
1000
0100
0001
0010
1000
0010
,  // measure 10
0001
0100
1000
0001
0010
1000
0001
0001
,  // measure 11
1000
0100
0001
0100
1000
0010
0001
0010
,  // measure 12
1000
0000
0001
0100
0001
0000
1000
0100
1000
0001
0100
0001
1000
0000
0000
0000
,  // measure 13
0001
0100
1000
0100
0010
0100
1000
0100
,  // measure 14
0001
0010
1000
0001
0100
1000
0001
1000
,  // measure 15
1000
0100
0001
0100
0010
0001
0010
0100
,  // measure 16
1000
0010
0001
1000
0100
0001
1000
0001
,  // measure 17
0001
0100
1000
0100
0001
1000
0100
0001
,  // measure 18
0100
1000
0001
0100
0010
1000
0001
0100
,  // measure 19
0010
0100
0001
1000
0010
0000
0000
0010
0000
0000
0100
0000
0000
0100
0000
0000
,  // measure 20
0001
0010
1000
0010
0100
1000
0010
0100
,  // measure 21
0001
0100
1000
0001
0010
0000
1001
0000
,  // measure 22
1000
0100
0001
0100
0010
0001
0100
1000
,  // measure 23
0100
0001
1000
0010
0100
0001
1000
0010
0100
0000
0000
0000
0110
0000
0000
0000
,  // measure 24
0001
0010
1000
0010
0100
1000
0010
0100
,  // measure 25
0001
0010
1000
0001
0100
0000
1001
0000
,  // measure 26
1000
0100
0001
0100
0010
0001
1000
0010
,  // measure 27
1000
0000
0001
0100
0001
0000
1000
0010
1000
0001
0100
0001
1000
0000
0000
0000
,  // measure 28
0001
1000
0100
0001
0100
1000
0001
1000
,  // measure 29
0010
0001
0010
1000
0001
0000
1001
0000
,  // measure 30
1000
0001
0100
1000
0100
0001
1000
0001
,  // measure 31
0010
0001
0010
0100
1000
0100
0010
0001
0010
0000
0000
0000
0011
0000
0000
0000
,  // measure 32
1000
0000
0100
0010
0000
0010
0001
0000
0001
1000
0000
1000
,  // measure 33
0010
0000
0010
0100
0000
0100
0010
0000
0000
0110
0000
0000
,  // measure 34
0100
0000
0010
1000
0000
1000
0100
0010
0001
0100
0010
1000
,  // measure 35
2001
0010
0001
3010
,  // measure 36
1000
0000
0010
0000
1000
0010
0000
0100
0010
0000
1000
0010
0000
0100
0010
0000
,  // measure 37
1000
0000
0001
0000
0100
0001
0000
0010
0001
0000
0100
0001
0000
0010
0001
0000
,  // measure 38
0100
0000
0010
0000
1000
0010
0000
0100
0010
0000
1000
0010
0000
0100
0010
0000
,  // measure 39
1000
0000
0001
0000
0100
0001
0000
0010
0001
0000
0100
0001
0000
0010
0001
0000
,  // measure 40
1000
0000
0100
0000
1000
0001
0000
0100
0001
0000
1000
0001
0000
0100
0001
0000
,  // measure 41
1000
0000
0010
0000
0100
0001
0000
1000
0001
0000
0100
0001
0000
1000
0001
0000
,  // measure 42
1000
0000
0001
0000
0100
0010
0000
0100
0001
0000
0100
0010
0000
0100
0001
0000
,  // measure 43
1000
0000
0010
0000
1000
0100
0000
1000
0010
0000
1000
0100
0000
1000
0010
0000
,  // measure 44
1010
0100
0011
1000
,  // measure 45
0101
0110
1001
M00M
,  // measure 46
0001
1000
0100
0001
0100
0010
0100
1000
,  // measure 47
0001
0100
1000
0100
0001
0000
1001
0000
,  // measure 48
1000
0001
0100
1000
0100
0001
0010
0100
,  // measure 49
0010
0001
0100
0010
0100
0001
0010
0001
0100
0000
0000
0000
0110
0000
0000
0000
,  // measure 50
0010
1000
0100
0001
0100
1000
0010
0100
,  // measure 51
0001
0100
1000
0100
0001
0000
1001
0000
,  // measure 52
1000
0010
1000
0100
0001
0100
1000
0001
,  // measure 53
0100
0000
0010
0100
0010
0000
1000
0100
1000
0001
0100
0001
1000
0000
0000
0000
,  // measure 54
0001
0010
1000
0010
0100
1000
0100
0010
,  // measure 55
0100
1000
0001
0100
0010
0000
1001
0000
,  // measure 56
1000
0100
0001
0100
0010
0001
0010
0100
,  // measure 57
1000
0100
1000
0001
0100
0001
1000
0001
0100
0000
0000
0000
0110
0000
0000
0000
,  // measure 58
0010
0000
1000
0100
0000
0100
0010
0000
0010
0001
0000
0001
,  // measure 59
0100
0000
0100
0010
0000
0010
0100
0000
0000
0110
0000
0000
,  // measure 60
0010
0000
1000
0100
0000
0100
0010
0001
1000
0010
1000
0001
,  // measure 61
1001
0000
0000
0000
;

//---------------dance-single - ----------------
#NOTES:
     dance-single:
     Lisek:
     Beginner:
     1:
     0.085,0.127,0.021,0.000,0.000:
0000
0000
0000
0000
,
0000
0000
0000
0000
,
0000
0000
0000
0000
,
0000
0000
0000
0000
,
1000
0000
0000
0000
,
0001
0000
0000
0000
,
1000
0000
0000
0000
,
0001
0000
0000
0000
,
0100
0000
0000
0000
,
0010
0000
0000
0000
,
0100
0000
0000
0000
,
0010
0000
0000
0000
,
1000
0000
0000
0000
,
0100
0000
0000
0000
,
1000
0000
0000
0000
,
0100
0000
0000
0000
,
1000
0000
0000
0000
,
0000
0000
0000
0000
,
0000
0000
0000
0000
,
0001
0000
0000
0000
,
0100
0000
0000
0000
,
0010
0000
0000
0000
,
1000
0000
0000
0000
,
0001
0000
0000
0000
,
0010
0000
0000
0000
,
0100
0000
0000
0000
,
1000
0000
0000
0000
,
0001
0000
0000
0000
,
0100
0000
0000
0000
,
0001
0000
0000
0000
,
1000
0000
0000
0000
,
0010
0000
0000
0000
,
0010
0000
0000
0000
,
0010
0000
0000
0000
,
0110
0000
0000
0000
,
1000
0000
0000
0000
,
0001
0000
0000
0000
,
1000
0000
0000
0000
,
0001
0000
0000
0000
,
0100
0000
0000
0000
,
0010
0000
0000
0000
,
0100
0000
0000
0000
,
0010
0000
0000
0000
,
1000
0000
0000
0000
,
0000
0000
0000
0000
,
0001
0000
0000
0000
,
0100
0000
0000
0000
,
0010
0000
0000
0000
,
1000
0000
0000
0000
,
0001
0000
0000
0000
,
0010
0000
0000
0000
,
0100
0000
0000
0000
,
1000
0000
0000
0000
,
0001
0000
0000
0000
,
0100
0000
0000
0000
,
0001
0000
0000
0000
,
1000
0000
0000
0000
,
0010
0000
0000
0000
,
0010
0000
0000
0000
,
0010
0000
0000
0000
,
0110
0000
0000
0000
;

//---------------dance-single - ----------------
#NOTES:
     dance-single:
     Lisek:
     Easy:
     3:
     0.201,0.222,0.032,0.117,0.000: // measure 1
0000
0000
0000
0000
,  // measure 2
0000
0000
0000
0000
,  // measure 3
1000
0000
0001
0000
,  // measure 4
0100
0000
0010
0000
,  // measure 5
1000
0000
0010
0000
,  // measure 6
0100
0000
0010
0000
,  // measure 7
1000
0000
0001
0000
,  // measure 8
0100
0000
0001
0000
,  // measure 9
1000
0000
0100
0000
,  // measure 10
1000
0000
0010
0000
,  // measure 11
1000
0000
0001
0000
,  // measure 12
0200
0000
0000
0300
,  // measure 13
0001
0000
0100
0000
,  // measure 14
0001
0000
1000
0000
,  // measure 15
0001
0000
0010
0000
,  // measure 16
0100
0000
0010
0000
,  // measure 17
0001
0000
1000
0000
,  // measure 18
0000
0001
0000
1000
,  // measure 19
0000
0001
0000
0000
,  // measure 20
1000
0000
0100
0000
,  // measure 21
0010
0000
0001
0001
,  // measure 22
1000
0000
0010
0000
,  // measure 23
0100
0100
0100
0000
,  // measure 24
0001
0000
1000
0000
,  // measure 25
0010
0000
0100
0100
,  // measure 26
0001
0000
1000
0000
,  // measure 27
0001
0001
0001
0000
,  // measure 28
1000
0000
0100
0000
,  // measure 29
0010
0000
0001
0001
,  // measure 30
1000
0000
0010
0000
,  // measure 31
1000
1000
1000
0000
,  // measure 32
0001
0000
1000
0000
,  // measure 33
0001
0000
1000
0001
,  // measure 34
1000
0000
0010
0000
,  // measure 35
1001
0000
0000
0000
,  // measure 36
0002
0000
0000
0000
,  // measure 37
2003
0000
0000
0000
,  // measure 38
3020
0000
0000
0000
,  // measure 39
0230
0000
0000
0000
,  // measure 40
0302
0000
0000
0000
,  // measure 41
0023
0000
0000
0000
,  // measure 42
0230
0000
0000
0000
,  // measure 43
2300
0000
0000
0000
,  // measure 44
3001
0000
1000
0000
,  // measure 45
2002
0000
3003
0000
,  // measure 46
1000
0000
0010
0000
,  // measure 47
0100
0000
0010
0010
,  // measure 48
1000
0000
0001
0000
,  // measure 49
0100
0100
0100
0000
,  // measure 50
0001
0000
1000
0000
,  // measure 51
0010
0010
0100
0000
,  // measure 52
0001
0000
0010
0000
,  // measure 53
0001
0001
0001
0000
,  // measure 54
1000
0000
0010
0000
,  // measure 55
0100
0000
0010
0010
,  // measure 56
1000
0000
0001
0000
,  // measure 57
0100
0100
0100
0000
,  // measure 58
0001
0000
1000
0000
,  // measure 59
0001
0000
0100
0001
,  // measure 60
1000
0000
0001
0000
,  // measure 61
1001
0000
0000
0000
;
