#TITLE:It's Only The Fairy Tale;
#SUBTITLE:;
#ARTIST:Miyamura Yuko;
#TITLETRANSLIT:;
#SUBTITLETRANSLIT:;
#ARTISTTRANSLIT:;
#CREDIT:Lisek;
#BANNER:It's Only The Fairy Tale.png;
#BACKGROUND:It's Only The Fairy Tale-bg.png;
#LYRICSPATH:It's Only The Fairy Tale.lrc;
#CDTITLE:cdtitle.png;
#MUSIC:It's Only The Fairy Tale.ogg;
#OFFSET:-5.249;
#SAMPLESTART:65.989;
#SAMPLELENGTH:21.700;
#SELECTABLE:YES;
#BPMS:0.000=50.000;
#STOPS:;
#BGCHANGES:;

//---------------dance-single - ----------------
#NOTES:
     dance-single:
     Lisek:
     Beginner:
     1:
     0.059,0.066,0.007,0.091,0.000:
1000
0000
0000
0000
,
0001
0000
0000
0000
,
0100
0000
0000
0000
,
0010
0000
0000
0000
,
1000
0000
0000
0000
,
0100
0000
0000
0000
,
0010
0000
0000
0000
,
0001
0000
0000
0000
,
0000
0000
0000
1000
,
0000
0010
0000
1000
,
0000
0010
0000
0100
,
0000
0001
0000
0100
,
0000
0001
0000
1000
,
0000
0100
0000
0010
,
0000
0001
0000
1000
,
0000
0010
0000
0100
,
0000
0010
0000
1000
,
0000
0000
0002
0000
0000
0003
2000
0000
,
0000
3000
0002
0000
0000
0003
0200
0000
,
0000
0300
0002
0000
0000
0003
2000
0000
,
0000
3000
0002
0000
0000
0003
0200
0000
,
0000
0300
0001
0000
0000
0000
1000
0000
,
0000
0001
0000
1000
,
0000
0010
0000
0100
,
0000
0010
0000
1000
,
0000
0000
0002
0000
0000
0003
2000
0000
,
0000
3000
0002
0000
0000
0003
2002
0000
,
0000
0000
3003
0000
0000
0000
0000
0000
0000
0000
0000
0000
;

//---------------dance-single - ----------------
#NOTES:
     dance-single:
     Lisek:
     Easy:
     2:
     0.078,0.076,0.007,0.105,0.000:
1000
0000
0010
0000
,
1000
0000
0001
0000
,
0100
0000
0010
0000
,
0100
0000
0001
0000
,
0010
0000
0001
0000
,
0010
0000
0001
0000
,
1000
0000
0100
0000
,
1000
0000
0001
1000
,
0000
0000
0000
0001
,
0000
0010
0000
0100
,
1000
0010
0000
1000
,
0000
0010
0000
0100
,
0001
1000
0000
0001
,
0000
1000
0000
0010
,
0100
0001
0000
1000
,
0000
0100
0000
1000
,
0100
0020
0030
0002
,
0003
0000
2000
0000
0000
3000
0020
0000
,
0000
0030
0200
0000
0000
0300
0002
0000
,
0000
0003
2000
0000
0000
3000
0200
0000
,
0000
0300
0020
0000
0000
0030
0002
0000
,
0000
0003
1000
0000
0000
0000
0010
0000
,
0000
1000
0000
0001
,
0000
0010
0001
1000
,
0001
1000
0010
1000
,
0001
0000
2000
0000
0000
3000
0200
0000
,
0000
0300
0020
0000
0000
0030
2002
0000
,
0000
0000
3003
0000
0000
0000
0000
0000
0000
0000
0000
0000
;

//---------------dance-single - ----------------
#NOTES:
     dance-single:
     Lisek:
     Medium:
     3:
     0.140,0.161,0.035,0.161,0.031:
1000
0010
0100
0001
,
1000
0100
0010
0001
,
1000
0010
0100
0010
,
1000
0001
0100
0001
,
1000
0100
0010
0001
,
0001
0010
0100
1000
,
1000
0010
0100
0001
,
0001
0010
0100
1000
,
0002
2003
3002
1003
,
0010
0000
0000
0100
0000
0000
0001
0000
0000
0020
0000
0030
,
0002
0000
0003
0200
0000
0000
0000
0000
0300
0001
0000
0000
,
1000
0000
0000
0010
0000
0000
0100
0000
0000
0020
0000
0030
,
2000
0000
3000
0200
0000
0000
0000
0000
0300
1000
0000
0000
,
0010
0100
0110
1000
,
0100
1000
1100
0001
,
0100
0010
0110
0001
,
1000
0010
1001
0000
,
0000
0000
0000
2000
0000
0000
3100
0100
0000
0200
0000
0000
,
0310
0010
0000
0020
0000
0000
0031
0001
0000
0002
0000
0000
,
1003
1000
0000
2000
0000
0000
3010
0010
0000
0020
0000
0000
,
0130
0100
0000
0200
0000
0000
0301
0001
0000
0002
0000
0000
,
2003
3001
0010
1000
,
0010
0001
1000
0100
,
1000
0010
1000
0001
,
1000
0001
0100
1000
,
0100
0000
0000
0002
0000
0000
0013
0010
0000
0002
0000
0000
,
0103
0100
0000
0002
0000
0000
0003
0000
0000
2002
0000
0000
,
0000
0000
3003
0000
0000
0000
0000
0000
0000
0000
0000
0000
;

//---------------dance-single - ----------------
#NOTES:
     dance-single:
     Lisek:
     Hard:
     6:
     0.316,0.313,0.056,0.265,0.569: // measure 1
1000
0000
0001
0100
0010
1000
0100
0000
1000
0010
0000
1000
,  // measure 2
0100
0000
1000
0010
0100
0001
0010
0000
0000
1001
0000
0000
,  // measure 3
1000
0000
0010
0100
0010
1000
0001
0000
0010
0001
0000
0100
,  // measure 4
0010
1000
0100
1000
0010
0100
0001
0000
0000
1001
0000
0001
,  // measure 5
0010
0100
1000
0000
0100
0000
0010
0000
0001
0000
0100
0000
0010
0000
1000
0000
0100
0000
1000
0000
0000
0000
0001
0000
,  // measure 6
0100
0010
0100
0000
0010
0000
1000
0000
0010
0000
0100
0000
0001
0000
0000
0000
0100
0000
0010
0000
0000
0000
1000
0000
,  // measure 7
0100
0010
0001
0000
0010
0000
0100
0000
0010
0000
0001
0000
0010
0000
0100
0000
1000
0000
0001
0000
0000
0000
1000
0000
,  // measure 8
0010
0100
0010
1000
0001
0010
0001
0000
0000
0110
0000
0000
,  // measure 9
0001
0200
0300
1000
0200
0300
0001
2000
3000
0001
0100
0010
,  // measure 10
1000
0100
0000
0010
0100
1000
0001
0100
0000
0001
0100
0100
,  // measure 11
0001
0010
0010
0001
1000
1000
0001
0100
0000
0001
0100
1000
,  // measure 12
0100
0001
0000
1000
0100
0001
0100
1000
0000
0001
0100
0100
,  // measure 13
1000
0000
0100
0000
0100
0000
0001
0000
0100
0000
0100
0000
0010
0000
1000
0000
0000
0000
0001
1000
0001
0000
0100
0000
,  // measure 14
0010
0000
1000
0000
1000
0000
0001
0000
0100
0000
0010
0000
1000
0000
0010
0000
0010
0000
1000
0100
0001
0000
0100
0000
,  // measure 15
1000
0000
0010
0000
0010
0000
1000
0000
0100
0000
0010
0000
0001
0000
0100
0000
0100
0000
0001
0100
0010
0000
1000
0000
,  // measure 16
0100
0010
0010
0100
1000
0001
1001
0000
0001
0100
1000
0100
,  // measure 17
0001
0000
0100
0000
1000
0000
0100
0000
0000
0000
0000
0100
0001
0000
0001
0000
0000
0000
1000
0000
0010
0000
1000
0000
,  // measure 18
1000
0100
0000
2000
0000
0000
3200
0302
0203
2300
3020
0230
,  // measure 19
0302
0000
0000
0203
2300
3200
0302
0203
0320
2030
0000
0000
,  // measure 20
3002
0000
0000
0023
0000
0000
0032
0023
2030
3020
0032
2003
,  // measure 21
3020
0000
0000
2030
3200
0302
0203
2300
3002
2003
0000
0000
,  // measure 22
3002
0000
0000
0000
0000
0000
1003
0100
1000
0000
0010
0000
0100
0000
0001
0000
0010
0000
0001
0000
0001
0000
0100
0000
,  // measure 23
0010
0000
0000
0000
1000
0000
0100
1000
0010
0000
0100
0000
0001
0000
0100
0000
0010
0000
2000
0000
0000
0000
3100
0000
,  // measure 24
1000
0000
0001
0010
0100
1000
0001
0100
0010
0000
1000
0000
0100
0000
1000
0000
0010
0000
1000
0000
0100
0000
0001
0000
,  // measure 25
0100
0000
0000
0000
1000
0000
0010
0000
0100
0000
0001
0000
0100
0000
1000
0000
0100
0000
0001
0000
0000
0000
0000
0001
,  // measure 26
0100
0000
0000
1001
0100
0001
0001
0001
0000
1001
0010
1000
,  // measure 27
1000
1000
0000
1001
0100
0010
0000
0000
0000
2002
0000
0000
,  // measure 28
0000
0000
3003
0000
0000
0000
0000
0000
0000
0000
0000
0000
;
