#TITLE:Feel Invincible;
#ARTIST:Skillet;
#CREDIT:Lisek;
#BANNER:Feel Invincible.png;
#BACKGROUND:Feel Invincible-bg.png;
#LYRICSPATH:;
#CDTITLE:cdtitle.png;
#MUSIC:Feel Invincible.ogg;
#OFFSET:-0.590544;
#SAMPLESTART:26.62;
#SAMPLELENGTH:15.95;
#SELECTABLE:YES;
#BPMS:0.000000=126;
#STOPS:;
#BGCHANGES:;
#KEYSOUNDS:;
#ATTACKS:;

//---------------dance-single - Lisek----------------
#NOTES:
     dance-single:
     Lisek:
     Hard:
     8:
     0.479562,0.568707,0.403986,0.240468,0.480936,349.000000,303.000000,42.000000,25.000000,0.000000,24.000000,0.479562,0.568707,0.403986,0.240468,0.480936,349.000000,303.000000,42.000000,25.000000,0.000000,24.000000:
// measure 0
0000
0000
0000
0000
,  // measure 1
0000
0000
0000
0000
,  // measure 2
1001
0000
0000
1001
0000
0000
0001
0100
0010
1000
0000
0000
,  // measure 3
1001
0110
1001
0110
,  // measure 4
2000
0000
0000
0010
0000
0000
0100
0000
0000
0010
0000
0000
3001
0000
0000
0000
,  // measure 5
0002
0000
0000
0100
0000
0000
0010
0000
0000
0100
0000
0000
1003
0000
0000
0000
,  // measure 6
1000
0000
1000
0100
0000
0100
0010
0000
0010
0001
0000
0001
,  // measure 7
1000
0000
1000
0010
0000
0010
1000
0000
1000
0010
0000
0010
,  // measure 8
1000
0000
0000
1010
0000
0000
0001
0000
0000
0101
0000
0100
,  // measure 9
0001
0000
0001
0100
0000
0100
0000
0000
0000
0010
0000
1000
,  // measure 10
0001
0100
0001
0100
0000
0100
0010
1000
0010
1000
0000
1000
,  // measure 11
0100
0010
0001
0010
0000
0010
0001
0010
0100
1000
0000
0000
,  // measure 12
0001
0010
1000
0010
0001
0100
1000
0100
0001
1000
0000
0000
,  // measure 13
1000
0010
0001
0010
0100
0001
0010
0000
0100
1000
0000
0100
,  // measure 14
1100
0110
0011
0101
,  // measure 15
1001
1011
1001
1101
,  // measure 16
1000
0000
0001
0100
0000
0010
1000
0000
0100
0010
0000
0000
,  // measure 17
0001
0000
0100
0001
0000
1000
0010
0000
0100
0010
0000
0000
,  // measure 18
1010
0110
0101
0011
,  // measure 19
1001
1011
1001
1101
,  // measure 20
1000
0000
0001
0100
0000
0010
1000
0000
0100
0010
0000
0001
,  // measure 21
0100
0000
0010
1000
0000
0100
0010
0000
0001
1000
0000
0000
,  // measure 22
0202
0000
0000
0010
0000
0000
1000
0000
0000
0010
0000
1000
,  // measure 23
0313
0000
0001
0100
0000
0100
0002
0000
0000
1003
0000
0000
,  // measure 24
2200
0000
0000
0010
0000
0000
0001
0000
0000
0010
0000
0001
,  // measure 25
3310
0000
1000
0100
0000
0100
2000
0000
0000
3001
0000
0000
,  // measure 26
1000
0010
0001
0100
,  // measure 27
1000
0000
0000
0001
0000
1000
0001
0000
0001
1000
0000
0000
,  // measure 28
1001
0000
0001
0100
0000
0100
0010
0000
0010
1000
0000
0000
,  // measure 29
1001
0000
1000
0100
0000
0100
0010
0000
0010
0100
0000
0000
,  // measure 30
1100
0000
0100
1000
0000
1000
0100
0000
1000
0001
0000
0000
,  // measure 31
0011
0000
0001
0010
0000
0010
0001
0000
0001
1000
0000
0000
,  // measure 32
2000
3020
0032
0203
,  // measure 33
2300
3002
2003
3000
,  // measure 34
0002
1000
1000
1003
,  // measure 35
2000
0001
0001
3001
,  // measure 36
0020
0100
0100
0130
,  // measure 37
0200
0010
0010
0310
,  // measure 38
0100
0010
1000
0001
,  // measure 39
0100
0010
1000
0001
,  // measure 40
1000
0100
0010
0001
,  // measure 41
1000
0000
0000
0000
0000
1000
0001
0000
0001
1000
0000
0000
,  // measure 42
0001
1000
0010
0001
0010
1000
0100
0001
0100
1000
0000
0000
,  // measure 43
0001
0010
1000
0010
0000
0100
1000
0000
1000
0001
0000
0000
,  // measure 44
2200
0000
0000
0010
0000
0000
0001
0000
0000
0010
0000
0010
,  // measure 45
3301
0000
1000
0100
0000
0100
0020
0000
0000
0031
0000
0000
,  // measure 46
0202
0000
0000
0010
0000
0000
1000
0000
0000
0010
0000
0010
,  // measure 47
1303
0000
0001
0100
0000
0100
0020
0000
0000
1030
0000
0000
,  // measure 48
0001
0100
1000
0010
,  // measure 49
0001
0000
0000
1000
0000
0001
1000
0000
1000
0001
0000
0000
,  // measure 50
1001
0000
0000
0110
0000
0000
1000
0100
0001
0100
0000
0000
,  // measure 51
1100
0000
0000
0011
0000
0000
0001
0100
1000
0100
0000
0000
,  // measure 52
0101
0000
0000
1010
0000
0000
1000
0010
0001
0010
0000
0000
,  // measure 53
1010
0101
0110
1001
;

//---------------dance-single - Lisek----------------
#NOTES:
     dance-single:
     Lisek:
     Medium:
     6:
     0.366885,0.439455,0.346274,0.038475,0.149090,267.000000,231.000000,36.000000,4.000000,16.000000,0.000000,0.366885,0.439455,0.346274,0.038475,0.149090,267.000000,231.000000,36.000000,4.000000,16.000000,0.000000:
0000
0000
0000
0000
,
0000
0000
0000
0000
,
0001
0000
0000
0001
0000
0000
1000
0100
1000
0100
0000
0000
,
1000
1000
0001
0001
,
1000
0000
0000
0100
0000
0000
1000
0000
0000
0100
0000
0000
1000
0000
0000
0000
,
0001
0000
0000
0010
0000
0000
0001
0000
0000
0010
0000
0000
0001
0000
0000
0000
,
1000
0001
0100
0010
,
1000
0000
0001
0000
,
1000
0000
0001
1000
0000
0000
0010
0000
0100
0010
0000
0000
,
1000
0000
0100
0010
0000
0000
0001
0000
0010
0100
0000
0000
,
1000
0000
1000
0100
0000
0000
0100
0000
0100
0010
0000
0000
,
0001
0000
0001
0100
0000
0000
0001
0000
0001
1000
0000
0000
,
0010
0100
0001
1000
,
0001
0000
0000
0100
0000
0001
1000
0000
0000
0000
0000
0000
,
1001
1001
0110
0110
,
1010
1010
0101
0101
,
0100
0001
1000
0010
,
1000
0100
0010
0001
,
0011
0011
1100
1100
,
0110
0110
1001
1001
,
0001
1000
0010
0100
,
0001
0010
0100
1000
,
1001
M01M
1001
M01M
,
1001
0001
1000
0001
,
1001
M10M
1001
M10M
,
1001
1000
0001
1000
,
0001
0010
0100
1000
,
0001
0000
0000
0000
0000
1000
0001
0000
0001
1000
0000
0000
,
1001
0001
0100
0010
,
0110
0010
1000
0100
,
1100
1000
0100
0010
,
0011
0010
0100
1000
,
1010
0010
0110
0100
,
0101
0001
2002
3003
,
2000
0010
0010
0010
,
0001
0010
0010
3010
,
0002
1000
1000
1000
,
0100
1000
1000
1003
,
0001
1000
0001
1000
,
0010
0100
0010
0100
,
0001
0010
0001
0010
,
0100
1000
0100
1000
,
0001
1000
0001
1000
0000
0000
0001
1000
0001
1000
0000
0000
,
0001
1000
0010
0010
,
1001
M10M
1001
M10M
,
1001
1000
0001
1000
,
1001
M10M
1001
M10M
,
1001
0001
1000
0001
,
1000
0010
0100
0001
,
1000
0000
0000
0000
0000
0001
1000
0000
1000
0001
0000
0000
,
1000
0000
0000
1000
0000
0000
0001
0100
0001
0100
0000
0000
,
0010
0000
0000
0010
0000
0000
0100
0001
0100
0001
0000
0000
,
0100
0000
0000
0100
0000
0000
0010
1000
0010
1000
0000
0000
,
0001
0000
0000
0001
0000
0000
1000
0010
1000
0010
0000
0000
;

//---------------dance-single - Lisek----------------
#NOTES:
     dance-single:
     Lisek:
     Easy:
     3:
     0.178633,0.232653,0.134662,0.038475,0.000000,130.000000,116.000000,14.000000,4.000000,0.000000,0.000000,0.178633,0.232653,0.134662,0.038475,0.000000,130.000000,116.000000,14.000000,4.000000,0.000000,0.000000:
0000
0000
0000
0000
,
0000
0000
0000
0000
,
0000
0000
0000
0000
,
0000
0000
0000
0000
,
1000
0000
0001
0000
,
1000
0000
0010
0000
,
0100
0000
0001
0000
,
1000
0000
0000
0000
,
0001
0000
1000
0000
,
0001
1000
0001
0000
,
0100
0000
0100
0000
,
0010
0000
0010
0000
,
1000
0001
1000
0001
,
0100
0010
0100
0000
,
0101
0000
0110
0000
,
1010
0000
1001
0000
,
1000
0000
0001
0000
,
0100
0000
0010
0000
,
1010
0000
0110
0000
,
0101
0000
1001
0000
,
1000
0000
0001
0000
,
0100
0000
0010
0000
,
1000
0100
1000
0100
,
1000
0000
1000
0000
,
0001
0010
0001
0010
,
0001
0000
0001
0000
,
1000
0000
0010
0000
,
0100
0000
0000
0000
,
0101
0000
0100
0000
,
0110
0000
0010
0000
,
1010
0000
1000
0000
,
1100
0000
0100
0000
,
0110
0000
0010
0000
,
0011
0000
0001
0000
,
2000
0000
0000
3000
,
0020
0000
0000
0030
,
0200
0000
0000
0300
,
0002
0000
0000
0003
,
1000
0000
0100
0000
,
0010
0000
0001
0000
,
1000
0000
0100
0000
,
0010
0000
0001
0000
,
1000
0100
1000
0100
,
0010
0001
1000
0000
,
0001
0100
0001
0100
,
0001
0000
0001
0000
,
1000
0010
1000
0010
,
1000
0000
1000
0000
,
0001
0000
0010
0000
,
0100
0000
0000
0000
,
1000
1000
0001
1000
,
0001
0001
0100
0010
,
0100
0100
0010
0100
,
0010
0010
1000
0001
;

//---------------dance-single - Lisek----------------
#NOTES:
     dance-single:
     Lisek:
     Beginner:
     1:
     0.064583,0.103401,0.000000,0.038475,0.000000,47.000000,47.000000,0.000000,4.000000,0.000000,0.000000,0.064583,0.103401,0.000000,0.038475,0.000000,47.000000,47.000000,0.000000,4.000000,0.000000,0.000000:
0000
0000
0000
0000
,
0000
0000
0000
0000
,
0000
0000
0000
0000
,
0000
0000
0000
0000
,
1000
0000
0000
0000
,
0001
0000
0000
0000
,
1000
0000
0000
0000
,
0000
0000
0000
0000
,
0001
0000
0000
0000
,
1000
0000
0000
0000
,
0001
0000
0000
0000
,
1000
0000
0000
0000
,
0010
0000
0000
0000
,
0010
0000
0000
0000
,
1000
0000
0000
0000
,
0100
0000
0000
0000
,
1000
0000
0000
0000
,
0100
0000
0000
0000
,
0010
0000
0000
0000
,
0001
0000
0000
0000
,
0010
0000
0000
0000
,
0001
0000
0000
0000
,
1000
0000
0001
0000
,
1000
0000
0000
0000
,
0001
0000
1000
0000
,
0001
0000
0000
0000
,
0100
0000
0000
0000
,
0000
0000
0000
0000
,
0001
0000
0000
0000
,
1000
0000
0000
0000
,
0001
0000
0000
0000
,
1000
0000
0000
0000
,
0010
0000
0000
0000
,
0100
0000
0000
0000
,
0001
0000
0000
0000
,
0000
0000
0000
0000
,
1000
0000
0000
0000
,
0000
0000
0000
0000
,
0010
0000
0000
0000
,
0000
0000
0000
0000
,
0100
0000
0000
0000
,
0000
0000
0000
0000
,
0001
0000
0000
0000
,
1000
0000
0000
0000
,
0001
0000
1000
0000
,
0001
0000
0000
0000
,
1000
0000
0001
0000
,
1000
0000
0000
0000
,
0010
0000
0000
0000
,
0000
0000
0000
0000
,
2000
0000
0000
3000
,
0002
0000
0000
0003
,
2000
0000
0000
3000
,
0002
0000
0000
0003
;
