#TITLE:Alice's Mad Tea Party;
#SUBTITLE:;
#ARTIST:IOSYS;
#TITLETRANSLIT:;
#SUBTITLETRANSLIT:;
#ARTISTTRANSLIT:;
#GENRE:;
#CREDIT:Lisek;
#BANNER:Alice's Mad Tea Party.png;
#BACKGROUND:Alice's Mad Tea Party-bg.png;
#LYRICSPATH:;
#CDTITLE:cdtitle.png;
#MUSIC:Alice's Mad Tea Party.ogg;
#OFFSET:-0.026000;
#SAMPLESTART:73.400002;
#SAMPLELENGTH:13.000000;
#SELECTABLE:YES;
#BPMS:0.000000=147.000000
,148.000000=73.500000
,164.000000=147.000000
;
#STOPS:
;
#BGCHANGES:0.000=Alice's Mad Tea Party.avi=1.000=0=0=1=====,
99999=-nosongbg-=1.000=0=0=0 // don't automatically add -songbackground-
;
#KEYSOUNDS:;
#ATTACKS:;

//---------------dance-single - Lisek----------------
#NOTES:
     dance-single:
     Lisek:
     Hard:
     8:
     0.524579,0.509913,0.494151,0.144837,0.558050,356.000000,58.000000,17.000000,0.000000,0.000000,0.000000,0.524579,0.509913,0.494151,0.144837,0.558050,356.000000,58.000000,17.000000,0.000000,0.000000,0.000000:
// measure 0
0000
0000
0000
0000
,  // measure 1
0000
0000
0000
0000
,  // measure 2
0000
0000
0000
0000
0000
0000
0000
0000
0000
0000
0000
1000
,  // measure 3
0000
0000
0001
0000
0000
0100
0010
0000
0000
1001
0000
0000
,  // measure 4
0001
0000
0010
0100
0000
0100
1000
0000
0000
1010
0000
0000
,  // measure 5
1000
0000
0010
0100
0000
0100
0001
0000
0000
0011
0000
0000
,  // measure 6
0010
0000
0001
0100
0000
0100
0010
0000
0000
1100
0000
0000
,  // measure 7
0100
0000
1000
0010
0000
0010
0100
0000
0000
0101
0000
0000
,  // measure 8
0001
0000
1000
0100
0000
1000
0010
0000
0000
1010
0000
0000
,  // measure 9
1000
0000
0001
0010
0000
0001
0100
0000
0000
0101
0000
0000
,  // measure 10
0100
0000
0010
1000
0000
0100
1000
0000
0000
1100
0000
1001
,  // measure 11
0000
0000
1001
0000
0000
0010
0100
0000
0000
0000
0000
0000
,  // measure 12
0001
0000
0001
0100
0000
0100
0010
0000
0010
1000
0000
0000
,  // measure 13
0010
0000
0010
0100
0000
0100
0001
0000
0001
1000
0000
0000
,  // measure 14
0100
0000
0100
0010
0000
0010
0001
0000
0001
1000
0000
0000
,  // measure 15
1001
0000
0000
0000
0000
0001
0100
0000
0000
1010
0000
0000
,  // measure 16
1000
0000
1000
0100
0000
0100
0010
0000
0010
0100
0000
0000
,  // measure 17
1000
0000
1000
0001
0000
0001
0100
0000
0100
0010
0000
0000
,  // measure 18
1000
0000
0001
0000
0000
0010
0100
0000
0000
1001
0000
2002
,  // measure 19
0000
0000
0000
3003
,  // measure 20
0001
0000
0001
0100
0000
0100
1000
0000
1000
0100
0000
0100
,  // measure 21
0001
0000
0000
0101
0000
0000
1001
0000
0000
0001
0000
1000
,  // measure 22
0100
1000
0010
0100
0000
0010
0100
0000
0001
0100
0000
0010
,  // measure 23
1000
0000
0100
0010
0000
0010
0001
0000
0000
1001
0000
0000
,  // measure 24
1000
0010
0000
1000
0010
0000
0100
0000
0001
0010
0000
0100
,  // measure 25
1000
0000
0000
1100
0000
0000
1001
0000
0000
0001
0000
0100
,  // measure 26
0010
0000
0000
1100
0000
0000
0101
0000
0000
1100
0000
0101
,  // measure 27
0000
0000
1000
0100
0000
0000
0202
0000
0000
0000
0000
0000
,  // measure 28
0303
0000
0000
0000
,  // measure 29
1000
0000
1000
0100
0000
0100
0001
0000
0001
0100
0000
0100
,  // measure 30
1000
1100
1001
0000
,  // measure 31
0001
0000
0100
0010
0000
0000
1000
0000
0100
0010
0000
0000
,  // measure 32
0001
0000
0100
0010
0000
1000
0001
0000
0100
0110
0000
0000
,  // measure 33
0001
0000
0001
0100
0000
0100
1000
0000
1000
0100
0000
0100
,  // measure 34
0001
0000
0000
0101
0000
0000
1001
0000
0000
0000
0000
1000
,  // measure 35
0000
0000
0100
0010
0000
0000
0001
0000
0100
0010
0000
0000
,  // measure 36
1010
0110
0101
0000
,  // measure 37
2000
3020
0032
0203
,  // measure 38
2300
3002
2003
0000
,  // measure 39
3002
0203
2300
3020
,  // measure 40
0032
0000
0000
0000
0000
0000
2003
0000
0000
0000
0000
3001
0000
0000
1000
0000
0000
0010
0100
0000
0000
1001
0000
0000
,  // measure 41
1000
0000
1000
0010
0000
0010
0001
0000
0001
0010
0000
0010
,  // measure 42
1000
1010
1001
0000
,  // measure 43
0001
0000
1000
0100
0000
0000
1000
0000
0001
0010
0000
0000
,  // measure 44
0001
0000
0100
0010
0000
1000
0100
0000
0010
0110
0000
0000
,  // measure 45
0001
0000
0001
0010
0000
0010
1000
0000
1000
0010
0000
0010
,  // measure 46
0001
0000
0000
0011
0000
0000
1001
0000
0000
0000
0000
0001
,  // measure 47
0000
0000
1000
0010
0000
0000
1000
0000
0001
0100
0000
0000
,  // measure 48
0001
0000
1000
0001
0100
0001
1000
0000
0000
1001
0000
0000
,  // measure 49
1000
0000
1000
0100
0000
0100
0001
0000
0001
0100
0000
0100
,  // measure 50
1000
1100
1001
0000
,  // measure 51
0001
0000
0100
0010
0000
0000
1000
0000
0100
0010
0000
0000
,  // measure 52
0001
0000
0100
0010
0000
1000
0001
0000
0100
0110
0000
0000
,  // measure 53
0001
0000
0001
0100
0000
0100
1000
0000
1000
0100
0000
0100
,  // measure 54
0001
0000
0000
0101
0000
0000
1001
0000
0000
0000
0000
1000
,  // measure 55
0000
0000
0100
0010
0000
0000
0001
0000
0100
0010
0000
0000
,  // measure 56
1001
0110
1001
0000
,  // measure 57
1000
0000
0100
0010
0000
0010
0001
0000
0000
0011
0000
0000
,  // measure 58
0001
0000
0100
0010
0000
0010
1000
0000
0000
1010
0000
0000
,  // measure 59
0010
0000
1000
0010
0000
0100
0001
0000
0000
0101
0000
0000
,  // measure 60
0100
0000
0010
1000
0000
1000
0100
0000
0000
1100
0000
0000
,  // measure 61
1000
0000
0001
0010
0000
0100
1000
0000
0000
1100
0000
0000
,  // measure 62
1000
0000
0100
0010
0000
0010
0001
0000
0000
0011
0000
0000
,  // measure 63
0001
0000
0100
0010
0000
1000
0010
0000
0000
1010
0000
0000
,  // measure 64
1000
0000
0010
0100
0000
0100
0001
0000
0000
0101
0000
0000
,  // measure 65
1001
0000
0000
0000
0000
1000
0100
0000
0001
0100
0000
1000
,  // measure 66
0100
0110
1001
0000
;

//---------------dance-single - Lisek----------------
#NOTES:
     dance-single:
     Lisek:
     Medium:
     6:
     0.394347,0.453256,0.468592,0.136318,0.178917,253.000000,55.000000,16.000000,0.000000,0.000000,0.000000,0.394347,0.453256,0.468592,0.136318,0.178917,253.000000,55.000000,16.000000,0.000000,0.000000,0.000000:
0000
0000
0000
0000
,
0000
0000
0000
0000
,
0000
0000
0000
0000
,
0000
0000
0000
0000
,
0000
1000
0100
1100
,
0000
0001
0100
0101
,
0000
1000
0010
1010
,
0000
0001
0010
0011
,
0000
1000
0001
1001
,
0000
0100
0010
0110
,
0000
0000
0000
0001
0000
0000
1000
0000
0000
1001
0000
1000
,
0000
0000
0001
0000
0000
1000
0001
0000
0000
0000
0000
0000
,
1000
0000
0000
0010
0000
0000
1000
0000
0100
1000
0000
0000
,
0010
0000
0000
0100
0000
0000
0001
0000
0100
0010
0000
0000
,
1000
0000
0000
0100
0000
0000
1000
0000
0010
0100
0000
0000
,
0110
0000
0000
0000
0000
1000
0001
0000
0000
1001
0000
0000
,
0001
0000
0000
0100
0000
0000
0010
0000
0100
0001
0000
0000
,
1000
0000
0000
0100
0000
0000
1000
0000
0010
1000
0000
0000
,
0001
0000
1000
0000
0000
0010
0100
0000
0000
0001
0000
1000
,
0000
0010
0100
0000
,
0001
0000
0100
0001
0000
0000
1000
0000
0010
1000
0000
0000
,
1010
0110
0101
0000
,
0001
0001
1000
1000
,
0010
0000
0000
0100
0000
0010
0100
0000
0000
0000
0000
0000
,
0001
1000
0000
0001
1000
0000
0001
0000
0000
1000
0000
0000
,
1100
0110
0011
0001
,
1001
0000
0000
0110
0000
0000
1001
0000
0000
1000
0000
0001
,
0000
0000
0100
0010
0000
0000
2002
0000
0000
0000
0000
0000
,
3003
0000
0000
0000
,
1000
0000
0100
1000
0000
0000
0001
0000
0010
0001
0000
0000
,
0101
1001
1010
0000
,
1000
0100
0010
0001
,
0100
0010
1000
0001
,
1000
0000
0010
1000
0000
0000
0001
0000
0100
0001
0000
0000
,
0011
0110
1100
0000
,
1000
1000
0001
0001
,
1001
0110
1001
0000
,
2000
3200
0320
0032
,
2003
3200
0320
0032
,
2003
3002
0023
0230
,
2300
0000
0000
0000
0000
0000
3002
0000
0000
0000
0000
1003
0000
0000
0001
0000
0000
0100
0010
0000
0000
0000
0000
0000
,
1000
0000
0100
0010
0000
0000
0001
0000
0010
0100
0000
0000
,
1100
1001
0011
0000
,
0001
0100
0010
1000
,
0100
0010
0001
1000
,
0001
0000
0010
0100
0000
0000
1000
0000
0100
0010
0000
0000
,
0101
0110
1010
0000
,
1000
1000
0001
0001
,
0100
0010
1000
0001
,
1000
0000
0001
1000
0000
0000
0010
0000
0100
0010
0000
0000
,
1010
0110
0101
0000
,
0001
1000
0100
0010
,
0100
1000
0001
1000
,
0001
0000
1000
0010
0000
0000
1000
0000
0001
0010
0000
0000
,
0011
1001
1100
0000
,
1000
1000
0001
0001
,
1001
0110
1001
0000
,
0000
0000
0000
1000
0000
0010
1000
0000
0000
1010
0000
0000
,
0000
0000
0000
0001
0000
0100
0001
0000
0000
0101
0000
0000
,
0000
0000
0000
1000
0000
0100
1000
0000
0000
1100
0000
0000
,
0000
0000
0000
0001
0000
0010
0001
0000
0000
0011
0000
0000
,
0000
0000
0000
1000
0000
0010
1000
0000
0000
1010
0000
0000
,
0000
0000
0000
0001
0000
1000
0001
0000
0000
1001
0000
0000
,
0000
0000
0000
0001
0000
0010
0001
0000
0000
0011
0000
0000
,
0000
0000
0000
1000
0000
0001
1000
0000
0000
1001
0000
0000
,
0110
0000
0100
0010
,
1001
0110
1001
0000
;

//---------------dance-single - Lisek----------------
#NOTES:
     dance-single:
     Lisek:
     Beginner:
     1:
     0.073027,0.084985,0.000000,0.025560,0.000000,57.000000,0.000000,3.000000,0.000000,0.000000,0.000000,0.073027,0.084985,0.000000,0.025560,0.000000,57.000000,0.000000,3.000000,0.000000,0.000000,0.000000:
0000
0000
0000
0000
,
0000
0000
0000
0000
,
0000
0000
0000
0000
,
0000
0000
0000
0000
,
1000
0000
0000
0000
,
0001
0000
0000
0000
,
0100
0000
0000
0000
,
0010
0000
0000
0000
,
1000
0000
0000
0000
,
0001
0000
0000
0000
,
0100
0000
0000
0000
,
0000
0000
0000
0000
,
0001
0000
0000
0000
,
1000
0000
0000
0000
,
0001
0000
0000
0000
,
1000
0000
0000
0000
,
0010
0000
0000
0000
,
0100
0000
0000
0000
,
0010
0000
0000
0000
,
0000
0000
0000
0000
,
1000
0000
0000
0000
,
0100
0000
0000
0000
,
0010
0000
0000
0000
,
0001
0000
0000
0000
,
1000
0000
0000
0000
,
0001
0000
0000
0000
,
1000
0000
0000
0000
,
0000
0000
0000
0000
,
0000
0000
0000
0000
,
0001
0000
0000
0000
,
1000
0000
0000
0000
,
0010
0000
0000
0000
,
0100
0000
0000
0000
,
0001
0000
0000
0000
,
1000
0000
0000
0000
,
0010
0000
0000
0000
,
0000
0000
0000
0000
,
2000
0000
0000
0000
,
0000
0000
0000
0000
0000
0000
0000
0000
0000
0000
0000
3000
,
0002
0000
0000
0000
,
0000
0000
0000
0000
0000
0003
0000
0000
0000
0000
0000
0000
,
1000
0000
0000
0000
,
0100
0000
0000
0000
,
0010
0000
0000
0000
,
0001
0000
0000
0000
,
1000
0000
0000
0000
,
0010
0000
0000
0000
,
0100
0000
0000
0000
,
0001
0000
0000
0000
,
1000
0000
0000
0000
,
0100
0000
0000
0000
,
0010
0000
0000
0000
,
0001
0000
0000
0000
,
1000
0000
0000
0000
,
0010
0000
0000
0000
,
0100
0000
0000
0000
,
0020
0000
0030
0000
,
1000
0000
0000
0000
,
0001
0000
0000
0000
,
0100
0000
0000
0000
,
0010
0000
0000
0000
,
1000
0000
0000
0000
,
0001
0000
0000
0000
,
0100
0000
0000
0000
,
0010
0000
0000
0000
,
1000
0000
0000
0000
,
0010
0000
0010
0000
;

//---------------dance-single - Lisek----------------
#NOTES:
     dance-single:
     Lisek:
     Easy:
     4:
     0.289675,0.453256,0.238556,0.144837,0.000000,193.000000,28.000000,17.000000,0.000000,0.000000,0.000000,0.289675,0.453256,0.238556,0.144837,0.000000,193.000000,28.000000,17.000000,0.000000,0.000000,0.000000:
0000
0000
0000
0000
,
0000
0000
0000
0000
,
0000
0000
0000
0000
,
0000
0000
0000
0000
,
1000
0000
0010
0000
,
1000
0000
0100
0000
,
1000
0000
0010
0000
,
1000
0000
0200
0000
,
0310
0000
0001
0000
,
0100
0000
0001
0000
,
0010
0000
0002
0000
,
0003
0000
0000
0000
,
1000
0100
1000
0100
,
1000
0001
1000
0001
,
0100
0001
0100
0001
,
0100
0000
0000
0000
,
0001
0100
0001
0100
,
0001
1000
0001
1000
,
0010
1000
0010
1000
,
0010
0000
0000
0000
,
1000
0100
0010
0001
,
0100
0100
0100
0000
,
0010
1000
0001
0100
,
0010
1000
0001
0000
,
1000
1000
0010
0100
,
0010
0010
0010
1000
,
0001
0010
0100
1000
,
0001
1000
0002
0000
,
0003
0000
0000
0000
,
1000
1000
0001
0001
,
1001
1001
1001
0000
,
0001
0100
0001
1000
,
0001
0100
0001
1000
,
0001
0001
1000
1000
,
1001
1001
1001
0000
,
1000
0010
0100
0010
,
0110
0110
0110
0000
,
0002
0203
0302
0203
,
0302
0203
0302
0203
,
0320
2030
3020
2030
,
3020
0000
0000
0000
0000
0000
2030
0000
0000
0000
0000
3000
0000
0000
0000
0000
0000
0000
0000
0000
0000
0000
0000
0000
,
0001
0001
0100
0100
,
0101
0101
0101
0000
,
1000
0010
0100
0010
,
1000
0001
0100
0001
,
1000
1000
0010
0010
,
1010
1010
1010
0000
,
1000
0001
0010
0001
,
0100
0001
1000
0001
,
0100
0100
0010
0010
,
0110
0110
0110
0000
,
0100
0001
1000
0100
,
0010
0001
1000
0001
,
1000
1000
0001
0001
,
1001
1001
1001
0000
,
1000
0100
0010
0100
,
0110
0110
0110
0000
,
0001
0000
1000
0000
,
0010
0000
0100
0000
,
0001
0000
0010
0000
,
0100
0000
1000
0000
,
0001
0000
1000
0000
,
0010
0000
0100
0000
,
0001
0000
1000
0000
,
0100
0000
1000
0000
,
1001
0000
1000
0001
,
1001
1001
1001
0000
;
