#TITLE:Tainai Hitogata Yuugi;
#SUBTITLE:;
#ARTIST:ALI Project;
#TITLETRANSLIT:;
#SUBTITLETRANSLIT:;
#ARTISTTRANSLIT:;
#GENRE:;
#CREDIT:;
#BANNER:;
#BACKGROUND:;
#LYRICSPATH:;
#CDTITLE:cdtitle.png;
#MUSIC:Tainai Hitogata Yuugi.ogg;
#OFFSET:-0.326;
#SAMPLESTART:63.907;
#SAMPLELENGTH:14.200;
#SELECTABLE:YES;
#BPMS:0.000=77.000
;
#STOPS:
;
#BGCHANGES:;
#KEYSOUNDS:;
#ATTACKS:;

//---------------dance-double - Kyzentun----------------
#NOTES:
     dance-double:
     Kyzentun:
     Challenge:
     9:
     0.632,0.749,0.000,1.000,0.608,841.000,0.000,370.000,418.000,0.000,1.000,0.632,0.749,0.000,1.000,0.608,841.000,0.000,370.000,418.000,0.000,1.000: // measure 0
00000000
00000000
00000000
00000000
00000000
00000000
00000000
00000000
00000000
00000000
00000000
00000000
MMM00MMM
MMM00MMM
00000000
00000000
,  // measure 1
00000000
00000000
00000000
00000000
00000000
00000000
00000000
00000000
MMM00MMM
MMM00MMM
00000000
00000000
M0000000
00000000
MMM00MMM
MMM00MMM
,  // measure 2
0M000000
00000000
0M000000
00000000
MMM00MMM
MMM00MMM
00M00000
00000000
00M00000
00000000
00M00000
00000000
MMM00MMM
MMM00MMM
00000000
00000000
,  // measure 3
00000000
00000000
00000000
00000000
00000000
00000000
00000000
00000000
MMM00MMM
MMM00MMM
00000000
00000000
0000000M
00000000
MMM00MMM
MMM00MMM
,  // measure 4
000000M0
00000000
000000M0
00000000
MMM00MMM
MMM00MMM
00000M00
00000000
00000M00
00000000
00000M00
00000000
MMM00MMM
MMM00MMM
00000000
00000000
,  // measure 5
00000000
00000000
00000000
00000000
MMM00MMM
00000000
00000000
MMM00MMM
,  // measure 6
MMM00MMM
MMM00MMM
MMM00MMM
MMM00MMM
MMM00MMM
00000000
MMM00MMM
MMM00MMM
,  // measure 7
MMM00MMM
00000000
MMM00MMM
MMM00MMM
00000000
MMM00MMM
MMM00MMM
MMM00MMM
,  // measure 8
MMM00MMM
00000000
MMM00MMM
MMM00MMM
00000000
00000000
00001000
00100000
,  // measure 9
02000000
03020000
02030000
00000000
23000000
00000000
30020000
01030000
,  // measure 10
20000000
32000000
03200000
00000000
20300000
00000000
30020000
00130000
,  // measure 11
20000000
00000000
30200000
00000000
00302000
00013000
00001000
00000000
00000200
00000000
00000000
00000000
00002300
00013000
00000100
00001000
,  // measure 12
00000200
00000310
00001000
00010000
00002000
00013000
00001000
01000000
00100000
01000000
00100000
00010000
0M002000
00000000
00013M00
00000020
,  // measure 13
00M02030
00000000
00003M01
00000000
000M0010
00000000
00000M01
00000000
000M1000
00000000
0000020M
00000000
000M0320
00000000
0000103M
00020000
,  // measure 14
00M30020
0000M130
00M02000
00013M00
0M200000
0031M000
0M002000
00103M00
,  // measure 15
M2000000
00000000
0301M000
00000000
M2000000
00000000
031M0000
00000000
M0010000
20000000
3010M000
00000000
M1000000
20000000
310M0000
00000000
,  // measure 16
M0100000
00000000
100M0000
00000000
0M020000
00000000
0013M000
00000000
M1000000
00000000
0001M000
00000000
0M000200
00000000
000013M0
00000020
,  // measure 17
000M0230
00000000
0000031M
00000000
0001M000
00000000
0000100M
00000000
000M0010
00000000
00000M02
00000000
000M2003
00000000
00003M10
00000002
,  // measure 18
000M0023
0000013M
000M0002
000010M3
000M0200
0000031M
000M2000
0000301M
,  // measure 19
000M0200
00000000
000103M0
00000000
01M00000
00000000
0010M000
00000000
0M001000
00020000
00030M10
00000000
00M10000
00002000
01003M00
00010000
,  // measure 20
M1000000
00200000
0031M000
00100000
1M000000
00010000
0010M000
01000000
M0010000
01000000
0010M000
00010000
2M000000
00000000
3001M000
00200000
,  // measure 21
M0320000
00000000
0103M000
00000000
00M01000
00000000
000001M0
00000000
000M0010
00000000
00020M00
00000000
0M230000
00000000
00310M00
00002000
,  // measure 22
00M23000
000301M0
0000M020
0000013M
0000M002
000001M3
000M2000
0000301M
,  // measure 23
000M2000
000030M1
000M0100
0000100M
000M0100
0000001M
0002M000
0003100M
,  // measure 24
000M0010
00000000
0000010M
00000000
00M20000
00000000
00031M00
00000000
0M100000
00000000
0100M000
00000000
M0020000
00000000
0103M000
00200000
,  // measure 25
M0320000
10030000
0010M000
00000000
0M010000
00000000
00001M00
00000000
M1000000
00000000
0002M000
00000000
0M230000
00000000
00301M00
00020000
,  // measure 26
00M30200
00001300
000001M0
00000000
000M0020
00000000
0000103M
00000000
00020M00
00000000
0003001M
00000000
0000M200
00000000
000013M0
00000000
,  // measure 27
000M0100
00000000
00000000
00000000
00000000
00000000
000000M2
00000000
00000000
00000000
00000203
00000000
0000M000
00000000
00000320
00000000
00000000
00000000
0000000M
00000000
00000000
00000000
00000000
00000000
000M1030
00000000
00000000
00000000
00000000
00000000
00000M01
00000000
00000000
00000020
00000000
00000000
000M0032
00000000
00000000
00000000
00000000
00000000
00001M03
00000000
00000000
00000000
00000000
00000000
,  // measure 28
000M0100
00000000
0000002M
00002030
00M23000
00000000
00031M00
00000000
00M10000
00000000
00000000
00000000
00002000
00023000
02030000
03200000
,  // measure 29
10300000
00200000
00320000
20030000
30100000
00020000
00030020
00000230
00001300
02000000
03020000
00230000
00301000
00010000
00000010
00000100
,  // measure 30
00001000
00000100
00000010
00001000
00000100
00000001
00000100
00000010
00001000
00010000
00000100
00010000
00002000
02003000
03200000
00320000
,  // measure 31
00030010
00002000
00003200
00020300
01030000
00020000
00030200
00000320
00001030
00200000
02300000
03020000
01030000
10000000
00010000
00100000
,  // measure 32
10000000
00100000
00010000
10000000
00100000
00010000
00001000
00100000
01000000
00010000
00001000
00000010
00000200
00020300
00030020
00002030
,  // measure 33
00103000
00002000
00003020
00020030
00030100
00002000
02003000
03200000
00310000
00000020
00000230
00002300
00003001
00000100
00001000
00000100
,  // measure 34
00000010
00001000
00000001
00000010
00001000
00010000
01000000
00100000
00010000
10000000
01000000
00010000
02000000
03200000
00302000
00003020
,  // measure 35
00000130
00020000
00030020
00002030
00103000
02000000
03020000
00230000
00301000
00000020
00000230
00002300
00003001
00000010
00001000
00000010
,  // measure 36
00000001
00000000
00001000
00000000
00000010
00000000
00000100
00000000
00001000
00000000
00010000
00000000
00100000
00000000
01000000
00000000
00010000
10000000
00010000
10000000
00020000
00130000
00010000
00100000
00020000
00000000
00230000
00000000
00300000
00000000
00002000
00000000
,  // measure 37
00023000
00030010
00002000
00003010
00000200
00000301
00000000
00001000
00000100
00001000
00000200
00010300
00002000
00023000
00030000
02000000
,  // measure 38
03200000
00310000
00200000
00310000
20000000
30100000
00000000
01000000
00010000
01000000
00200000
10300000
00020000
00230000
00300000
00002000
,  // measure 39
00023000
00030100
00020000
00030010
00002000
00003100
00000000
00000010
00000001
00000010
00000002
00001003
00000020
00000230
00000320
00020030
,  // measure 40
00032000
00000000
00203000
00000000
02300000
00000000
03100000
00000000
00020000
00000000
10030000
00000000
00000000
00000000
00100000
00000000
10000000
00010000
10000000
00010000
20000000
30010000
10000000
00010000
20000000
00000000
32000000
00000000
00000000
00000000
03200000
00000000
,  // measure 41
00320000
02030000
03002000
00013000
00000020
00010030
00000000
00001000
00100000
00001000
00020000
00030100
00002000
00003200
00000000
00000320
,  // measure 42
00000032
00000103
00000020
00000130
00000002
00001003
00000000
00000010
00010000
00000010
00020000
00031000
02000000
03200000
00300000
20000000
,  // measure 43
30020000
00130000
02000000
03100000
00020000
10030000
00000000
00100000
01000000
00010000
00200000
00301000
00020000
00032000
00023000
00030200
,  // measure 44
00000320
00000130
00002000
00003001
00000200
00000320
00002030
00003200
00000320
00000031
00002000
00003100
00020000
00000000
00000000
00000000
,  // measure 45
00001000
00000100
00000001
00000010
,  // measure 46
00000100
00032000
00100000
00010000
,  // measure 47
02003000
00010000
00100000
10000000
,  // measure 48
00100000
00000000
03040000
00000000
10030000
00000000
01000000
00010000
,  // measure 49
00002000
00003200
00000320
00000000
00000032
00000000
00000023
00000000
,  // measure 50
00002030
00003002
00000023
00000000
00002030
00000000
00023000
00000000
,  // measure 51
00030200
00000000
00000320
00000000
00002030
00013000
00001000
00000000
02000000
00000000
00000000
00000000
03200000
01300000
10000000
01000000
,  // measure 52
00020000
10030000
01000000
00010000
00002000
00003010
00001000
00010000
00002000
00003100
00000001
00001000
0000020M
00000000
000M0310
00000002
,  // measure 53
00002M03
00000000
000M3010
00000000
00010M00
00000000
00M01000
00000000
000001M0
00000000
000M2000
00000000
00023M00
00000000
M1030000
00200000
,  // measure 54
0032M000
1M030000
0020M000
M1300000
200M0000
31M00000
0002M000
0M130000
,  // measure 55
0200M000
03M10000
00001M00
000M0100
000010M0
00M10000
0000002M
000M1030
,  // measure 56
0000010M
00000000
0000M010
00000000
0000020M
00000000
0000M301
00000000
000001M0
00000000
000M1000
00000000
000000M2
00000000
000M0103
00002000
,  // measure 57
0000320M
00000310
000M1000
00000000
0000010M
00000000
0000M010
00000000
00001M00
00000000
00M20000
00000000
00032M00
00000000
0M103000
00020000
,  // measure 58
0203M000
03100000
M1000000
00000000
002M0000
00000000
0M310000
00000000
0020M000
00000000
1M300000
00000000
0002M000
00000000
M1030000
00000000
,  // measure 59
10M00000
00000000
00000000
00000000
00000000
00000000
0200M000
00000000
00000000
00000000
03200000
00000000
000M0000
00000000
20300000
00000000
00000000
00000000
0000M000
00000000
00000000
00000000
00000000
00000000
3M010000
00000000
00000000
00000000
00000000
00000000
0010M000
00000000
00000000
00020000
00000000
00000000
2M030000
00000000
00000000
00000000
00000000
00000000
3100M000
00000000
00000000
00000000
00000000
00000000
,  // measure 60
00M10000
00000000
00002M00
00023000
00M30020
00000000
0000013M
00000000
000M1000
00000000
00000000
00000000
00000200
00000320
00020030
00230000
,  // measure 61
01300000
00002000
00203000
00320000
00030010
00000200
00002300
02003000
03010000
00002000
02003000
03200000
00310000
00001000
00000100
00000010
,  // measure 62
00001000
00000001
00000010
00001000
00000010
00000100
00000001
00000100
00001000
00000001
00000100
00001000
02000000
03200000
00320000
00030020
,  // measure 63
00001030
00000200
00020300
02030000
13000000
00200000
00320000
00030020
00001030
00000200
00000302
00000203
00000310
00001000
00010000
00000010
,  // measure 64
00000100
00001000
00010000
01000000
00100000
00010000
01000000
10000000
01000000
00100000
10000000
00010000
00200000
00302000
00003020
00000230
,  // measure 65
00010300
02000000
23000000
30200000
00310000
00000020
00000230
00020300
01030000
00002000
00203000
02300000
03010000
01000000
10000000
00100000
,  // measure 66
00010000
00001000
00000010
00000001
00000010
00001000
00010000
00001000
00000100
00000010
00010000
00001000
00200000
02300000
03020000
00030200
,  // measure 67
00000310
00002000
00203000
20300000
30100000
00020000
00030020
00000032
00000103
00002000
02003000
23000000
31000000
00010000
10000000
00100000
,  // measure 68
00010000
00000000
00001000
00000000
00010000
00000000
01000000
00000000
00010000
00000000
00001000
00000000
00000100
00000000
00000010
00000000
00001000
00000001
00001000
00000001
00002000
00003001
00001000
00000001
00000200
00000000
00000320
00000000
00000000
00000000
00002030
00000000
,  // measure 69
00003200
00010300
00002000
01003000
00200000
00310000
00000000
00001000
00100000
01000000
20000000
31000000
00200000
00320000
00000000
02030000
,  // measure 70
03002000
00013000
00000020
00000130
00000002
00000013
00000000
00001000
00010000
00000100
00000020
00000031
00002000
00003020
00000000
00000230
,  // measure 71
00000320
00002030
00003200
00010300
00002000
00003000
00000000
00100000
01000000
00100000
00020000
01030000
00200000
20300000
32000000
03200000
,  // measure 72
00302000
00000000
02003000
00000000
03200000
00000000
00310000
00000000
00002000
00000000
00013000
00000000
00000000
00000000
00000010
00000000
00001000
00000100
00001000
00000100
00002000
00003100
00001000
00000100
00002000
00000000
00003020
00000000
00000000
00000000
00000230
00000000
,  // measure 73
00000302
00000023
00000032
00000103
00000020
00000130
00000000
00001000
00010000
00001000
02000000
03100000
20000000
32000000
00000000
03020000
,  // measure 74
00032000
00103000
00020000
01030000
00200000
01300000
00000000
00001000
00010000
00000100
00000020
00000130
00002000
00003020
00000000
00000032
,  // measure 75
00000023
00000130
00000002
00000013
00000200
00000310
00000000
00001000
00010000
00001000
02000000
03100000
20000000
32000000
23000000
30200000
,  // measure 76
02300000
03001000
00020000
00030010
00000200
00000302
00000023
00000032
00000203
00000310
00020000
00031000
00200000
00000000
00000000
00000000
,  // measure 77
00010000
10000000
00010000
10000000
,  // measure 78
00010000
00302000
00100000
01000000
,  // measure 79
00023000
00000100
00000010
00000001
,  // measure 80
00000100
00000000
00000010
00000000
00000100
00000000
00030020
00010000
,  // measure 81
00010000
00001000
00000100
00000001
,  // measure 82
00000100
00002030
00000100
00000010
,  // measure 83
00003200
00000010
00000001
00000010
,  // measure 84
00001000
00010000
00001000
00000000
,  // measure 85
00000000
00000000
00000300
00000000
;

//---------------dance-double - Kyzentun----------------
#NOTES:
     dance-double:
     :
     Hard:
     8:
     0.531,0.702,0.000,1.000,0.610,652.000,0.000,366.000,925.000,0.000,1.000,0.531,0.702,0.000,1.000,0.610,652.000,0.000,366.000,925.000,0.000,1.000:
00000000
00000000
00000000
00000000
00000000
00000000
00000000
00000000
00000000
00000000
00000000
00000000
MMM00MMM
MMM00MMM
00000000
00000000
,
00000000
00000000
00000000
00000000
00000000
00000000
00000000
00000000
MMM00MMM
MMM00MMM
00000000
00000000
M0000000
00000000
MMM00MMM
MMM00MMM
,
0M000000
00000000
0M000000
00000000
MMM00MMM
MMM00MMM
00M00000
00000000
00M00000
00000000
00M00000
00000000
MMM00MMM
MMM00MMM
00000000
00000000
,
00000000
00000000
00000000
00000000
00000000
00000000
00000000
00000000
MMM00MMM
MMM00MMM
00000000
00000000
0000000M
00000000
MMM00MMM
MMM00MMM
,
000000M0
00000000
000000M0
00000000
MMM00MMM
MMM00MMM
00000M00
00000000
00000M00
00000000
00000M00
00000000
MMM00MMM
MMM00MMM
00000000
00000000
,
00000000
00000000
00000000
00000000
MMM00MMM
00000000
00000000
MMM00MMM
,
MMM00MMM
MMM00MMM
MMM00MMM
MMM00MMM
MMM00MMM
00000000
MMM00MMM
MMM00MMM
,
MMM00MMM
00000000
MMM00MMM
MMM00MMM
00000000
MMM00MMM
MMM00MMM
MMM00MMM
,
MMM00MMM
00000000
MMM00MMM
MMM00MMM
00000000
00000000
00010000
00001000
,
00020000
00030200
00002300
00000000
00003002
00000000
00000203
00000310
,
00000200
00002300
00023000
00000000
00230000
00000000
02300000
03010000
,
20000000
00000000
30200000
00000000
00320000
00031000
00010000
00000000
00000200
00000000
00000000
00000000
00002300
00003100
00000010
00000001
,
00000200
00000310
00001000
00000010
00002000
00003010
00001000
00000010
00010000
00001000
00010000
00001000
00M20000
00000000
00000M00
00032000
,
0M203000
00000000
000M0000
00000000
0M300000
00000000
000M0000
00000000
0M000000
00000000
0002M000
00000000
2M030000
00000000
0000M000
30200000
,
023M0000
M0000000
0302M000
00M00000
0023M000
0M000000
00302M00
000M0000
,
00023M00
00000000
00M00000
00000000
00030M00
00000000
00M00000
00000000
000000M0
00000200
0000M000
00000000
000000M0
00002300
000M0000
00000000
,
000000M0
00000000
000M0000
00000000
000030M2
00000000
000M0103
00000000
0000001M
00000000
000M1000
00000000
0000020M
00000000
000M0000
00020300
,
000320M0
00000000
00M00000
00000000
00003M00
00000000
00M00000
00000000
00000M00
00000000
02M00000
00000000
03020M00
00000000
00M00000
20030000
,
3020M000
0M000000
023M0000
M0000000
0302M000
M0000000
0023M000
0M000000
,
00302M00
00000000
000M0000
00000000
00003M00
00000000
000M0000
00000000
00000M00
00020000
00M00000
00000000
000301M0
00002000
000M3100
00001000
,
0000010M
00000020
0000M031
00000010
00000M01
00001000
000M0010
00010000
0000100M
00010000
00M01000
00010000
00002M00
00000000
0M000000
00203000
,
00320M00
00000000
0M000000
00000000
0003M000
00000000
0M000000
00000000
0000M000
00000000
2M000000
00000000
3020M000
00000000
0M000000
02300000
,
0302M000
M0000000
0203M000
00M00000
03002M00
00M00000
00023M00
00M00000
,
00030M20
0000M000
0000000M
0000M000
0000000M
0000M000
0000203M
00000M00
,
0000000M
00000000
000M0000
00000000
000030M2
00000000
000M0013
00000000
0000010M
00000000
000M1000
00000000
000002M0
00000000
00M10300
00002000
,
00023M00
00031000
00M10000
00000000
00001M00
00000000
00M00000
00000000
00000M00
00000000
02M00000
00000000
03020M00
00000000
1M030000
00200000
,
203M0000
30100000
1M000000
00000000
002M0000
00000000
0M000000
00000000
023M0000
00000000
M0000000
00000000
0302M000
00000000
00M00000
00000000
,
0003M000
00000000
00000000
00000000
00000000
00000000
0M200000
00000000
00000000
00000000
00302000
00000000
00000M00
00000000
00023000
00000000
00000000
00000000
00M00000
00000000
00000000
00000000
00000000
00000000
00030M00
00000000
00000000
00000000
00000000
00000000
00M00000
00000000
00000000
00000200
00000000
00000000
000023M0
00000000
00000000
00000000
00000000
00000000
000M0000
00000000
00000000
00000000
00000000
00000000
,
000000M0
00000000
000M3002
00000023
0000023M
00000000
0000M000
00000000
00010300
00000000
00000000
00000000
00002M00
00023000
0M230000
02300000
,
03010M00
00200000
M2300000
23000000
3001M000
02000000
M3200000
00320000
00031M00
00020000
00M32000
00003200
0000031M
00001000
000M0001
00000010
,
00000M01
00001000
000M0100
00001000
0000001M
00010000
0M001000
00100000
00010M00
10000000
0M100000
10000000
0002M000
00230000
M2300000
03020000
,
00031M00
00020000
00M32000
00003020
0000013M
00002000
000M3020
00000230
0000031M
00000200
00M02300
00023000
00031M00
01000000
M0010000
01000000
,
0010M000
10000000
0M010000
00100000
0001M000
01000000
00M01000
00010000
000001M0
00001000
000M0001
00000100
0000002M
00000230
000M2300
00023000
,
000310M0
02000000
M3200000
00320000
0013M000
20000000
32M00000
03020000
00031M00
00000020
00M00032
00002003
00003M10
00010000
00M01000
00100000
,
00010M00
10000000
0M100000
10000000
0001M000
01000000
00M01000
00010000
000001M0
00001000
000M0001
00000100
000000M2
00000203
00M02300
00023000
,
00031M00
02000000
M3200000
00320000
00031M00
00020000
0M032000
00003200
0000031M
00002000
000M3200
00000302
000001M3
00000010
000M0001
00001000
,
00000M10
00000000
00001000
00000000
00M00100
00000000
00010000
00000000
00001M00
00000000
00010000
00000000
00M01000
00000000
01000000
00000000
00010M00
10000000
00010000
10000000
0M020000
00130000
00010000
00100000
M002M00M
00000000
M023000M
00000000
00300000
00000000
M200000M
00000000
,
M302000M
M000000M
00032000
M000000M
M000302M
M000000M
00000000
M000000M
M000003M
M000000M
00000200
M000000M
M000230M
M000302M
00000030
M000020M
,
M000230M
M000000M
00023000
M000000M
M023000M
M000000M
00000000
M000000M
M030000M
M000000M
02000000
M000000M
M302000M
M023000M
00300000
M200000M
,
M302000M
M000000M
00032000
M000000M
M000320M
M000000M
00000000
M000000M
M000030M
M000000M
00000020
M000000M
M000203M
M000320M
00000320
M000203M
,
M002300M
00000000
M023000M
00000000
02300000
00000000
M000000M
00000000
M320000M
00000000
M000000M
00000000
00000000
00000000
M000000M
00000000
M031000M
00001000
M001000M
00001000
00020000
00031000
M001000M
00001000
M002000M
00000000
M003020M
00000000
00000000
00000000
M000032M
00000000
,
M000203M
M000000M
00023000
M000000M
M203000M
M000000M
00000000
M000000M
M300000M
M000000M
00200000
M000000M
M032000M
M203000M
00000000
M320000M
,
M032000M
M000000M
00032000
M000000M
M000320M
M000000M
00000000
M000000M
M000030M
M000000M
00000020
M000000M
M000203M
M000320M
00000000
M000032M
,
M000203M
M000000M
00023000
M000000M
M023000M
M000000M
00000000
M000000M
M030000M
M000000M
02000000
M000000M
M302000M
M023000M
02300000
M302000M
,
M003200M
M000000M
00003200
M000000M
M000032M
M000203M
00003200
M000032M
M000203M
M000000M
00023000
M000000M
00230000
00000000
00000000
00000000
,
10000000
01000000
00010000
01000000
,
10000000
02300000
00100000
00010000
,
03002000
00010000
00000100
00010000
,
00000010
00000000
00043000
00000000
00030100
00000000
00001000
00000100
,
00020000
00032000
00023000
00000000
02030000
00000000
23000000
00000000
,
30020000
02030000
03200000
00000000
00320000
00000000
00032000
00000000
,
00003200
00000000
00000302
00000000
00002003
00003100
00000010
00000000
00000002
00000000
00000000
00000000
00000023
00001030
00010000
01000000
,
00200000
00310000
00100000
00010000
20000000
30100000
10000000
00100000
02000000
03001000
01000000
00001000
00M20000
00000000
00000M00
00030020
,
00M02030
00000000
00000M00
00000000
00M00000
00000000
00003M00
00000000
00M00000
00000000
0000002M
00000000
000M0230
00000000
00000000
00000302
,
0000M023
0000000M
0000M230
0000000M
00M20300
00000M00
00M32000
00000M00
,
0M203000
00000M00
0M300000
00000M00
0M000000
00000M00
0M020000
00000M00
,
0M000000
00000000
00000M00
00000000
02030000
00000000
0310M000
00000000
M1000000
00000000
0001M000
00000000
M0200000
00000000
01300M00
20000000
,
30M20000
10030000
00010M00
00000000
01M00000
00000000
00000M00
00000000
00M00000
00000000
00002M00
00000000
00M23000
00000000
00030M10
00002000
,
000M3002
00001003
000000M1
00000000
000M0200
00000000
000000M0
00000000
000M2300
00000000
000000M0
00000000
00M23000
00000000
00000M00
00000000
,
00M30000
00000000
00000000
00000000
00000000
00000000
00002M00
00000000
00000000
00000000
00203000
00000000
0M000000
00000000
00320000
00000000
00000000
00000000
0000M000
00000000
00000000
00000000
00000000
00000000
0M030000
00000000
00000000
00000000
00000000
00000000
0000M000
00000000
00000000
20000000
00000000
00000000
32M00000
00000000
00000000
00000000
00000000
00000000
0000M000
00000000
00000000
00000000
00000000
00000000
,
M0000000
00000000
0320M000
00320000
M2030000
00000000
0000M000
00000000
03100000
00000000
00000000
00000000
020M0000
03200000
M0320000
00032000
,
00013M00
00000200
00M00320
00000032
00000M13
00000002
000M0023
00002030
00013M00
00002000
02M03000
03200000
0130M000
00010000
1M000000
00100000
,
1000M000
00010000
0M100000
00001000
00010M00
00001000
00M10000
00000100
000010M0
00000001
000M0100
00000001
000002M0
00002300
00M23000
00230000
,
0130M000
00020000
M0230000
02300000
130M0000
00200000
M2300000
23000000
310M0000
00200000
0M320000
00032000
00013M00
00000010
00M01000
00000001
,
00000M10
00000001
000M1000
00000100
000100M0
00001000
0M100000
00010000
1000M000
00100000
1M000000
00010000
0200M000
03200000
M0320000
00032000
,
00013M00
02000000
03M20000
00032000
00013M00
00000200
00M00320
00002030
0000301M
00000200
000M2300
00003020
0000013M
00000001
0000M100
00000010
,
0000100M
00000100
00M10000
00001000
01000M00
00010000
01M00000
00100000
1000M000
00010000
0M100000
00001000
00020M00
00032000
00M03200
00000320
,
0000103M
00000200
000M0320
00000032
000010M3
00000200
000M0320
00002030
00013M00
00002000
00M23000
00230000
0130M000
00010000
10M00000
01000000
,
0010M000
00000000
00010000
00000000
0M100000
00000000
00001000
00000000
00010M00
00000000
00001000
00000000
00M10000
00000000
00000010
00000000
00001000
00000010
00001000
00000010
00002000
00003010
00001000
00000010
M000020M
00000000
M000230M
00000000
00000000
00000000
M002300M
00000000
,
M023000M
M000000M
02300000
M000000M
M302000M
M000000M
00000000
M000000M
M003000M
M000000M
00200000
M000000M
M230000M
M302000M
00000000
M003200M
,
M000302M
M000000M
00000230
M000000M
M000230M
M000000M
00003000
M000000M
M000000M
M000000M
00000020
M000000M
M000023M
M000230M
00000000
M002300M
,
M203000M
M000000M
03200000
M000000M
M032000M
M000000M
00000000
M000000M
M003000M
M000000M
02000000
M000000M
M320000M
M032000M
00032000
M000320M
,
M000032M
00000000
M000203M
00000000
00003200
00000000
M000000M
00000000
M000032M
00000000
M000000M
00000000
00000000
00000000
M000000M
00000000
M000013M
00001000
M000010M
00001000
00000200
00001300
M000010M
00001000
M000020M
00000000
M000032M
00000000
00000000
00000000
M000203M
00000000
,
M002300M
M000000M
00230000
M000000M
M230000M
M000000M
00000000
M000000M
M300000M
M000000M
00020000
M000000M
M023000M
M230000M
00000000
M302000M
,
M003200M
M000000M
00003200
M000000M
M000032M
M000000M
00000000
M000000M
M000003M
M000000M
00002000
M000000M
M000320M
M000032M
00000000
M000203M
,
M002300M
M000000M
02030000
M000000M
M320000M
M000000M
00000000
M000000M
M030000M
M000000M
00020000
M000000M
M203000M
M320000M
00320000
M003200M
,
M000302M
M000000M
00000230
M000000M
M000230M
M000302M
00000230
M000230M
M002300M
M000000M
00230000
M000000M
02300000
00000000
00000000
00000000
,
00100000
10000000
00100000
10000000
,
00100000
03020000
00100000
01000000
,
00230000
01000000
10000000
01000000
,
00010000
00000000
01000000
00000000
00010000
00000000
00302000
00100000
,
00100000
00010000
00000100
00010000
,
00000010
00023000
00000100
00001000
,
00030020
00001000
00000100
00000001
,
00000100
00001000
00010000
00000000
,
00000000
00000000
00000030
00000000
;
