#TITLE:Sorairo Days Tengen Toppa Gurren Lagann OP;
#ARTIST:Shoko Nakagawa;
#FILE:Sorairo Days.mp3;
#BPM:173.980;
#GAP:0;
#SAMPLESTART:15.800;
#SAMPLELENGTH:16.000;
#SINGLE:MANIAC:7:
00000000
00000000
00000000
00000000
00042860
06824042
44042824
042868A0
10428244
024286!600
00000000
B0A00240
04020820
00400240
68086090
00400280
03090280
06808202
4!40000000
40400280
03070260
00400280
680820A0
00400260
01090280
04200A06
84000040
20806820
42028680
04208206
01030000
02402860
48068480
4280068!80
00000000
7010280A
0B000002
8240820B
0A000040
60204208
04004208
01000A06
82!2000020
70906802
06000002
42806801
09000040
20804208
04002080
4090010A
0B!B0000B0
40208206
01!1000010
60802804
0900004!40
002!200000
00001000
00024286
06824286
80686264
068242!200
00000000
00000000
00000000
00200000
;
#SINGLE:ANOTHER:6:
00000000
00000000
00000000
00000020
40608080
40208060
60802060
20402060
20424242
086868!800
00000000
80400280
06060220
00400220
66088060
20400880
06080040
04204204
2!20000000
20400220
06080020
00400020
88006080
00402080
06080020
04200806
06000040
20800060
04028280
06604402
080B0000
00402080
40206080
2420028!80
00000000
80402080
80200002
42400408
02000040
80246064
82008040
20A00B04
28000000
40208806
04000004
24208802
0B000040
20804080
20604020
80B00102
03000000
40208202
0B000000
40208804
0200002!20
008!800000
A0402080
40602080
40604020
80424242
086868!800
00000000
00000000
00000000
00800000
;
#SINGLE:BASIC:5:
00000000
00000000
00000000
00000020
20402020
60406080
80402040
80206040
80B!4060B0
A0B!6040B0
00000000
00200080
00608020
00400020
00802040
00800040
00206080
00200800
6!60000000
60408020
00602080
00400060
208020A0
00400020
00802040
00400800
02000020
40800080
00402080
00402080
09090000
00402060
80602040
208!80002!20
00000000
A0402080
80200000
40206020
20200040
20800400
02000800
06000402
02000000
40802080
60800000
20808004
04000040
20800600
04002080
60A00A0B
0A000000
40208006
08000000
40204080
4060002!20
008!800000
00000000
A0004020
80402080
A0B!6040B0
A0B!406060
00000000
00000000
00000000
00400000
;
#SINGLE:BEGINNER:2:
00000000
00000000
00000000
00000000
00400000
00200000
00006000
00008000
00404040
00A000A!A0
00000000
A0400000
00200000
00800000
80000040
00A00000
00400020
00B00000
B0000000
00400000
00808080
00400020
00808080
00400020
00404040
00A00000
A0000040
40200080
00404040
00200080
00B00000
00400020
00802080
00B000A0
00000000
40400020
00800000
40400020
00A00040
00200020
00800060
00800020
20A00000
00400000
20000000
60604020
20800040
00200080
00600040
00200000
A0000000
00400000
00200000
40400020
0080004!40
006!600000
00000000
B0004000
00200080
00404040
8020202!20
00000000
00000000
00000000
00200000
;
