#TITLE:LET'S GROOVE;
#SUBTITLE:KKiONI Edit;
#ARTIST:TIPS & TRICKS VS WISDOME;
#TITLETRANSLIT:;
#SUBTITLETRANSLIT:;
#ARTISTTRANSLIT:;
#GENRE:;
#CREDIT:;
#BANNER:LET'S GROOVE-banner.png;
#BACKGROUND:LET'S GROOVE-bg.png;
#LYRICSPATH:;
#CDTITLE:;
#MUSIC:LET'S GROOVE (ONI EDIT).ogg;
#OFFSET:-1.019000;
#SAMPLESTART:22.639999;
#SAMPLELENGTH:12.000000;
#SELECTABLE:YES;
#DISPLAYBPM:65.000000:130.000000;
#BPMS:0.000000=130.000000
,112.000000=65.000000
,128.000000=130.000000
;
#STOPS:
;
#BGCHANGES:;
#KEYSOUNDS:;
#ATTACKS:;

//---------------dance-double - ----------------
#NOTES:
     dance-double:
     :
     Easy:
     3:
     0.169676,0.257778,0.000000,0.465777,0.000000,102.000000,102.000000,0.000000,40.000000,0.000000,0.000000,0.169676,0.257778,0.000000,0.465777,0.000000,102.000000,102.000000,0.000000,40.000000,0.000000,0.000000:
00000000
00000000
00000000
00000000
,
00000000
00000000
00000000
00000000
,
00002000
00003000
00020000
00030000
,
00002000
00003000
00020000
00030000
,
00200000
00300000
20000000
30000000
,
02000000
03000000
00020000
00030000
,
00002000
00003000
00000200
00000300
,
00000001
00000001
00000100
00000100
,
00001000
00001000
00010000
00010000
,
01000000
01000000
10000000
10000000
,
00100000
00100000
00010000
00010000
,
00001000
00001000
00000100
00000000
,
00000002
00000003
00000200
00000300
,
00002000
00003000
00020000
00030000
,
02000000
03000000
20000000
30000000
,
00200000
00300000
00020000
00030000
,
00001000
00000010
00000001
00000100
,
00001000
00010000
01000000
00000000
,
00020000
00030000
00002000
00003000
,
00020000
00030000
00002000
00003000
,
00010000
00100000
10000000
01000000
,
00010000
00001000
00000100
00000000
,
00000002
00000003
00002000
00003000
,
00000002
00000003
00002000
00003000
,
00000010
00000100
00001000
00010000
,
00100000
10000000
01000000
00000000
,
00020000
00030000
00002000
00003000
,
00000200
00000000
00000000
00000300
,
00000002
00000000
00000000
00000003
,
00000200
00000000
00000000
00000300
,
00002000
00000000
00000000
00003000
,
00010000
00000000
00100000
00000000
10000000
01000000
00010000
00001000
,
00000100
00000001
00000100
00000001
,
00000100
00001000
00010000
01000000
,
10000000
01000000
10000000
01000000
,
00010000
00001000
00000100
00000001
,
00000200
00000300
00002000
00003000
,
00020000
00030000
02000000
03000000
,
20000000
30000000
00020000
00030000
,
00000200
00000300
00000002
00000000
,
00000000
00000003
00000000
00000000
;

//---------------dance-double - ----------------
#NOTES:
     dance-double:
     :
     Medium:
     4:
     0.256177,0.328082,0.093155,0.058222,0.000000,154.000000,146.000000,8.000000,5.000000,0.000000,0.000000,0.256177,0.328082,0.093155,0.058222,0.000000,154.000000,146.000000,8.000000,5.000000,0.000000,0.000000:
00000000
00000000
00000000
00000000
,
00000000
00000000
00000000
00000000
,
00001000
00000000
00010000
00000000
,
00001000
00000000
00010000
00000000
,
00100000
10000000
01000000
00010000
,
00000010
00001000
00000100
00000001
,
00000010
00000001
00000100
00001000
,
00100000
00010000
00000010
00001000
,
01000000
00010000
00000100
00001000
,
00100000
00010000
00000010
00001000
,
01000000
00010000
00000100
00001000
,
00010000
00001000
00010000
00000000
,
00011000
00000000
01000000
00000000
10000000
01000000
10000000
00000000
,
10010000
00000000
01000000
00000000
00010000
01000000
00010000
00000000
,
00011000
00000000
00000100
00000000
00000001
00000100
00000001
00000000
,
00001001
00000000
00000100
00000000
00001000
00000100
00001000
00000000
,
00000000
00001000
00010000
00100000
,
00000000
10000000
01000000
00010000
,
00000000
00001000
00000100
00000001
,
00000000
00000010
00010000
00001000
,
00011000
00000000
01000000
00000000
00100000
10000000
01000000
00000000
,
10010000
00000000
01000000
00000000
00100000
00010000
01000000
00000000
,
00011000
00000000
00000100
00000000
00000010
00000001
00000100
00000000
,
00001001
00000000
00000100
00000000
00000010
00001000
00000100
00000000
,
00010000
00000000
00000000
00001000
00010000
00000000
01000000
00000000
,
00001000
00000000
00000000
00010000
00001000
00000000
00000100
00000000
,
00000001
00000000
00000100
00001000
,
00020000
00000000
00000000
00030000
,
00100000
10000000
01000000
00010000
,
00000010
00001000
00000100
00000001
,
00000010
00000001
00000100
00001000
,
00100000
00010000
01000000
10000000
,
00100000
10000000
01000000
00010000
,
00100000
10000000
01000000
00020000
,
00001000
01000000
00001000
01030000
,
00002000
00010000
00000100
00010000
,
00003100
00010000
00100000
01000000
,
01000000
00010000
00000010
00000100
,
00010000
01000000
00001000
00000100
,
00020000
00001000
02000000
00000000
,
00000000
03030000
00000000
00000000
;

//---------------dance-double - ----------------
#NOTES:
     dance-double:
     :
     Hard:
     7:
     0.332698,0.471599,0.186311,0.687021,0.029111,200.000000,184.000000,16.000000,59.000000,0.000000,0.000000,0.332698,0.471599,0.186311,0.687021,0.029111,200.000000,184.000000,16.000000,59.000000,0.000000,0.000000:
00000000
00000000
00000000
00000000
,
00000000
00000000
00000000
00000000
,
00200000
00000000
00300000
10000000
01000000
00000000
00010000
00000000
,
00002000
00000000
00003000
00000100
00000001
00000000
00000010
00000000
,
00000200
00000000
00000300
00010000
00001000
00000000
00010000
00000000
,
00200000
00000000
00300000
00010000
00001000
00000000
01000000
00000000
,
20000000
00000000
30000000
01000000
00010000
00000000
10000000
00000000
,
11000000
00010000
00001000
00000100
00001000
00010000
01000000
00100000
,
00011000
00000100
00000010
00001000
00000001
00000100
00000000
00001000
,
00110000
01000000
10000000
01000000
00010000
00001000
00000100
00000001
,
00000110
00000001
00000100
00001000
00010000
00001000
00100000
01000000
,
10010000
01000000
00010000
00001000
00000100
00000000
00011000
00000000
,
00000200
00000000
00000300
00001000
00020000
00000000
00031000
00000000
,
02000000
00000000
03000000
00100000
20000000
00000000
30000000
00010000
,
00200000
00000000
00300000
01000000
00020000
00000000
00031000
00000000
,
00000200
00000000
00000300
00000001
00000020
00000000
00000030
00001000
,
00020000
00000000
00030000
00100000
20000000
00000000
31000000
00000000
,
00020000
00000000
00030000
00000010
00000200
00000000
00000300
00000001
,
00002000
00000000
00003000
00000100
00020000
00000000
00031000
00000000
,
02000000
00000000
03000000
00010000
20000000
00000000
30000000
00100000
,
20020000
00000000
30030000
01000000
00020000
00000000
00031000
00000000
,
00022000
00000000
00033000
00000100
00000002
00000000
00000003
00000010
,
00002200
00000000
00003300
00010000
00002000
00000000
01003000
00000000
,
02200000
00000000
03300000
00010000
20000000
00000000
30000000
00000000
,
02200000
00000000
03300000
00001000
00020000
00000000
00031000
00000000
,
00002020
00000000
00003030
00000100
00000020
00000000
00000030
00000001
,
00000202
00000000
00000303
00000010
00020000
00000000
00031000
00000000
,
00000220
00000000
00000000
00000330
,
00011000
00000000
00001000
00010000
01000000
00000000
10000000
00000000
00100000
00000000
10000000
00000000
01000000
00000000
00010000
00000000
,
00000000
00000000
00001000
00010000
00000100
00000000
00000000
00000000
00000010
00000000
00000100
00000000
00000000
00000000
00000001
00000000
,
00000000
00000000
00000100
00001000
00010000
00000000
00000000
00000000
00100000
00000000
00000000
00000000
01000000
00000000
00010000
00000000
,
10000000
00000000
01000000
00000000
00100000
00000000
01000000
00000000
10000000
00000000
00100000
00000000
00010000
00001000
00000100
00000001
,
00000110
00000000
00001000
00010000
00002000
00000000
00003000
00000000
,
00010000
00100000
10000000
02000000
00000000
03000000
00020000
00000000
,
00032000
00023000
00032000
00003100
,
00000001
00000010
00000100
00002000
00000000
00003000
00000000
00000000
,
00000010
00000000
00000100
00001000
00020000
00000000
00030000
00000000
,
00100000
10000000
01000000
00020000
00000000
00030000
00002000
00000000
,
00003200
00002300
00003200
00000300
,
00001000
00010000
01000000
20000000
00000000
30100000
01000000
00200000
,
00000000
00000000
00300000
00000000
;

//---------------dance-single - ----------------
#NOTES:
     dance-single:
     :
     Challenge:
     11:
     0.462450,0.664315,0.442488,0.163022,0.058222,278.000000,240.000000,38.000000,14.000000,0.000000,0.000000,0.462450,0.664315,0.442488,0.163022,0.058222,278.000000,240.000000,38.000000,14.000000,0.000000,0.000000:
// measure 0
0000
0000
0000
0000
,  // measure 1
0000
0000
0000
0000
,  // measure 2
2000
0000
0000
3100
0020
0000
0031
0000
,  // measure 3
1001
0000
0000
1000
0100
0001
0100
0000
,  // measure 4
1001
0100
0010
1000
0100
0001
0100
0010
,  // measure 5
1001
0010
0100
0001
0010
1000
0010
0100
,  // measure 6
1001
0100
1000
0001
0010
1000
0100
0001
,  // measure 7
1001
1000
0010
0010
0100
0100
0001
0001
,  // measure 8
1000
1000
0010
0010
1000
1000
0001
0001
,  // measure 9
1000
1000
0010
0010
1000
1000
0001
0001
,  // measure 10
1000
1000
0100
0100
0010
0010
0001
0001
,  // measure 11
1000
0100
0001
0010
1000
0000
0011
0000
,  // measure 12
2010
0000
0100
0100
3100
0000
1001
0000
,  // measure 13
0102
0000
0010
0010
0013
0000
1010
0000
,  // measure 14
1000
0100
0002
0100
0103
0000
0110
0000
,  // measure 15
1000
0100
0001
0010
1000
0000
1001
0100
,  // measure 16
0010
1000
0001
0100
0020
0000
0130
0000
,  // measure 17
1001
0000
0100
0010
0000
0010
1000
0100
,  // measure 18
0020
0000
0100
0130
1000
0000
1001
0000
,  // measure 19
0010
0101
0010
1020
,  // measure 20
2030
0000
3001
0010
0010
0000
0101
0000
,  // measure 21
0100
0000
0001
0010
1000
0000
0101
0100
,  // measure 22
0010
1000
0001
0010
0010
0000
1100
0000
,  // measure 23
0001
0000
1000
0100
0001
0000
1001
0001
,  // measure 24
0100
0010
1000
1000
0001
0000
0110
0000
,  // measure 25
1000
0100
0001
0010
0000
0010
1000
0100
,  // measure 26
0002
0000
0010
0013
1000
0000
1001
0000
,  // measure 27
0210
0000
0001
0000
0000
0001
0001
0001
,  // measure 28
0300
0000
1000
0001
0100
0000
0010
0000
1000
0000
0100
0010
0000
0010
0001
0000
,  // measure 29
0100
0000
0020
0000
1030
0000
0100
0000
0010
0000
1000
0000
0001
0010
1000
0100
,  // measure 30
1001
0000
0010
0100
0001
0000
0100
0000
1000
0000
0001
0010
0000
0010
1000
0000
,  // measure 31
0110
0000
1000
0000
0110
0000
0001
0000
1100
0000
0001
0000
1100
0010
0101
0010
,  // measure 32
1001
0000
1000
0100
0001
0000
0000
0000
,  // measure 33
0001
0100
1000
0100
0000
0100
0010
0000
,  // measure 34
1001
0010
1001
0000
,  // measure 35
1000
0001
0100
1000
0000
1000
0010
0001
,  // measure 36
0000
0000
0010
0100
1001
0000
0010
0000
,  // measure 37
1000
0100
0010
0001
0000
0001
0010
0000
,  // measure 38
0110
1000
0110
0000
,  // measure 39
1000
0100
0001
0010
0000
1100
0110
0022
,  // measure 40
0000
0000
0000
0033
;
