#TITLE:Successful Mission;
#SUBTITLE:セイバーマリオネットJ Opening;
#ARTIST:林原めぐみ;
#TITLETRANSLIT:Successful Mission;
#SUBTITLETRANSLIT:Saber Marionette J Opening;
#ARTISTTRANSLIT:Megumi Hayashibara;
#GENRE:Itsugo15 SimifileS 1-30 DDR Version;
#CREDIT:Itsugo15;
#MENUCOLOR:;
#BANNER:Successful Mission-bn.jpg;
#BACKGROUND:Successful Mission-bg.jpg;
#LYRICSPATH:Successful Mission.lrc;
#CDTITLE:Itsugo15 SimifileS.png;
#MUSIC:Successful Mission.mp3;
#OFFSET:-0.455;
#SAMPLESTART:79.340;
#SAMPLELENGTH:30.000;
#SELECTABLE:YES;
#LISTSORT:;
#BPMS:0.000=132.000;
#STOPS:171.750=0.900
;
#TICKCOUNT:0.000=8;
#BGCHANGES:31.000=Successful Mission.avi=1.000=1=1=0,
237.750=Successful Mission-bg.jpg=1.000=0=1=1,
99999=-nosongbg-=1.000=0=0=0 // don't automatically add -songbackground-
;
#KEYSOUNDS:;
#ATTACKS:;

//---------------dance-single - Itsugo15 Heavy----------------
#NOTES:
     dance-single:
     Itsugo15 Heavy:
     Hard:
     9:
     0.485,0.557,0.336,0.133,0.230:
0000
0000
0000
0000
,
0000
0000
0000
0000
,
0000
0000
0000
0000
,
0000
0000
0000
0000
,
1000
0000
0100
0000
0010
0100
1000
0000
,
0010
0000
0100
0000
0001
0100
0010
0000
,
1000
0000
0001
0000
0010
0100
1000
0000
,
0010
0000
0100
0000
0004
0003
4000
3000
,
1001
0000
1000
0010
1000
0100
0010
0001
,
0001
0001
0001
1001
0000
0000
1010
0000
,
1001
0000
1000
0010
0100
0000
0100
0001
,
0010
0000
0100
0010
0001
0100
0010
1000
,
1010
0000
0010
0100
0001
0100
0010
1000
,
1000
0000
1000
0000
1000
0000
1010
0000
0000
0000
0000
0101
0000
0000
0000
0000
,
1001
0000
0100
0010
0001
0100
0010
1000
,
1000
0010
1000
0000
1000
0000
1000
0001
1000
0000
0001
0000
0001
0100
0001
0100
,
0001
MMM4
0100
0000
,
1000
0000
4M13
0000
,
314M
0000
0100
0000
,
M13M
0000
0000
0000
M440
000M
M000
000M
M000
000M
M000
000M
M000
000M
M330
0000
,
0110
0000
0010
1000
0100
0000
0100
0010
,
0001
0000
0001
0100
0010
0000
MMMM
0000
,
1001
0000
1000
0001
0010
0000
0010
0100
,
1000
0000
0000
0000
1000
0000
0001
0000
0100
0000
0000
0000
MMMM
0000
0100
0001
,
1000
0000
0000
M000
0000
0000
0000
0000
0100
0000
0000
0000
0010
0000
0000
0000
0001
0000
0000
0000
0000
1000
0000
0000
,
0100
0000
0000
0000
1100
0000
0000
0000
0001
0000
0000
0000
0101
0000
0001
1000
,
0010
1010
0001
0101
,
0100
0000
0000
0000
0110
0000
0000
0000
0010
0000
0000
0000
1010
0000
1000
0001
,
1000
0000
0000
0000
1000
0000
0000
0000
1000
0000
0000
0000
1000
0000
0000
0001
0000
0000
1000
0000
0000
0001
0000
0000
,
1000
0000
0000
0000
1000
0000
0000
0000
1000
0000
0000
0000
0001
0000
0000
1000
0000
0000
0001
0000
0000
1000
0000
0000
,
0001
0000
0000
0000
0001
0000
0000
0000
0001
0000
0000
0000
0001
0000
0000
1000
0000
0000
0001
0000
0000
1000
0000
0000
,
0001
0000
0000
0000
0000
0000
0000
0000
0001
0000
0000
0000
0000
0000
0000
0000
0001
0000
0000
0000
0000
0000
0000
0000
0001
0000
0000
0000
0000
0000
1000
0000
0000
0000
0000
0000
0001
0000
0000
0000
0000
0000
1000
0000
0000
0010
0000
0000
,
0100
0M00
0110
0000
0100
0000
0101
0000
,
0001
0000
0000
0000
0011
0000
0000
0000
0010
0000
0000
0000
0110
0000
0100
1000
,
0010
1010
1000
1100
,
0100
0000
0000
0000
0110
0000
0000
0000
0010
0000
0000
0000
0001
0000
0001
1000
,
0010
2001
0100
0010
,
0100
0001
0010
3100
,
1002
0010
0100
0010
,
1000
1000
1000
1003
,
1001
0000
0010
0100
0000
0100
0010
0000
,
1001
0000
1000
0001
0000
0001
1000
0000
,
1100
0000
0100
0000
0100
0000
0100
0000
0010
0000
0001
0000
0100
0000
0010
1000
,
1010
1001
0101
0001
,
0010
0100
1000
0010
0100
0100
0010
0010
,
1000
0100
0010
0001
0010
0010
0100
0100
,
1000
0010
0100
0001
1000
1000
0001
0001
,
1000
0000
0001
1000
0001
0000
0000
0000
0001
0000
0001
0000
1000
0000
1000
0000
,
0010
0100
0001
1000
0100
0010
0100
1000
,
0010
0100
0001
0000
0010
0100
1000
0100
,
1000
0010
0100
0001
0100
0001
0100
0010
,
1000
0000
0001
0000
1001
0000
0000
0200
,
0000
0000
0000
0000
0000
1000
0000
0010
,
0000
0001
0000
0010
0000
1000
0000
0020
0000
0000
0000
0000
,
0330
0000
0000
0010
0000
0000
0100
0000
0010
0000
0001
0000
0100
0000
0010
0100
0010
0100
0020
0000
0000
0000
0000
0000
,
0030
0000
1000
0001
0100
0000
0101
0000
1010
0000
0000
0000
0000
0000
0020
0000
,
0000
0000
0000
0000
0000
0000
0030
0010
1000
0010
0001
0010
0100
0001
0010
0100
,
1000
0100
0001
0100
1000
0100
0020
0000
0000
0000
0000
0000
0000
0000
0030
0000
,
0001
0010
0100
1000
0100
0010
0001
0000
0011
0000
0001
0010
0001
0000
0001
0000
,
0001
1000
0001
1000
0001
0000
1000
0200
0000
0000
0000
0000
0000
0000
0000
0000
,
0300
0000
0000
0000
;

//---------------dance-single - Medium Itsugo15----------------
#NOTES:
     dance-single:
     Medium Itsugo15:
     Medium:
     7:
     0.354,0.372,0.274,0.168,0.031:
0000
0000
0000
0000
,
0000
0000
0000
0000
,
0000
0000
0000
0000
,
0000
0000
0000
0000
,
1000
1000
1000
0000
,
0001
0001
0001
0000
,
0010
0100
1000
0001
,
2002
0000
0000
0000
0000
0000
0000
3003
,
1001
1000
0001
0010
,
0011
0011
0001
1000
,
2002
0000
0000
3003
,
1000
0001
0010
0100
,
0110
0001
1000
0010
,
1010
1010
0010
0100
,
0220
0000
0000
0330
,
0100
0010
0100
0000
0010
0100
0010
0000
,
0110
0002
0000
1000
,
0000
1000
0003
2000
,
0000
0001
0000
3001
,
1001
0000
0010
0100
1000
0001
0100
0010
,
0110
1010
0100
1010
,
0001
1010
0100
MMMM
,
1001
0101
0010
0101
,
1000
0000
0000
0000
0101
0000
0000
0000
0010
0000
0000
0000
MMMM
0000
0001
1000
,
0001
1000
0001
1000
,
0002
0000
0000
0000
1000
0000
0000
0000
0000
0000
0000
0000
1003
0000
1000
0001
,
1000
0001
1000
0001
,
2000
0000
0000
0000
0001
0000
0000
0000
0000
0000
0000
0000
3001
0000
0001
1000
,
0001
0010
0001
1000
,
0100
0010
0002
2003
,
3010
1000
0001
0100
,
0010
0000
0000
0000
2000
0000
0000
0000
3002
0000
0000
0000
0013
0000
0001
0010
,
0001
1000
0100
1000
,
0200
0000
0000
0000
0010
0000
0000
0000
0000
0000
0000
0000
0310
0000
1000
0100
,
1000
0010
0001
0010
,
0002
0000
0100
0000
0000
0000
0103
0010
,
1000
1000
0000
1000
,
1001
0001
0000
0001
,
0011
0010
0000
0010
,
0110
1100
1001
0001
,
0011
0000
0000
0010
0000
0000
0001
0000
,
0100
0000
0000
0010
0000
0000
1000
0000
,
0100
0000
0000
0000
0000
0000
1000
0000
0000
0000
0000
0000
0010
0000
0000
0110
,
1001
0010
0100
1000
,
0001
0100
0001
0000
0010
0000
0100
0000
,
1000
0100
1000
0000
0100
0000
0010
0000
,
0001
0010
0001
0000
0100
0000
0010
0000
,
1000
0010
1000
0000
1001
0000
0100
0000
,
0001
0010
0100
0000
1000
0000
0001
0000
,
1000
0100
0010
0000
0100
0000
0010
0000
,
0001
0100
0010
0000
0100
0000
0010
0000
,
1000
0000
0001
0000
1001
0000
0000
0002
,
0000
0000
0000
0000
0000
1000
0000
1000
,
1000
0000
1000
1003
0000
1000
0001
0000
,
0001
1000
0000
0010
0100
0000
0100
0010
,
0000
0010
0100
0101
1100
0000
0000
2000
,
0000
0000
0000
3000
0001
0010
0100
1000
,
0010
0100
0001
0100
0010
1000
0100
0010
,
0001
0010
0100
1000
0000
0001
1000
0001
,
0100
0000
0010
0000
1000
0000
0010
0200
0000
0000
0000
0000
0000
0000
0000
0000
,
0300
0000
0000
0000
;

//---------------dance-single - Easy Itsugo15----------------
#NOTES:
     dance-single:
     Easy Itsugo15:
     Easy:
     4:
     0.176,0.237,0.053,0.088,0.009:
0000
0000
0000
0000
,
0000
0000
0000
0000
,
0000
0000
0000
0000
,
0000
0000
0000
0000
,
0000
0000
0000
0000
,
0000
0000
0000
0000
,
0000
0000
0000
0000
,
0000
0000
0000
0000
,
1000
0000
0000
0000
,
0001
0000
0001
0000
,
0020
0000
0000
0000
,
0130
0000
1000
0000
,
0001
0000
0000
0000
,
1000
0000
1000
0000
,
0200
0000
0000
0000
,
0310
0000
0001
0000
,
1000
0000
0002
0000
,
0000
0000
1000
0000
,
1000
0000
0000
0003
,
1001
4000
0000
0000
,
3001
0000
0100
0000
,
0010
0000
1000
0000
,
0100
0000
0010
0000
,
0001
0000
0000
0000
0100
0000
0000
0001
,
1000
0000
0010
0000
,
0020
0000
0000
0030
0000
0000
0000
1000
,
0001
0000
0010
0000
,
0100
0000
1000
0000
,
1001
0000
0010
0010
,
0010
0000
0100
0100
,
0100
0000
0001
0001
,
0001
0000
0000
0000
1000
0000
1000
0100
,
0010
0000
0001
0000
,
0002
0000
0000
0000
0003
0000
0000
0001
,
0100
0000
0010
0000
,
1000
0000
0100
0000
,
0010
0000
0000
0000
,
0001
0000
0000
0000
,
1000
0000
0000
0000
,
0010
0100
0010
0000
,
1000
0000
0000
1000
,
0001
0000
0000
0010
,
0100
0000
0000
0000
0000
0000
0000
0000
0000
0000
0000
0000
0010
0000
0000
0120
,
1000
1030
0001
0000
,
0010
0100
1000
0000
,
0100
0100
0010
0000
,
0001
0100
0010
0000
,
1000
1000
0001
0000
,
0001
0001
1000
0000
,
0100
0100
0010
0000
,
0010
0010
0100
0000
,
1000
0001
1001
0000
,
1000
1000
0100
0100
,
0010
0010
0001
0001
,
0100
0100
0010
0010
,
1000
0000
0001
0000
1001
0000
0000
0002
,
0000
0000
1000
1000
,
2003
0000
0001
0001
,
0002
3003
0001
0010
,
0100
0000
0000
0000
1000
0000
0000
1100
0000
0000
0000
0000
0000
0000
0000
0000
;

//---------------dance-single - Beginner Itsugo15----------------
#NOTES:
     dance-single:
     Beginner Itsugo15:
     Beginner:
     2:
     0.090,0.132,0.027,0.035,0.004:
0000
0000
0000
0000
,
0000
0000
0000
0000
,
0000
0000
0000
0000
,
0000
0000
0000
0000
,
0000
0000
0000
0000
,
0000
0000
0000
0000
,
0000
0000
0000
0000
,
0000
0000
0000
0000
,
1000
0000
0000
0000
,
0001
0000
0000
0001
,
2000
0000
0000
0000
,
3000
0000
0000
0000
,
0001
0000
0000
0000
,
1000
0000
0000
1000
,
0002
0000
0000
0000
,
1003
0000
0000
0000
,
1001
0000
0000
0000
,
0010
0000
0000
0000
,
0100
0000
0000
0000
,
0001
0000
0000
0000
,
1000
0000
0000
0000
,
1000
0000
0000
0000
,
0001
0000
0000
0000
,
0001
0000
0000
0000
,
0010
0000
0000
0000
,
0010
0000
0000
0000
,
0100
0000
0000
0000
,
1000
0000
0000
0000
,
0001
0000
0000
0000
,
0001
0000
0000
0000
,
1000
0000
0000
0000
,
1000
0000
0000
0000
,
0100
0000
0000
0000
,
0100
0000
0000
0000
,
0010
0000
0000
0000
,
0001
0000
0000
0000
,
1000
0000
0000
0000
,
1100
0000
0000
0000
,
1000
0000
0000
0000
,
1100
0000
0000
0000
,
0010
0000
0000
0000
,
0010
0000
0000
0000
,
0100
0000
0000
0000
0000
0000
0000
0000
0000
0000
0000
0000
0000
0000
0000
0100
,
1000
0000
1000
0000
,
0000
0000
0001
0000
,
0001
0000
0010
0000
,
0000
0000
0100
0000
,
0100
0000
1000
0000
,
0000
0000
0010
0000
,
0010
0000
0100
0000
,
0000
0000
0001
0000
,
0001
0000
0000
0000
1000
0000
0000
2000
,
0000
0000
0000
0000
,
0000
0000
0000
0000
,
3000
0000
0001
0000
,
1000
0000
0000
0000
0010
0000
0000
0200
,
0000
0000
0301
0000
,
0010
0000
0100
0000
,
1000
0000
0001
0000
,
0100
0010
1000
0000
;

//---------------dance-single - Challenge Itsugo15----------------
#NOTES:
     dance-single:
     Challenge Itsugo15:
     Challenge:
     10:
     0.612,0.690,0.248,0.133,0.411: // measure 1
0000
0000
0000
0000
,  // measure 2
0000
0000
0000
0000
,  // measure 3
0000
0000
0000
0000
,  // measure 4
0000
0000
0000
0000
,  // measure 5
1000
0010
0100
0100
0001
0010
0100
0100
,  // measure 6
0010
0001
0100
0100
0010
1000
1000
0001
,  // measure 7
1000
0010
0010
0100
0010
1000
1000
0100
,  // measure 8
0010
0000
0000
0000
0001
0000
0000
0000
0010
0000
0000
0000
0000
0000
0000
0000
0100
0000
0000
0000
1000
0000
0000
0000
1000
0000
0001
0000
1000
0010
0100
0001
,  // measure 9
1000
0000
1000
0100
1000
0010
0100
0001
,  // measure 10
0010
0010
0010
0010
0000
0100
0010
0000
,  // measure 11
0001
0100
1000
0100
0001
0010
0100
1000
,  // measure 12
0010
0100
0001
0100
0010
1000
0100
0010
,  // measure 13
0001
0000
0001
0010
0001
0100
0010
1000
,  // measure 14
0100
0100
0100
0100
0000
0100
0010
0000
,  // measure 15
0001
0010
0100
1000
0010
0100
0001
0010
,  // measure 16
0001
0010
0001
0010
0001
0000
1000
0100
0000
0010
0001
0000
1000
0010
0100
0001
,  // measure 17
0100
0000
0010
0100
0010
0100
0001
0010
,  // measure 18
0100
1000
0010
1000
0010
0100
0001
1000
,  // measure 19
0001
1000
0001
0010
0100
1000
0010
0100
,  // measure 20
0001
0000
0000
0000
0001
0100
0001
0100
0001
0100
0001
0100
0001
0100
0010
1000
,  // measure 21
0100
0000
0100
1000
0010
0000
0100
0001
,  // measure 22
1000
0000
0100
0010
0001
0010
0100
1000
,  // measure 23
0001
0000
0001
0100
0010
0000
1000
0001
,  // measure 24
0010
0000
0000
0000
0001
0000
0010
0000
0100
0000
1000
0000
0010
0000
0100
0001
,  // measure 25
1000
0000
0000
1000
1000
0000
0100
0000
1000
0000
0000
1000
1000
0000
0100
0000
,  // measure 26
1000
0000
0000
1000
1000
0000
0100
0000
1000
0000
0000
0000
0010
0000
0100
0001
,  // measure 27
0100
0000
0000
0001
0001
0000
0100
0000
0001
0000
0000
0001
0001
0000
0100
0000
,  // measure 28
0001
0000
0000
0001
0001
0000
0100
0000
0001
0000
1000
0000
0100
0000
0010
0000
,  // measure 29
0001
0000
0000
1000
0000
0000
0000
0000
0000
0000
0001
0000
0000
0000
0000
0000
0000
0000
0001
0000
0000
0000
0000
0000
1000
0000
0000
0001
0000
0000
0000
0000
0000
0000
1000
0000
0000
0000
0000
0000
0000
0000
1000
0000
0000
0000
0000
0000
,  // measure 30
0001
0000
0000
1000
0000
0000
0000
0000
0000
0000
0001
0000
0000
0000
0000
0000
0000
0000
0001
0000
0000
0000
0000
0000
2000
0000
0000
0000
0000
0000
0000
0000
0000
0000
0000
0000
3200
0000
0000
0000
0000
0000
0000
0000
0000
0000
0000
0000
,  // measure 31
1300
0000
0000
0001
0000
0000
0000
0000
0000
0000
1000
0000
0000
0000
0000
0000
0000
0000
1000
0000
0000
0000
0000
0000
0001
0000
0000
1000
0000
0000
0000
0000
0000
0000
0001
0000
0000
0000
0000
0000
0000
0000
0001
0000
0000
0000
0000
0000
,  // measure 32
1000
0000
0000
0001
0000
0000
0000
0000
0000
0000
1000
0000
0000
0000
0000
0000
0000
0000
2000
0000
0000
0000
0000
0000
3020
0000
0000
0000
0000
0000
0230
0000
0000
0000
0000
0000
0302
0000
0000
0000
0000
0000
1003
0000
0000
0001
0000
0000
,  // measure 33
1000
0000
0000
0001
0001
0000
0010
0000
0001
0000
0000
0001
0001
0000
0010
0000
,  // measure 34
0001
0000
0000
0001
0001
0000
0010
0000
0001
0000
0000
0000
0001
0000
0100
0010
,  // measure 35
1000
0000
0000
1000
1000
0000
0010
0000
1000
0000
0000
1000
1000
0000
0010
0000
,  // measure 36
1000
0000
1000
0000
0010
0000
0100
0000
0001
0000
0001
0000
0100
0010
1000
0001
,  // measure 37
0010
0000
0100
1000
0000
1000
0100
0100
,  // measure 38
0010
0000
0010
0001
0000
0001
0010
0010
,  // measure 39
0100
0000
1000
0001
0000
0001
1000
0010
,  // measure 40
1010
0000
1001
0000
0101
0000
0010
0100
,  // measure 41
1000
0000
1000
0001
0000
0001
1000
0100
,  // measure 42
0010
0000
0010
0100
0000
0100
0010
0001
,  // measure 43
0011
0000
0011
0000
0011
0000
0011
0000
0011
0000
0011
0000
0011
0000
0100
1000
,  // measure 44
1100
0010
0101
0010
1001
0000
0010
0000
,  // measure 45
0100
1000
0100
0010
0001
1000
0001
0100
,  // measure 46
0001
0001
0000
1001
0000
0000
0100
0000
0010
0000
0001
0000
1000
0000
0010
0000
,  // measure 47
0100
0100
0000
0110
0000
0000
0010
0000
1000
0000
0100
0000
0010
0000
0001
0000
,  // measure 48
0001
0001
0000
1001
0000
0000
0010
0000
0100
0000
1000
0000
0001
0000
0100
0000
,  // measure 49
0010
0010
0000
0110
0000
0000
0010
0000
1000
0000
0100
0000
0010
0000
0100
0000
,  // measure 50
1000
1000
0000
1001
0000
0000
0010
0000
0001
0000
0100
0000
0010
0000
1000
0000
,  // measure 51
0100
0100
0000
0110
0000
0000
0010
0000
0001
0000
0100
0000
0010
0000
0100
0000
,  // measure 52
0001
0000
0000
1000
0000
0000
0001
0000
1001
0000
0000
0000
0002
0000
2000
0000
,  // measure 53
0000
0000
0000
0000
0000
0000
0000
0000
0000
0000
0000
0000
0000
0000
0000
0000
3003
0000
0000
0000
0001
0010
0000
0000
0000
0000
0000
0000
0010
0100
0000
0000
,  // measure 54
0000
0000
0000
0000
0000
0000
0000
0000
0000
0100
0000
0000
0000
0000
0000
0000
1000
0000
0000
0000
0000
0000
0000
0000
0000
0000
0000
0000
0000
0000
0000
0000
0000
0000
0000
0000
0000
0000
0000
0000
0000
0000
0000
0000
0000
0000
0000
0000
1000
0000
0000
0000
0000
0000
0001
0000
0000
0000
0000
0000
0000
0000
0000
0000
0000
0000
0000
0000
0000
0000
0000
0000
0000
0000
0000
0001
0000
0000
0000
0000
0100
0000
0000
0000
0000
0000
0000
0000
0000
0000
0000
0000
0000
0000
0000
0000
0000
0000
0000
0000
0000
0000
0000
0000
0000
0100
0000
0000
0000
0000
0000
0000
0020
0000
0000
0000
0000
0000
0000
0000
0000
0000
0000
0000
0000
0000
0000
0000
0000
0000
0000
0000
0000
0000
0000
0000
0000
0000
0000
0000
0000
0000
0000
0000
0000
0000
0000
0000
0000
0000
0000
0000
0000
0000
0000
0000
0000
0000
0000
0000
0000
0000
0000
0000
0000
0000
0000
0000
0000
0000
0000
0000
0000
0000
0000
0000
0000
0000
0000
0000
0000
0000
0000
0000
0000
0000
0000
0000
0000
0000
0000
0000
,  // measure 55
0130
0000
0000
0000
0001
0000
0000
0000
1000
0000
0000
0000
0001
0000
0010
0000
0100
0010
0001
0010
0001
0010
0001
0010
0002
0000
0000
0000
0000
0000
0000
0000
,  // measure 56
0003
1000
0100
0000
1100
0000
0110
0000
1100
0000
0000
0000
2000
0000
0002
0000
,  // measure 57
0000
0000
0000
0000
0000
0000
3003
0000
0100
0010
1000
0100
0010
0100
1000
0001
,  // measure 58
0100
0010
0001
0010
0100
0001
1000
0100
0020
0000
0000
0000
0030
0000
0100
1000
,  // measure 59
0001
0100
0010
0001
0010
0100
0010
1000
0000
1010
1001
0000
0101
0000
0101
0000
,  // measure 60
0001
1000
0001
1000
0001
0000
1000
2200
0000
0000
0000
0000
0000
0000
0000
0000
,  // measure 61
3300
0000
0000
0000
;
