#TITLE:Kimi to Taiyou ga Shinda Hi;
#SUBTITLE:High School of The Dead 1st Ending;
#ARTIST:Kurosaki Maon;
#TITLETRANSLIT:Kimi to Taiyou ga Shinda Hi;
#SUBTITLETRANSLIT:High School of The Dead 1st Ending;
#ARTISTTRANSLIT:Kurosaki Maon;
#GENRE:Anime;
#CREDIT:Itsugo15;
#MENUCOLOR:;
#BANNER:Kimi to Taiyou ga Shinda Hi-bn.png;
#BACKGROUND:Kimi to Taiyou ga Shinda Hi-bg.png;
#LYRICSPATH:Kimi to Taiyou ga Shinda Hi.lrc;
#CDTITLE:Itsugo15 SimifileS.png;
#MUSIC:Kimi to Taiyou ga Shinda Hi.mp3;
#OFFSET:-0.800;
#SAMPLESTART:62.750;
#SAMPLELENGTH:30.000;
#SELECTABLE:YES;
#LISTSORT:;
#DISPLAYBPM:*;
#BPMS:0.000=104.100,16.000=208.200,125.500=416.398,128.000=208.200,144.000=104.100,176.000=208.200,285.500=416.398,288.000=208.220,304.000=104.100,336.000=52.060;
#STOPS:125.500=0.200
,126.000=0.100
,127.500=0.100
,285.500=0.200
,286.000=0.100
,287.500=0.100
;
#TICKCOUNT:0.000=8;
#BGCHANGES:12.813=Kimi to Taiyou ga Shinda Hi-VD1.avi=1.000=1=0=0,
33.500=Kimi to Taiyou ga Shinda Hi-VD2.avi=1.000=1=1=0,
352.000=Kimi to Taiyou ga Shinda Hi-bg.png=1.000=0=0=1,
99999=-nosongbg-=1.000=0=0=0 // don't automatically add -songbackground-
;
#KEYSOUNDS:;
#ATTACKS:;

//---------------dance-single - Challenge Itsugo15----------------
#NOTES:
     dance-single:
     Challenge Itsugo15:
     Challenge:
     9:
     0.586,0.754,0.278,0.100,0.157: // measure 1
0000
0000
0000
0000
,  // measure 2
0000
0000
0000
0000
,  // measure 3
0000
0000
0000
0000
,  // measure 4
0000
0000
1000
0001
,  // measure 5
1001
0000
1000
0000
0010
0000
0100
0001
,  // measure 6
0000
1000
0100
0000
0010
0100
0010
0100
,  // measure 7
1000
0001
0100
0010
1000
0000
0100
0010
,  // measure 8
0000
0100
1000
0000
0100
0010
0001
0010
,  // measure 9
0100
1000
0001
0100
0010
0000
1000
0001
,  // measure 10
0000
0010
0100
0000
1000
0100
0010
0100
,  // measure 11
1000
0001
0100
0010
1000
0000
0001
0010
,  // measure 12
0000
0100
1000
0000
0100
1000
0100
1000
,  // measure 13
1100
0000
0100
0000
0010
0000
0001
1000
,  // measure 14
0000
0010
0100
0000
0001
0100
0001
0100
,  // measure 15
0001
1000
0001
0010
0100
0000
1000
0001
,  // measure 16
0000
0100
0010
0000
1000
0010
1000
0001
,  // measure 17
1000
0100
0010
0001
0010
0000
0100
1000
,  // measure 18
0000
0001
0100
0000
0001
0100
0001
1000
,  // measure 19
0001
0010
0100
1000
0001
0000
0100
0010
,  // measure 20
0000
1000
0001
0000
0010
0001
0010
0001
,  // measure 21
0011
0000
0001
1000
0000
1000
0001
0000
,  // measure 22
0010
0100
0000
0100
0010
0000
0001
0010
,  // measure 23
0100
0000
1000
0100
0000
0010
0001
0000
,  // measure 24
1000
0010
0000
0100
0001
0000
0101
0000
,  // measure 25
1010
0000
1000
0001
0000
0001
1000
0000
,  // measure 26
0100
0010
0000
0010
0100
0000
1000
0100
,  // measure 27
0010
0000
0001
0010
0000
0100
1000
0000
,  // measure 28
0001
0100
0000
0010
1000
0000
1010
0000
,  // measure 29
0101
0000
0001
0100
0000
0010
1000
0000
,  // measure 30
0010
1000
0001
0000
1000
0100
0010
0001
,  // measure 31
0010
0110
0000
1100
0000
1000
0000
0001
,  // measure 32
0000
1001
0000
0101
1010
0000
0000
0000
,  // measure 33
1001
0000
1001
0000
1000
0000
0001
0010
,  // measure 34
0000
0100
1000
0000
0100
1000
0100
1000
,  // measure 35
0001
1000
0010
0100
0001
0100
0010
1000
,  // measure 36
0001
0010
0100
1000
0001
0100
0010
1000
,  // measure 37
0001
0000
0001
0000
1000
0010
0000
0100
0001
0000
0100
0000
0010
0000
0110
0000
,  // measure 38
1010
0000
1000
0000
0001
0010
0000
0100
1000
0000
0100
0000
0010
0000
0110
0000
,  // measure 39
0011
0000
0001
0000
1000
0001
0000
1000
0001
0000
0010
0000
0011
0000
0011
0000
,  // measure 40
0001
0000
1000
0000
0001
1000
0000
0001
1000
0000
1000
0000
1010
0000
1010
0000
,  // measure 41
0010
0000
0100
0000
0001
0001
0000
0100
0100
0000
0010
0000
1000
0000
0001
0000
,  // measure 42
0010
0000
0100
0000
1000
1000
0000
0100
0100
0000
0010
0000
0001
0000
1000
0000
,  // measure 43
0010
0000
0100
0000
0001
0100
0000
0001
0100
0000
0100
0000
0010
0000
1000
0000
,  // measure 44
0010
1000
0001
0010
0000
0100
1000
0000
0100
0010
0000
0001
1000
0000
0001
0000
,  // measure 45
1001
0000
0001
0000
0100
0000
0010
1000
,  // measure 46
0000
0001
0010
0000
0100
0010
0100
0010
,  // measure 47
0001
1000
0010
0100
0001
0000
1000
0001
,  // measure 48
0000
0010
0001
0000
0010
0100
1000
0100
,  // measure 49
0010
0001
1000
0010
0100
0000
0001
1000
,  // measure 50
0000
0100
0010
0000
0001
0010
0100
0010
,  // measure 51
0001
1000
0010
0100
0001
0000
1000
0100
,  // measure 52
0000
0010
0001
0000
0010
0001
0010
0001
,  // measure 53
0011
0000
0010
0000
0100
0000
1000
0001
,  // measure 54
0000
0100
0010
0000
1000
0010
1000
0010
,  // measure 55
1000
0001
1000
0100
0010
0000
0001
1000
,  // measure 56
0000
0010
0100
0000
0001
0100
0001
1000
,  // measure 57
0001
0010
0100
1000
0100
0000
0010
0001
,  // measure 58
0000
1000
0010
0000
1000
0010
1000
0001
,  // measure 59
1000
0100
0010
0001
1000
0000
0010
0100
,  // measure 60
0000
0001
1000
0000
0100
1000
0100
1000
,  // measure 61
1100
0000
1000
0001
0000
0001
1000
0000
,  // measure 62
0100
0010
0000
0010
0100
0000
1000
0100
,  // measure 63
0010
0000
0001
0010
0000
0100
1000
0000
,  // measure 64
0001
0100
0000
0010
1000
0000
1010
0000
,  // measure 65
0101
0000
0001
1000
0000
1000
0001
0000
,  // measure 66
0010
0100
0000
0100
0010
0000
0001
0010
,  // measure 67
0100
0000
1000
0100
0000
0010
0001
0000
,  // measure 68
1000
0010
0000
0100
0001
0000
0101
0000
,  // measure 69
1010
0000
1000
0010
0000
0100
0001
0000
,  // measure 70
0100
0001
1000
0000
0001
0010
0100
1000
,  // measure 71
0100
0110
0000
0011
0000
0001
0000
1000
,  // measure 72
0000
1001
0000
1010
0101
0000
0000
0000
,  // measure 73
1001
0000
1001
0000
0001
0000
1000
0100
,  // measure 74
0000
0010
0001
0000
0010
0001
0010
0001
,  // measure 75
1000
0001
0100
0010
1000
0010
0100
0001
,  // measure 76
1000
0100
0010
0001
1000
0010
0100
0001
,  // measure 77
2000
0000
3200
0000
,  // measure 78
0320
0000
0000
0001
0000
0000
0001
0000
1032
0000
1000
0000
1003
0000
0010
0000
,  // measure 79
2010
0000
3002
0000
,  // measure 80
0023
0000
0000
0000
0000
0000
0000
0000
0130
0010
0100
0010
0100
0010
0001
1000
,  // measure 81
0010
0000
0010
1000
0001
0000
0001
1000
,  // measure 82
0010
0000
0000
0100
0000
0000
0100
0000
0001
0000
1000
0000
0100
0000
0000
0000
,  // measure 83
0020
0000
0000
0000
,  // measure 84
0031
0000
0000
1000
0000
0000
0010
0000
0100
0001
0100
0001
0100
0010
1000
0001
,  // measure 85
0100
0000
0000
0000
0000
0000
0000
0000
0000
0000
0000
0000
0000
0000
0000
0000
0000
0000
0000
0000
0000
0000
0000
0000
0000
0000
0000
0000
0000
0000
0000
0000
0000
0000
0000
0000
0010
0000
0000
0000
0000
0000
0000
0000
0000
0000
0000
0000
0000
0000
0000
0000
0000
0000
0000
0000
0000
0000
0000
0000
0000
0000
0000
0000
0000
0000
0000
0000
0000
0000
0000
0000
0000
0000
0000
0000
0000
0000
0000
0000
0000
0000
0000
0000
0000
0000
0000
0000
0000
0000
0000
0000
0000
0000
0000
0000
1000
0000
0000
0000
0000
0000
0000
0000
0000
0000
0000
0000
0000
0000
0000
0000
0001
0000
0000
0000
0000
0000
0000
0000
0000
0000
0000
0000
0000
0000
0000
0000
0010
0000
0000
0000
0000
0000
0000
0000
0000
0000
0000
0000
0000
0000
0000
0000
0000
0000
0000
0000
0000
0000
0200
0000
0000
0000
0000
0000
0000
0000
0000
0000
0000
0000
0000
0000
0000
0000
0000
0000
0000
0000
0000
0000
0000
0000
0000
0000
0000
0000
0000
0000
0000
0000
0000
0000
0000
0000
0000
0000
0000
0000
0000
0000
,  // measure 86
0310
0000
0000
0001
0000
0000
1000
0000
0000
0010
0000
0000
0000
0000
0000
0100
0000
0000
0010
0000
0000
1000
0000
0000
0001
0000
0000
0000
1000
0000
0000
0000
0000
0200
0000
0000
0000
0000
0000
0000
0000
0000
0000
0000
0000
0000
0000
0000
,  // measure 87
1300
0010
0100
0002
0000
0103
0010
2000
0000
0000
0000
0000
0000
0000
0000
0000
,  // measure 88
0000
0000
0000
0000
0000
0000
0000
0000
0000
0000
0000
0000
0000
0000
0000
3000
,  // measure 89
M202
0303
0000
0000
0000
0000
0000
0000
0000
0000
0000
0000
0000
0000
0000
0000
;

//---------------dance-single - Beginner Itsugo15----------------
#NOTES:
     dance-single:
     Beginner Itsugo15:
     Beginner:
     1:
     0.057,0.157,0.000,0.021,0.000:
0000
0000
0000
0000
,
0000
0000
0000
0000
,
0000
0000
0000
0000
,
0000
0000
0000
0000
,
0100
0000
0000
0000
,
0000
0000
0000
0000
,
0010
0000
0000
0000
,
0000
0000
0000
0000
,
0001
0000
0000
0000
,
0000
0000
0000
0000
,
1000
0000
0000
0000
,
0000
0000
0000
0000
,
0010
0000
0000
0000
,
0000
0000
0000
0000
,
0100
0000
0000
0000
,
0000
0000
0000
0000
,
0001
0000
0000
0000
,
0000
0000
0000
0000
,
0100
0000
0000
0000
,
0000
0000
0000
0000
,
1000
0000
0000
0000
,
0000
0000
0000
0000
,
0100
0000
0000
0000
,
0000
0000
0000
0000
,
0001
0000
0000
0000
,
0000
0000
0000
0000
,
0010
0000
0000
0000
,
0000
0000
0000
0000
,
0100
0000
0000
0000
,
0000
0000
0000
0000
,
1000
0000
0000
0000
,
0000
0000
0000
0001
0000
0000
0000
0000
,
1000
0000
0000
0000
,
0000
0000
0000
0000
,
0010
0000
0000
0000
,
0000
0000
0000
0000
,
0100
0000
0000
0000
,
0100
0000
0000
0000
,
0100
0000
0000
0000
,
0100
0000
0000
0000
,
0010
0000
0000
0000
,
1000
0000
0000
0000
,
0001
0000
0000
0000
,
0010
0000
0000
0000
,
0100
0000
0000
0000
,
0000
0000
0000
0000
,
0010
0000
0000
0000
,
0000
0000
0000
0000
,
0001
0000
0000
0000
,
0000
0000
0000
0000
,
1000
0000
0000
0000
,
0000
0000
0000
0000
,
0010
0000
0000
0000
,
0000
0000
0000
0000
,
0100
0000
0000
0000
,
0000
0000
0000
0000
,
0100
0000
0000
0000
,
0000
0000
0000
0000
,
0010
0000
0000
0000
,
0000
0000
0000
0000
,
0010
0000
0000
0000
,
0000
0000
0000
0000
,
1000
0000
0000
0000
,
0000
0000
0000
0000
,
0001
0000
0000
0000
,
0000
0000
0000
0000
,
1000
0000
0000
0000
,
0000
0000
0000
0000
,
0010
0000
0000
0000
,
0000
0000
0000
0000
,
0100
0000
0000
0000
,
0000
0000
0000
0001
0000
0000
0000
0000
,
1000
0000
0000
0000
,
0000
0000
0000
0000
,
0100
0000
0000
0000
,
0000
0000
0000
0000
,
0010
0000
0000
0000
,
0010
0000
0000
0000
,
0001
0000
0000
0000
,
0001
0000
0000
0000
,
1000
0000
0000
0000
,
1000
0000
0000
0000
,
0010
0000
0000
0000
,
0100
0000
0000
0000
,
0020
0000
0000
0000
,
2030
0000
0000
0000
,
3002
0000
0000
0000
,
0000
0000
0000
0000
,
0003
0000
0000
0000
;

//---------------dance-single - Light Itsugo15----------------
#NOTES:
     dance-single:
     Light Itsugo15:
     Easy:
     3:
     0.112,0.314,0.007,0.050,0.007:
0000
0000
0000
0000
,
0000
0000
0000
0000
,
0000
0000
0000
0000
,
0000
0000
0000
0000
,
0001
0000
0000
0000
,
1000
0000
0000
0000
,
0010
0000
0000
0000
,
0100
0000
0000
0000
,
0010
0000
0000
0000
,
1000
0000
0000
0000
,
0001
0000
0000
0000
,
0010
0000
0000
0000
,
0100
0000
0000
0000
,
0010
0000
0000
0000
,
0001
0000
0000
0000
,
1000
0000
0000
0000
,
0001
0000
0000
0000
,
0010
0000
0000
0000
,
0100
0000
0000
0000
,
1000
0000
0000
0000
,
0100
0000
0000
0000
,
0010
0000
0000
0000
,
0001
0000
0000
0000
,
1000
0000
0000
0000
,
0010
0000
0000
0000
,
0100
0000
0000
0000
,
0001
0000
0000
0000
,
0100
0000
0000
0000
,
0010
0000
0000
0000
,
1000
0000
0000
0000
,
0001
0000
0000
0000
,
2000
0000
0000
0001
0000
0000
0000
0000
,
3001
0000
0000
0000
,
0001
0000
0000
0000
,
0010
0000
0000
0000
,
0100
0000
0000
0000
,
1000
0000
1000
0000
,
0100
0000
0100
0000
,
0010
0000
0010
0000
,
0001
0000
1000
0000
,
0010
0000
0100
0000
,
0010
0000
1000
0000
,
0001
0000
0010
0000
,
0011
0000
0000
0000
,
1000
0000
0000
0000
,
0001
0000
0000
0000
,
0100
0000
0000
0000
,
0010
0000
0000
0000
,
0100
0000
0000
0000
,
0001
0000
0000
0000
,
1000
0000
0000
0000
,
0100
0000
0000
0000
,
0010
0000
0000
0000
,
0100
0000
0000
0000
,
1000
0000
0000
0000
,
0001
0000
0000
0000
,
1000
0000
0000
0000
,
0100
0000
0000
0000
,
0010
0000
0000
0000
,
0001
0000
0000
0000
,
0010
0000
0000
0000
,
0100
0000
0000
0000
,
1000
0000
0000
0000
,
0001
0000
0000
0000
,
0100
0000
0000
0000
,
0010
0000
0000
0000
,
1000
0000
0000
0000
,
0010
0000
0000
0000
,
0100
0000
0000
0000
,
0001
0000
0000
0000
,
1000
0000
0000
0000
,
0002
0000
0000
1000
0000
0000
0000
0000
,
1003
0000
0000
0000
,
1000
0000
0000
0000
,
0100
0000
0000
0000
,
0010
0000
0000
0000
,
0001
0000
0001
0000
,
0001
0000
0001
0000
,
1000
0000
1000
0000
,
1000
0000
1000
0000
,
0010
0000
0010
0000
,
0010
0000
0100
0000
,
0020
0000
0000
0000
,
0000
0000
0000
0000
,
2030
0000
0000
3000
0000
0000
0001
0000
1000
0000
0000
0000
,
0002
0000
0000
0003
0000
0000
0010
0000
0200
0000
0000
0000
,
0320
0000
0000
0000
,
0000
0000
0000
0000
,
0031
0000
0000
0000
;

//---------------dance-single - Medium Itsugo15----------------
#NOTES:
     dance-single:
     Medium Itsugo15:
     Medium:
     6:
     0.237,0.409,0.171,0.114,0.018:
0000
0000
0000
0000
,
0000
0000
0000
0000
,
0000
0000
0000
0000
,
0000
0000
0000
0000
,
1000
0000
0010
0000
,
0100
0000
0110
0000
,
0010
0000
1000
0000
,
0001
0000
1001
0000
,
1000
0000
0001
0000
,
0010
0000
0011
0000
,
0001
0000
1000
0000
,
0010
0000
1010
0000
,
0100
0000
0001
0000
,
0100
0000
1000
0000
,
0100
0000
0001
0000
,
1000
0000
0100
0000
,
0001
0000
0100
0000
,
1000
0000
0100
0000
,
0010
0000
0001
0000
,
1000
0000
0100
0000
,
1100
0000
1100
0000
,
0100
0000
0010
0000
,
0001
0000
1000
0000
,
0001
0000
0100
0000
,
0101
0000
0101
0000
,
0001
0000
0100
0000
,
0010
0000
1000
0000
,
0001
0000
2000
3000
,
1001
0000
0001
0000
,
1000
0000
0010
0000
,
0100
0000
0010
0000
,
1000
0000
0000
1010
0000
0000
0000
0000
,
0101
0000
0100
0000
,
1000
0000
0100
0000
,
0001
0000
1000
0000
,
0100
0000
0001
0000
,
0100
0100
0010
0001
,
1000
1000
0010
0100
,
0110
0010
1000
0001
,
0010
0010
0100
1000
,
0001
0001
0100
0010
,
1000
1000
0010
0100
,
0001
0001
1000
0001
,
1001
0000
0000
0000
,
0001
0000
0100
0000
,
0010
0000
0110
0000
,
0100
0000
0001
0000
,
1000
0000
1001
0000
,
0001
0000
1000
0000
,
0100
0000
1100
0000
,
1000
0000
0001
0000
,
0100
0000
0101
0000
,
0010
0000
1000
0000
,
0010
0000
0001
0000
,
0010
0000
1000
0000
,
0001
0000
0010
0000
,
1000
0000
0010
0000
,
0001
0000
0010
0000
,
0100
0000
1000
0000
,
0001
0000
0010
0000
,
0011
0000
0011
0000
,
0010
0000
0100
0000
,
1000
0000
0001
0000
,
1000
0000
0010
0000
,
1010
0000
1010
0000
,
1000
0000
0010
0000
,
0100
0000
0001
0000
,
1000
0000
0002
0003
,
1001
0000
1000
0000
,
0001
0000
0100
0000
,
0010
0000
0100
0000
,
0001
0000
0000
0101
0000
0000
0000
0000
,
1010
0000
0010
0000
,
0001
0000
0010
0000
,
1000
0000
0001
0000
,
0010
0000
1000
0000
,
0010
0020
0031
0002
,
1003
2000
3010
0020
,
0130
0200
0310
0020
,
1030
2000
3001
0002
,
1003
2000
3100
0200
,
0310
0000
0001
1000
,
0200
0000
0000
0000
,
0000
0000
0300
1000
,
0001
0000
0000
0000
0000
0000
0000
0000
0000
0000
0000
0000
0000
0000
0000
0000
0000
0000
0000
0000
0000
0000
0000
0000
0000
0000
0000
0000
0000
0000
0000
0000
0000
0000
0000
0000
0000
0000
0000
0000
0000
0000
0000
0000
0000
0000
0000
0000
0000
0000
0000
0000
0000
0000
0000
0000
0000
0000
0000
0000
0000
0000
0000
0000
0000
0000
0000
0000
0000
0000
0000
0000
0000
0000
0000
0000
0000
0000
0000
0000
0000
0000
0000
0000
0000
0000
0000
0000
0000
0000
0000
0000
0000
0000
0000
0000
0001
0000
0000
0000
0000
0000
0000
0000
0000
0000
0000
0000
0000
0000
0000
0000
1000
0000
0000
0000
0000
0000
0000
0000
0000
0000
0000
0000
0000
0000
0000
0000
0001
0000
0000
0000
0000
0000
0000
0000
0000
0000
0000
0000
0000
0000
0000
0000
0000
0000
0000
0000
0000
0000
0200
0000
0000
0000
0000
0000
0000
0000
0000
0000
0000
0000
0000
0000
0000
0000
0000
0000
0000
0000
0000
0000
0000
0000
0000
0000
0000
0000
0000
0000
0000
0000
0000
0000
0000
0000
0000
0000
0000
0000
0000
0000
,
0300
0000
0000
0000
0000
0000
0100
0010
0100
0000
0000
0000
,
0002
0000
0000
0000
,
0000
0000
0000
0000
,
2003
3000
0000
0000
0000
0000
0000
0000
0000
0000
0000
0000
0000
0000
0000
0000
;

//---------------dance-single - Heavy Itsugo15----------------
#NOTES:
     dance-single:
     Heavy Itsugo15:
     Hard:
     8:
     0.450,0.566,0.321,0.150,0.061:
0000
0000
0000
0000
,
0000
0000
0000
0000
,
0000
0000
0000
0000
,
0000
0000
0000
0000
,
0110
0010
0001
1000
,
0001
1000
0001
0000
1000
0000
0010
0000
,
0100
0001
0100
0010
,
1000
0010
1000
0000
0001
0000
0010
0000
,
0100
0010
0001
1000
,
0001
1000
0001
0000
0100
0000
0010
0000
,
1000
0001
0010
0100
,
1000
0100
1000
0000
1100
0000
0100
0010
,
0001
0010
0001
1000
,
0001
0000
0100
0000
0010
0000
1000
0010
,
1000
0001
0010
0100
,
0010
0000
0001
0000
1000
0000
0001
1000
,
0001
0100
0010
1000
,
0010
0000
0100
0000
0001
0000
0100
0001
,
0100
0010
1000
0001
,
0010
0000
0100
0000
1000
0000
0100
1000
,
0100
1100
0001
0101
,
0100
0000
0001
0000
0100
0000
0001
0100
,
0001
0101
1000
1100
,
0100
0010
0011
0011
,
0010
1100
0001
0101
,
0100
0001
0100
0000
0100
0000
0001
0000
,
0101
0000
1000
0000
1100
0000
0100
1000
,
0100
0000
1000
0001
1000
0000
0001
0100
,
0001
1000
0001
0010
,
0100
1000
0100
0010
,
0001
1000
0000
0001
0000
0010
0000
0100
,
0000
1000
0000
1100
1100
0000
0000
0000
,
1001
0001
0010
0100
,
1000
0001
1000
0010
,
0100
0001
0100
0010
,
1000
0001
0010
0100
,
1000
0000
1100
0000
1000
0001
1001
0000
,
0001
0000
0101
0000
0001
1000
1001
0000
,
0010
0000
1010
0000
1000
0001
1001
0000
,
0010
0000
0011
0000
0001
1000
1001
0000
,
0100
0000
0101
0000
0100
0010
0110
0000
,
1000
0000
1010
0000
0010
0100
0110
0000
,
0100
0000
0001
0000
0001
1000
1001
0000
,
0220
0000
0000
0330
,
0110
0100
1000
0001
,
1000
0001
1000
0000
0001
0000
0100
0000
,
0010
1000
0010
0100
,
0001
0100
0001
0000
1000
0000
0100
0000
,
0010
0100
1000
0001
,
1000
0001
1000
0000
0010
0000
0100
0000
,
0001
1000
0100
0010
,
0001
0010
0001
0000
0011
0000
0010
0100
,
1000
0100
1000
0001
,
1000
0000
0010
0000
0100
0000
0001
0100
,
0001
1000
0100
0010
,
0100
0000
1000
0000
0001
0000
1000
0001
,
1000
0010
0100
0001
,
0100
0000
0010
0000
1000
0000
0010
1000
,
0010
0100
0001
1000
,
0100
0000
0010
0000
0001
0000
0010
0001
,
0010
0011
1000
1010
,
0010
0000
1000
0000
0010
0000
1000
0010
,
1000
1010
0001
0011
,
0010
0100
1100
1100
,
0100
0011
1000
1010
,
0010
1000
0010
0000
0010
0000
1000
0000
,
1010
0000
0001
0000
0011
0000
0010
0001
,
0010
0000
0001
1000
0001
0000
1000
0010
,
1000
0001
1000
0100
,
0010
0001
0010
0100
,
1000
0001
0000
1000
0000
0100
0000
0010
,
0000
0001
0000
0011
0011
0000
0000
0000
,
1001
1000
0100
0010
,
0001
1000
0001
0100
,
0010
1000
0010
0100
,
0001
1000
0100
0010
,
0002
0000
2003
0000
,
3020
0000
0000
0000
0230
0010
0010
0010
,
0320
0000
2030
0000
,
3002
0000
0000
0000
0013
0100
1000
0001
,
0020
0000
0031
1000
0020
0000
1030
0001
,
0020
0000
0000
1000
0000
0000
0100
0000
0100
0000
0130
0000
0002
0000
0000
0000
,
2003
0000
0000
0000
,
0000
0000
0000
0000
0000
0000
0000
3000
0001
1000
0001
1000
0001
1000
0001
1000
,
0002
0000
0000
0000
0000
0000
0000
0000
0000
0000
0000
0000
0000
0000
0000
0000
0000
0000
0000
0000
0000
0000
0000
0000
0000
0000
0000
0000
0000
0000
0000
0000
0000
0000
0000
0000
1000
0000
0000
0000
0000
0000
0000
0000
0000
0000
0000
0000
0003
0000
0000
0000
0000
0000
0000
0000
0000
0000
0000
0000
0000
0000
0000
0000
0000
0000
0000
0000
0000
0000
0000
0000
0000
0000
0000
0000
0000
0000
0000
0000
0000
0000
0000
0000
0000
0000
0000
0000
0000
0000
0000
0000
0000
0000
0000
0000
0010
0000
0000
0000
0000
0000
0000
0000
0000
0000
0000
0000
0000
0000
0000
0000
0100
0000
0000
0000
0000
0000
0000
0000
0000
0000
0000
0000
0000
0000
0000
0000
0010
0000
0000
0000
0000
0000
0000
0000
0000
0000
0000
0000
0000
0000
0000
0000
0000
0000
0000
0000
0000
0000
2000
0000
0000
0000
0000
0000
0000
0000
0000
0000
0000
0000
0000
0000
0000
0000
0000
0000
3000
0000
0000
0000
0000
0000
0000
0000
0000
0000
0000
0000
0000
0000
0000
0000
0000
0000
0000
0000
0000
0000
0000
0000
,
0001
0000
0000
1000
0000
0000
0001
0000
0000
2000
0000
0000
0000
0000
0000
0000
0000
0000
0000
0000
0000
0000
0000
0000
3001
0000
0000
0000
1000
0000
0000
0000
0020
0000
0000
0000
0000
0000
0000
0000
0000
0000
0000
0000
0000
0000
0000
0000
,
1030
0010
1000
0010
0000
0100
0000
0002
0000
0000
0000
0000
0000
0000
0000
0000
,
0000
0000
0000
0000
,
2203
3300
0000
0000
0000
0000
0000
0000
0000
0000
0000
0000
0000
0000
0000
0000
;
