#TITLE:Just Be Friends;
#SUBTITLE:NicoNico Chorus;
#ARTIST:Megurine Luka Feat Dixie Flatine;
#TITLETRANSLIT:Just Be Friends;
#SUBTITLETRANSLIT:NicoNico Chorus;
#ARTISTTRANSLIT:Megurine Luka Feat Dixie Flatine;
#GENRE:Japan;
#CREDIT:Itsugo15;
#MENUCOLOR:;
#BANNER:Just Be Friends-VD2.avi;
#BACKGROUND:Just Be Friends-bg.jpg;
#LYRICSPATH:Just Be Friends.lrc;
#CDTITLE:Itsugo15 SimifileS.png;
#MUSIC:Just Be Friends.mp3;
#OFFSET:1.740;
#SAMPLESTART:79.979;
#SAMPLELENGTH:30.000;
#SELECTABLE:YES;
#LISTSORT:;
#BPMS:0.000=128.000;
#STOPS:;
#TICKCOUNT:0.000=6;
#BGCHANGES:3.875=Just Be Friends-VD1.avi=1.000=1=0=0,
174.000=Just Be Friends-bg1.jpg=1.000=0=0=0,
174.375=Just Be Friends-bg2.jpg=1.000=0=0=0,
174.750=Just Be Friends-bg3.jpg=1.000=0=0=0,
175.125=Just Be Friends-bg4.jpg=1.000=0=0=0,
175.500=Just Be Friends-bg5.jpg=1.000=0=0=0,
175.875=Just Be Friends-bg6.jpg=1.000=0=0=0,
176.000=Just Be Friends-VD2.avi=1.000=1=0=0,
99999=-nosongbg-=1.000=0=0=0 // don't automatically add -songbackground-
;
#KEYSOUNDS:;
#ATTACKS:;

//---------------dance-single - Beginner Itsugo15----------------
#NOTES:
     dance-single:
     Beginner Itsugo15:
     Beginner:
     1:
     0.079,0.133,0.028,0.007,0.000:
0000
0000
0000
0000
,
0000
0000
0000
0000
,
0000
0000
0000
0000
,
0000
0000
0000
0000
,
0001
0000
0000
0000
,
1000
0000
0000
0000
,
0010
0000
0000
0000
,
0100
0000
0000
0000
,
0001
0000
0000
0000
,
0010
0000
0000
0000
,
0100
0000
0000
0000
,
1000
0000
0000
0000
,
0001
0000
0000
0000
,
1000
0000
0000
0000
,
0010
0000
0000
0000
,
0100
0000
0000
0000
,
0001
0000
0000
0000
,
0010
0000
0000
0000
,
0100
0000
0000
0000
,
1000
0000
0000
0000
,
0001
0000
0000
0000
,
0100
0000
0000
0000
,
0010
0000
0000
0000
,
1000
0000
0000
0000
,
0001
0000
0000
0000
,
1000
0000
0000
0000
,
0010
0000
0000
0000
,
1000
0000
0000
0000
,
0001
0000
0000
0000
,
0010
0000
0000
0000
,
0100
0000
0000
0000
,
0010
0000
0000
0000
,
0001
0000
0000
0000
,
1000
0000
0000
0000
,
0010
0000
0000
0000
,
0100
0000
0000
0000
,
0001
0000
1000
0000
,
0001
0000
0000
0000
,
0010
0000
0100
0000
,
0010
0000
0000
0000
,
0001
0000
0000
0000
,
1000
0000
0000
0000
,
0010
0000
0000
0000
,
0100
0000
0000
0000
,
0110
0000
0000
0000
,
1001
0000
0000
0000
,
0001
0000
0000
0000
,
1000
0000
0000
0000
,
0100
0000
0000
0000
,
0010
0000
0000
0000
,
0001
0000
0000
0000
,
1000
0000
0000
0000
,
1001
0000
0000
0000
,
0110
0000
0000
0000
,
0010
0000
0000
0000
,
1000
0000
0000
0000
,
0001
0000
0000
0000
,
0010
0000
0000
0000
,
0100
0000
0000
0000
,
0010
0000
0000
0000
,
0001
0000
0000
0000
,
1000
0000
0000
0000
,
0001
0000
0000
0000
,
0100
0000
0000
0000
,
0010
0000
0000
0000
,
1000
0000
0000
0000
,
0001
0000
0000
0000
,
0010
0000
0000
0000
,
0100
0000
0000
0000
,
1000
0000
0000
0000
,
0100
0000
0000
0000
,
0010
0000
0000
0000
,
0001
0000
0000
0000
,
1000
0000
0000
0000
,
0001
0000
0000
0000
,
0100
0000
0000
0000
,
0020
0000
0000
0000
,
0030
0000
0000
0000
;

//---------------dance-single - Light Itsugo15----------------
#NOTES:
     dance-single:
     Light Itsugo15:
     Easy:
     3:
     0.155,0.186,0.042,0.028,0.000:
0000
0000
0000
0000
,
0000
0020
0000
0000
,
0000
0000
0000
0000
,
0000
0030
0000
0000
,
1000
0000
0000
0000
,
0001
0000
0000
0000
,
0010
0000
0000
0000
,
0100
0000
0000
0000
,
1000
0000
0001
0000
,
0100
0000
0010
0000
,
1000
0000
0001
0000
,
1000
0000
0100
0000
,
0010
0000
0010
0000
,
0001
0000
1000
0000
,
0010
0000
0010
0000
,
0100
0000
0001
0000
,
1000
0000
1000
0000
,
0100
0000
0010
0000
,
0001
0000
0001
0000
,
1000
0000
1000
0000
,
1001
0000
0100
0000
,
0010
0000
0001
0000
,
1000
0000
0010
0000
,
0100
0000
0001
0000
,
1000
0000
1000
1000
,
0001
0000
0001
0001
,
0010
0000
0100
0000
,
1000
0000
0010
0000
,
0100
0000
0001
0000
,
1000
0000
0100
0000
,
0010
0000
0001
0000
,
1000
0000
0010
0000
,
0100
0000
0100
0100
,
0010
0000
0010
0010
,
1000
0000
0001
0000
,
1000
0000
0100
0000
,
0010
0000
0001
0000
,
1000
0000
1000
0000
,
0100
0000
0010
0000
,
0001
0000
0001
0000
,
1000
0000
0010
0000
,
0100
0000
0001
0000
,
1000
0000
0100
0000
,
0020
0000
0000
0000
,
0031
0011
0001
1000
,
0000
0010
0000
0100
,
0000
0001
0000
1000
,
0000
0100
0000
0010
,
0000
0011
0000
0001
,
0000
1001
0000
1000
,
0000
0001
0000
0100
,
0000
0010
0000
1000
,
0001
1001
0000
0100
,
0000
0010
0000
0001
,
0000
1000
0000
0010
,
0000
0100
0000
0001
,
0000
1000
0000
0100
,
0000
0010
0000
0001
,
0000
1000
0000
0010
,
0000
0100
0000
0001
,
0002
0000
0000
0000
,
1003
0000
0010
0000
,
0100
0000
0001
0000
,
1000
0000
0100
0000
,
0010
0000
0001
0000
,
1000
0000
0100
0000
,
0010
0000
0001
0000
,
1000
0000
0010
0000
,
1010
0000
0100
0000
,
0001
0000
0010
0000
,
0100
0000
1000
0000
,
0010
0000
1000
0000
,
0100
0000
0010
0000
,
0001
0000
1000
0000
,
0010
0000
0100
0000
,
0001
0000
0100
0000
,
0020
0000
0000
0000
,
0030
0000
0000
0000
;

//---------------dance-single - Challenge Itsugo15----------------
#NOTES:
     dance-single:
     Challenge Itsugo15:
     Challenge:
     10:
     0.691,0.714,0.457,0.228,0.391:
0000
0000
0000
0000
,
0000
2002
0000
0000
,
0000
0000
0000
0000
,
0000
0000
0000
0000
0000
3003
1000
0001
,
1001
0000
0001
1000
0000
0001
0100
0010
1000
0000
0010
1000
0000
0010
1000
0100
,
0010
0000
0010
0100
1000
0100
0010
0001
1000
0000
0010
0000
0100
0000
0001
0000
,
0101
0000
0001
0100
0000
0001
0100
0010
0100
0000
0001
0100
0000
0001
0100
0000
,
0100
1000
0000
0100
0001
0000
0010
1000
0000
0010
0001
0000
1000
0000
0001
0000
,
1001
0000
0001
0000
0001
0100
0010
1000
0100
0000
0100
0000
0100
1000
0010
0100
,
0001
0000
0001
0000
0001
0100
0010
0100
0001
0000
0001
0000
1000
0000
0001
0000
,
1001
0000
0000
0000
0000
1000
0001
1000
0001
0000
0000
0000
0000
0000
1000
0000
,
0100
0040
0000
0000
0000
0030
0010
0001
,
0011
0001
1000
1000
0010
0010
0100
0001
,
0100
0100
1000
1000
0100
0100
0001
1000
,
1001
0001
0001
0010
1000
1000
0010
0002
,
0000
1003
0010
0100
0110
0010
0100
0001
,
0101
0001
0001
1000
0100
0100
0010
0001
,
0001
1000
1000
0010
0010
0001
0001
0010
,
1000
0000
1000
0010
0001
0000
0010
0100
,
0110
1010
0101
1001
,
1001
0000
0001
0000
1000
0000
0010
0100
0000
0000
0001
0000
0100
0000
0010
1000
,
0000
0000
0001
0000
1000
0000
0100
0010
0000
0001
1000
0000
0001
0000
1000
0000
,
1001
0000
0001
0000
1000
0000
0010
0100
0000
0000
0001
0000
0100
0000
0010
1000
,
0000
0000
0100
0000
0010
0000
0001
1000
0000
0010
0100
0000
0001
0000
1000
0000
,
1001
0000
0001
1000
0001
0000
0001
0000
0001
0000
0100
0010
0000
1000
0000
0100
,
0010
0100
1000
0100
0010
0100
1000
0000
0001
0000
1000
0001
0000
0000
0001
0000
,
0100
0000
0100
0010
0000
0000
0010
0000
1000
0000
1000
0001
0000
0001
1000
0001
,
1000
0001
1000
0100
1100
0000
0011
0000
,
1001
0000
1000
0000
0001
0000
0100
0010
0000
0000
1000
0000
0010
0000
0100
0001
,
0000
0000
1000
0000
0001
0000
0010
0100
0000
1000
0001
0000
1000
0000
0001
0000
,
1001
0000
1000
0000
0001
0000
0100
0010
0000
0000
1000
0000
0010
0000
0100
0001
,
0000
0000
0010
0000
0100
0000
1000
0001
0000
0100
0010
0000
1000
0000
0001
0000
,
1000
0100
1000
0001
0100
0001
1000
0001
0100
0000
0010
0000
0100
0001
0000
0100
,
0010
1000
0010
0100
0010
1000
0010
0100
0001
1000
0100
0010
0000
0000
0010
0000
,
0001
0000
0001
1000
0000
0000
1000
0001
1000
0000
0010
0000
0100
0000
0001
0000
,
1000
0100
0010
0001
0011
0000
1100
0000
,
1001
0000
0001
0000
1000
0000
1000
0001
0000
0000
1000
0000
0001
0000
0001
1000
,
0000
0000
0100
0000
0010
0000
0010
0100
0000
0000
0010
0000
0001
0000
0011
0000
,
0001
0000
0010
0000
0100
0000
0100
0010
0000
0010
0100
0000
1000
0000
0100
1000
,
0100
0000
1000
0000
0001
0000
1000
0001
0100
0010
1000
0010
0100
0001
1000
0100
,
0010
0000
0001
0000
0010
0000
0200
0000
0300
0000
0100
0000
1000
0000
0100
1000
,
0100
0000
0010
0000
0100
0000
2000
0000
3000
0000
0002
0000
0003
0000
0100
0001
,
0000
1100
0000
0011
0000
0110
0000
1001
,
0001
1000
0001
0000
1000
0001
1000
0000
0001
1000
0010
0100
0001
1000
0100
0010
,
0110
0010
0011
0001
1001
1000
1100
0200
,
0000
0000
0320
0000
0000
0000
0130
0000
0100
0000
1000
0100
1000
0000
0001
0000
,
0010
0000
0001
0010
0001
0000
0010
0100
1000
0000
0100
0010
0001
0000
1000
0001
,
0000
0001
1000
0000
0010
0000
0100
0000
0001
0000
0010
0000
1000
0000
0010
0001
,
0100
0000
0001
0000
1000
0000
0010
1000
0100
0000
0010
0000
0110
0000
0010
0000
,
0001
0000
0100
0000
1000
0000
0100
0000
0001
0000
1000
0000
1001
0000
0001
0010
,
1000
0000
0010
0000
0001
0000
1000
0010
0001
0000
0010
0000
1000
0000
0001
0000
,
1001
0000
1010
0000
0101
0000
1001
0000
1000
0100
0010
0001
0100
0010
1000
0001
,
0010
1000
0010
0001
0010
0100
1000
0001
,
0100
0010
1000
0000
1010
0000
1000
0001
0010
0000
0011
0000
0001
1000
0100
0000
,
0010
0001
1000
0000
1001
0000
0001
0000
0100
0000
1000
0000
0100
0000
0001
0010
,
0100
1000
0100
0000
0020
0000
0000
0000
0001
0000
0031
0000
1000
0000
0010
0100
,
0001
0000
0010
0000
0100
0000
1000
0100
0010
0000
0001
0000
1000
0000
1001
0000
,
1100
0000
1001
0000
0101
0000
0200
0000
0310
0000
0010
0000
1000
0000
0100
0010
,
0001
0000
0100
0000
0010
0000
1000
0010
0100
0000
0001
0000
0101
0000
0200
0000
,
1300
0200
0301
0020
1030
0020
0031
2000
,
0200
0001
0001
3301
,
1000
0000
0100
0000
0010
0000
0001
1000
0000
0000
0001
0000
0100
0000
0020
0000
,
2000
0000
0100
0000
0100
0000
3130
0010
,
0010
1000
0001
0010
0200
0000
1300
0001
,
1001
0000
1010
0000
0011
0000
1001
0001
,
0100
1000
0100
0010
1000
0100
0010
0001
,
0011
0000
0001
0100
0101
0000
0100
0020
,
0000
1030
0001
0010
1000
0010
0100
1000
,
1100
0000
1001
0000
0101
0000
1001
2000
,
0000
3100
0001
0100
2000
0000
3010
0100
,
0110
0000
0010
0100
0002
0000
1003
0200
,
0000
0301
0100
0010
0002
0000
1003
0010
,
1010
0000
0101
0000
1001
0000
1100
0200
,
0000
0310
0001
1000
0020
0000
0130
0001
,
0101
0000
0100
0000
0001
0000
0010
0000
0011
0000
0000
0110
0000
0000
2200
0000
,
3300
1000
0001
0100
0020
0000
1030
0001
,
MM22
0000
0033
0000
;

//---------------dance-single - Heavy Itsugo15----------------
#NOTES:
     dance-single:
     Heavy Itsugo15:
     Hard:
     7:
     0.556,0.556,0.270,0.311,0.045:
0000
0000
0000
0000
,
0000
2200
0000
0000
,
0000
0000
0000
0000
,
0000
0000
0000
0000
3000
0000
1300
0001
,
1001
1000
0010
0100
0001
0010
1000
0010
,
0001
1000
0010
0100
0001
0000
0100
0010
,
0110
0010
1000
0100
0001
0100
0010
0001
,
1000
0010
0100
1000
0100
0000
0001
1000
,
1001
0001
0010
1000
0010
0001
0010
0100
,
0010
1000
0010
0001
1000
0000
0010
0100
,
0110
0000
0000
0000
0000
0010
0100
0001
1000
0000
0000
0000
0100
0000
0010
0000
,
0002
2000
0000
0000
3003
0000
1000
0010
,
1010
0000
0101
0000
0011
0000
1100
1000
,
0100
0100
0010
0010
0001
1000
0010
0100
,
0110
0000
1010
0000
0110
0000
0101
0002
,
0000
1003
0100
0010
0002
0000
1003
0010
,
1010
0000
0011
0000
0101
0000
1100
1000
,
0010
0010
0100
0100
0001
1000
0100
0010
,
0110
0000
0001
1000
1001
0000
0100
0010
,
0110
1001
0110
1001
,
1001
1000
0001
1000
0010
0100
0001
0100
,
1000
0100
0001
1000
0100
0010
2000
0000
,
3010
0001
0010
0100
1000
0100
0010
0100
,
1000
0001
0100
0010
1000
0100
0020
0000
,
0031
1000
0020
0000
0100
0000
0130
0010
,
1000
0100
0001
0100
1000
0001
0100
0000
,
0010
1000
0001
0000
0010
0001
2000
0000
,
3020
0000
0032
0000
0203
0000
2300
3000
,
1001
0001
1000
0001
0100
0010
1000
0010
,
0001
0010
1000
0001
0010
0100
0002
0000
,
0103
1000
0100
0010
0001
0010
0100
0010
,
0001
1000
0010
0100
0001
0010
0200
0000
,
1300
0000
0001
0000
0100
0000
0010
0000
1000
0010
1000
0010
1000
0000
0100
0000
,
0010
0000
0001
0000
1000
0000
0001
0000
0100
0001
0100
0001
0100
0000
0010
0000
,
1000
1000
1000
0100
0001
0100
0010
0001
,
1000
0000
0010
0000
0001
0000
0010
0000
2000
0000
0000
0000
3002
0000
0000
0003
,
1001
1000
0100
0010
1000
0010
0100
1000
,
0010
0100
1000
0100
0010
1000
0100
0020
,
0000
0031
0100
0010
0001
0010
0100
0001
,
0010
0100
0001
0200
0000
0320
0000
0031
,
1000
0010
0200
0001
0000
0301
0100
0010
,
1000
0100
0020
0001
0000
0031
0000
0001
,
1000
1001
0000
1100
0000
0101
0000
2002
,
0000
0100
0010
3103
,
1001
1000
0100
0010
0100
0001
0100
2000
,
0000
3002
0000
0103
0010
1000
0000
0100
,
0010
0001
0000
1000
0010
0001
0010
0100
,
0001
0000
0100
0000
2000
0000
0000
0000
0000
0000
3100
0000
0001
0000
1000
0100
,
0000
0000
0100
0000
0010
0000
0001
1000
0000
0000
0010
0000
0100
0000
0001
0000
,
0010
0000
0100
0000
1000
0000
0001
0000
0000
0000
1000
0000
0010
0000
0100
0001
,
0000
0000
0100
0000
0010
0000
1000
0100
0000
0000
0010
0000
0001
0000
1000
0000
,
0010
0100
0001
1000
0000
0100
0010
0001
,
0011
0001
2000
0000
3010
0100
0001
0200
,
0000
0320
0000
1030
0100
0010
0000
0001
,
0100
0010
1000
0100
0010
0100
1000
0001
,
0010
0100
2000
0000
0000
3001
0100
0010
,
0010
1000
0100
0010
0010
0001
1000
0010
,
0001
0010
0100
0001
0000
1000
0100
0010
,
0001
0100
0010
1000
0001
0010
0100
1000
,
0001
0001
0100
0100
0010
0010
1000
1000
,
0002
0010
1000
0100
,
1003
0000
0000
0000
0001
0000
0000
0100
0010
0000
0000
0000
1000
0000
0000
0100
,
0010
0000
0001
0000
1000
0000
0010
0100
,
0001
0100
0010
1000
0200
0000
0310
0001
,
0011
0001
1000
0010
,
0100
0001
0100
1000
0200
0000
0310
1000
,
1010
0000
1000
0000
0100
0000
0010
0002
,
0000
1003
0010
0100
0002
0000
0103
0010
,
0110
0010
1000
0001
,
0010
0100
1000
0100
0020
0000
0031
1000
,
1001
0000
1000
0001
0020
0000
0130
2000
,
0000
3010
0001
0010
0200
0000
0301
1000
,
1001
0001
0010
0100
,
1000
0010
0100
1000
0200
0000
0310
1000
,
1010
0000
0010
0000
0100
0000
0001
0000
1000
0000
0000
1000
0000
0000
1000
0000
,
0100
0010
0001
1000
0020
0000
0130
0001
,
0202
0000
0303
0000
;

//---------------dance-single - Medium Itsugo15----------------
#NOTES:
     dance-single:
     Medium Itsugo15:
     Medium:
     5:
     0.420,0.479,0.457,0.235,0.000:
0000
0000
0000
0000
,
0000
2000
0000
0000
,
0000
0000
0000
0000
,
0000
0000
0000
0000
0000
0000
3001
1000
,
0010
0100
0001
1000
,
0100
0000
0010
0000
0001
0000
1000
0010
,
0100
0001
0100
1000
,
0100
0000
0001
0000
0010
0000
0100
1000
,
0001
0010
0001
0010
,
1000
0000
0010
0000
0100
0000
1000
0001
,
0100
0000
0002
0003
,
0010
0100
1000
0001
,
0101
1000
1100
0010
,
0001
1000
0010
0100
,
0101
0010
1010
1000
,
0100
0001
0100
0010
,
0110
0001
1001
0001
,
0100
0010
1000
0100
,
1100
0100
0110
0010
,
0011
0110
1100
1001
,
0101
0000
0001
0000
0100
0010
0100
0000
,
0010
0000
1000
0000
0001
1000
0001
0000
,
1000
0000
0100
0000
1000
0100
1000
0000
,
0001
0000
0010
0000
0001
0010
0001
0000
,
0011
0000
1001
0000
0001
0100
0010
0000
,
1010
0000
1001
0000
1000
0100
0010
0000
,
0002
1003
2000
3001
,
1001
0110
1001
1100
,
0011
0000
1000
0000
0010
0100
0001
0000
,
0100
0000
0010
0000
1000
0100
0010
0000
,
0001
0000
1000
0000
0010
0100
0001
0000
,
1000
0000
0100
0000
0010
0001
1000
0000
,
1001
0000
1100
0000
1000
0001
0100
0000
,
1001
0000
0011
0000
0001
1000
0010
0000
,
0200
0301
0020
1030
,
0010
0001
2000
3001
,
1001
0000
0001
0010
0001
0000
1000
0010
,
1000
0000
0010
0100
0010
0000
1000
0000
,
0001
0000
1000
0100
1000
0000
0001
0100
,
0001
0000
0100
0010
0100
0000
0001
0000
,
1000
1000
0100
0010
,
0001
0001
0100
0010
,
0120
1030
2010
3001
,
1001
0011
0110
1100
,
1001
0000
0001
0000
0100
0010
1000
0000
,
0100
0000
0010
0000
0001
1000
0010
0000
,
0010
1000
0001
0000
0010
0000
0100
0000
,
2000
0000
0002
0000
3003
0000
1000
0001
,
0100
0000
0100
0001
2000
0000
3020
0000
,
0032
0000
0203
0000
2300
0000
3010
0100
,
0001
0000
0001
0100
0020
0000
2030
0000
,
3200
0302
0023
0130
,
0110
0000
0010
0000
1000
0001
0100
0000
,
0010
0000
1000
0000
0001
0010
0100
0000
,
0100
0010
0001
0000
1000
0000
0010
0000
,
0100
0001
2000
0000
3000
0000
0100
1000
,
0001
0000
0001
1000
0200
0000
0302
0000
,
0023
0000
2030
0000
3002
0000
0013
0100
,
1000
0000
0001
0100
0010
0000
0010
0100
,
0002
0023
2030
3200
,
0302
1000
1000
1003
,
1000
0100
0010
0001
,
0011
1000
1010
0010
,
1000
0001
0010
0100
,
1100
0010
0011
0001
,
0100
1000
0100
0010
,
0110
1000
1001
1000
,
0100
0010
0001
0100
,
0101
0100
0110
0010
,
1010
0110
0101
1001
,
1100
0001
0011
1000
,
1010
0110
0101
1001
,
0011
0100
1100
1000
,
1010
0011
0101
1100
,
1001
1000
1010
0001
,
0101
0011
1010
1100
,
0220
0000
0000
0000
,
0330
0000
0000
0000
;
