#TITLE:ゴールデンタイムラバー;
#SUBTITLE:鋼の錬金術師 FULLMETAL ALCHEMIST 3rd Opening;
#ARTIST:スキマスイッチ;
#TITLETRANSLIT:Golden Time Lover;
#SUBTITLETRANSLIT:Fullmetal Alchemist Brotherhood 3rd Opening;
#ARTISTTRANSLIT:Sukima Switch;
#GENRE:Itsugo15 SimifileS 1-30 DDR Version;
#CREDIT:Itsugo15;
#MENUCOLOR:;
#BANNER:Golden Time Lover-bn.jpg;
#BACKGROUND:Golden Time Lover-bg.jpg;
#LYRICSPATH:Golden Time Lover.lrc;
#CDTITLE:Itsugo15 SimifileS.png;
#MUSIC:Golden Time Lover.mp3;
#OFFSET:-0.240;
#SAMPLESTART:78.640;
#SAMPLELENGTH:30.000;
#SELECTABLE:YES;
#LISTSORT:;
#BPMS:0.000=125.000;
#STOPS:;
#TICKCOUNT:0.000=6;
#BGCHANGES:34.000=Golden Time Lover-VD1.avi=1.000=1=1=0,
83.500=Golden Time Lover-bg1.jpg=1.000=1=1=0,
96.000=Golden Time Lover-VD2.avi=1.000=0=1=0,
231.500=Golden Time Lover-bg2.jpg=1.000=1=1=0,
241.500=Golden Time Lover-bg.jpg=1.000=0=1=0,
99999=-nosongbg-=1.000=0=0=0 // don't automatically add -songbackground-
;
#KEYSOUNDS:;
#ATTACKS:;

//---------------dance-single - Beginner Itsugo15----------------
#NOTES:
     dance-single:
     Beginner Itsugo15:
     Beginner:
     2:
     0.114,0.154,0.043,0.094,0.000:
0000
0000
0000
0000
,
0000
1000
0000
1000
,
0000
0000
0000
0000
,
0000
0001
0000
0001
,
0000
0000
0000
0000
,
0000
0100
0000
0100
,
0000
0000
0000
0000
,
0000
0010
0000
0010
,
0000
0000
0000
0000
,
0000
1000
0000
1000
,
0000
0001
0000
0001
,
0000
0010
0000
0010
,
0000
0100
0000
0100
,
1000
0000
0000
0000
,
0010
0000
0000
0000
,
0100
0000
0000
0000
,
0001
0000
0000
0000
,
1000
0000
0000
0000
,
0001
0000
0000
0000
,
0010
0000
0000
0000
,
0100
0000
0000
0000
,
2000
0000
3000
0000
,
0010
0000
0000
0000
,
0100
0000
0000
0000
,
0002
0000
0000
0003
,
1001
0000
0000
0000
,
0010
0000
0000
0000
,
0100
0000
0000
0000
,
1000
0000
0000
0000
,
0001
0000
0000
0000
,
1000
0000
0000
0000
,
0010
0000
0000
0000
,
0100
0000
0000
0000
,
0001
0000
1000
0000
,
0010
0010
0000
0000
,
1000
0000
0000
0000
,
0001
0000
0000
0000
,
1001
0000
0000
0000
,
0110
0001
0000
0001
,
0000
1000
0000
2000
,
0000
0002
0000
3003
,
1000
0000
0001
0000
,
0100
0000
0010
0000
,
1000
0000
0001
0000
,
1000
0000
0010
0000
,
0400
0300
0000
0000
,
0040
0030
0000
0000
,
4000
3000
0000
0000
,
0004
0003
0000
0000
,
0001
0000
1000
0000
,
0010
0000
0100
0000
,
0001
0000
1000
0000
,
0001
0000
0010
0000
,
0400
0300
0000
0000
,
0040
0030
0000
0000
,
0004
0003
0000
0000
,
1001
0000
0000
0000
,
0010
0000
0000
0000
,
0100
0000
0000
0000
,
0001
0000
0000
0000
,
1000
0000
0000
1001
0000
0000
0000
0000
;

//---------------dance-single - Easy Itsugo15----------------
#NOTES:
     dance-single:
     Easy Itsugo15:
     Easy:
     4:
     0.244,0.283,0.085,0.153,0.000:
0000
0000
0000
0000
,
0000
1000
0000
1000
,
0000
0001
0000
0001
,
0000
0100
0000
0100
,
0000
0010
0000
0010
,
0000
2000
0000
3100
,
0000
0020
0000
0031
,
0000
0200
0000
0310
,
0000
2000
0000
3001
,
0000
0100
0000
0010
,
0000
2000
0000
3010
,
0000
0100
0000
0001
,
0000
0020
0000
0130
,
1000
0000
0000
0001
0000
0000
0100
0000
,
0010
0000
0000
1000
0000
0000
0001
0000
,
0010
0000
0000
0100
0000
0000
1000
0000
,
0001
0000
0000
0100
0000
0000
0010
0000
,
1000
0000
0000
0010
0000
0000
0100
0000
,
0001
0000
0000
1000
0000
0000
0010
0000
,
0100
0000
0000
0010
0000
0000
1000
0000
,
0001
0000
0000
0010
0000
0000
0100
0000
,
1100
0100
0000
0010
,
0000
0002
0000
0103
,
0000
0010
0000
1000
,
0200
0000
0000
0310
,
1001
0000
0000
1000
0000
0000
0010
0000
,
0100
0000
0000
0001
0000
0000
0010
0000
,
0100
0000
0000
0010
0000
0000
0001
0000
,
0100
0000
0000
0010
0000
0000
1000
0000
,
0100
0000
0000
0010
0000
0000
0100
0000
,
1000
0000
0000
0001
0000
0000
0100
0000
,
0010
0000
0000
0100
0000
0000
0001
0000
,
0010
0000
0000
0100
0000
0000
1000
0000
,
1100
0100
0110
0001
,
1001
1001
0001
0000
,
0100
0000
0010
0000
,
1000
1000
0100
0010
,
0001
0000
0100
0010
,
1000
0000
0010
0100
,
0001
0001
1000
1000
,
0100
2002
0000
3003
,
1000
1000
0001
0001
,
0010
0100
0100
0010
,
0001
0001
1000
1000
,
1000
0010
0100
0002
,
0013
0020
0130
0200
,
1000
1300
1000
0010
,
0100
0004
0003
4000
,
3000
0010
0100
0001
,
0010
0010
0100
0100
,
1000
0001
0001
1000
,
0010
0010
0100
0100
,
0100
0001
1000
0200
,
0310
0002
1003
2000
,
0010
3010
0010
1000
,
0001
1001
0100
0010
,
0110
0000
0000
0000
,
0001
0000
0100
0000
,
0010
0000
1000
0000
,
0010
0000
0100
0000
,
0001
0000
0000
0101
0000
0000
0000
0000
;

//---------------dance-single - Medium Itsugo15----------------
#NOTES:
     dance-single:
     Medium Itsugo15:
     Medium:
     6:
     0.359,0.412,0.102,0.264,0.013: // measure 1
0000
0000
0000
0000
0000
0000
0000
1000
,  // measure 2
0100
1000
0000
0010
,  // measure 3
0000
0000
0100
0000
0000
0000
0001
0010
,  // measure 4
0100
0010
0000
0001
,  // measure 5
0000
0000
0100
0000
0000
0000
0010
1000
,  // measure 6
0010
0100
0000
0001
,  // measure 7
0000
0000
0010
0000
0000
0000
0100
1000
,  // measure 8
0010
0100
0000
0001
,  // measure 9
0000
0000
1000
0000
0000
0000
0010
1000
,  // measure 10
0001
0010
0000
0100
,  // measure 11
0000
0000
1000
0000
0000
0000
0010
0100
,  // measure 12
0001
0010
0000
0100
,  // measure 13
0000
1000
0000
0001
,  // measure 14
0110
0100
0001
1000
,  // measure 15
0100
0100
0010
0001
,  // measure 16
1001
0010
0100
0001
,  // measure 17
1000
0010
1000
0100
,  // measure 18
0110
0001
1000
1000
,  // measure 19
0001
0010
0100
0010
,  // measure 20
0011
0100
0001
0100
,  // measure 21
0010
0010
0100
0001
,  // measure 22
1001
0001
2000
0000
,  // measure 23
3001
1000
0002
0000
,  // measure 24
0103
0010
0200
0000
,  // measure 25
0310
0000
0100
0000
0001
0000
0000
0000
1000
0000
0000
0000
0001
0010
0001
0010
,  // measure 26
0001
0001
0100
0010
,  // measure 27
1000
1000
0001
0100
,  // measure 28
0110
1000
0001
0100
,  // measure 29
0010
1000
0100
0010
,  // measure 30
0011
0010
0100
0100
,  // measure 31
0010
0001
1000
0010
,  // measure 32
0110
1000
0010
1000
,  // measure 33
0001
0000
0100
0000
0001
0100
0010
2000
,  // measure 34
0000
3100
0010
0002
0000
1003
0010
0100
,  // measure 35
0000
1001
0000
0100
0100
0001
0010
0100
,  // measure 36
2000
3001
1000
0010
,  // measure 37
0200
0300
0001
0010
,  // measure 38
0200
0310
0001
0100
,  // measure 39
0020
1030
0010
0100
,  // measure 40
0002
1003
2000
3001
,  // measure 41
0400
0300
2002
0000
0000
0000
0000
3003
,  // measure 42
1000
0100
0020
0000
0031
0010
0200
0000
,  // measure 43
1300
1000
0001
0001
0100
0010
1000
0000
,  // measure 44
0001
0010
0200
0000
1300
0100
0020
0000
,  // measure 45
0031
0001
1000
1000
0010
0100
0001
2000
,  // measure 46
0000
3001
1000
0002
0000
0103
0010
1000
,  // measure 47
0000
1100
0000
0000
1000
0000
0001
0000
,  // measure 48
1000
0002
0000
0010
,  // measure 49
0100
1000
0100
0010
,  // measure 50
0103
0010
2000
0000
3010
0100
0002
0000
,  // measure 51
0013
0010
0100
0100
1000
0001
1000
0000
,  // measure 52
0010
0100
0002
0000
0103
0010
2000
0000
,  // measure 53
3100
0100
0010
0010
0001
1000
0001
0200
,  // measure 54
0000
0310
0100
0002
0000
0013
0100
2000
,  // measure 55
0000
3100
0010
0000
0001
0000
0100
0000
,  // measure 56
0010
0200
0000
0310
,  // measure 57
1001
0000
0000
0000
,  // measure 58
1000
0100
0010
0100
,  // measure 59
1000
0010
0100
0001
,  // measure 60
0010
0100
0010
0001
,  // measure 61
0100
0000
0000
0000
0010
0000
0020
0200
0330
0000
0000
0000
0000
0000
0000
0000
;

//---------------dance-single - Hard Itsugo15----------------
#NOTES:
     dance-single:
     Hard Itsugo15:
     Hard:
     8:
     0.491,0.592,0.213,0.400,0.136:
0000
0000
0000
0000
0000
0000
0000
1000
,
0100
0000
0000
0010
0000
0000
0002
0000
0000
0000
0003
0000
0100
0000
0000
0000
,
0010
0000
1000
0000
0100
0000
0010
0001
,
0100
0000
0000
0010
0000
0000
2000
0000
0000
0000
3000
0000
0010
0000
0000
0000
,
0100
0000
0001
0000
0010
0000
0100
1000
,
0010
0000
0000
0100
0000
0000
0002
0000
0000
0000
0013
0000
0000
0010
0000
0000
,
0100
0000
0000
1000
0000
0000
0020
0000
0100
0000
0000
0000
1000
0000
0000
0000
,
0130
0000
0000
0001
0000
0000
0020
0000
0000
0000
0130
0000
0000
0100
0000
0000
,
1000
0000
0000
0010
0000
0000
0200
0000
0000
0000
0310
0000
0100
0000
0001
0000
,
0010
0000
0000
0100
0000
0000
2000
0000
0000
0000
3100
0000
0010
0000
0001
0000
,
0020
0000
0000
0000
0200
0000
0000
0330
,
0010
0000
0000
0001
0000
0000
0100
0000
0000
1000
0000
0000
0100
0000
0001
0000
,
2000
0000
0000
0000
0002
0000
0000
3003
,
0110
0000
0100
0000
0010
1000
0100
0000
,
0010
0000
0001
0000
0100
0010
0001
0000
,
0010
0000
0100
0000
1000
0100
0001
0000
,
0010
0000
1000
0010
0100
1000
0020
0000
,
0130
0001
0100
0000
0100
0000
0010
0000
,
1000
0100
1000
0000
0100
0000
0010
0000
,
0001
1000
0001
0000
0100
0000
0010
0000
,
0100
0010
0100
0000
0100
0000
0001
0000
,
1001
0000
0000
0001
0000
0000
0002
0000
0000
0000
0000
0000
0000
1003
0000
0000
,
0001
0000
0000
1000
0010
0000
0100
0000
0001
0000
0010
0000
1000
0000
0010
0000
,
0001
0000
0000
1000
0000
0000
2000
0000
0000
0000
0000
0000
0000
0000
3000
0000
,
1001
0000
1000
0000
0100
1100
0000
0010
0000
0001
0000
1000
0001
1000
0001
1000
,
1001
0000
1000
0000
0001
0010
1000
0000
,
0010
0000
0001
0000
1000
0010
0100
0000
,
0010
0000
1000
0000
0100
0010
0001
0000
,
1000
0000
0001
0000
0100
0001
0020
0000
,
0130
1000
0100
0000
0010
0000
0001
0000
,
0100
0001
0100
0000
0010
0000
1000
0000
,
0100
0010
0001
0000
0100
0000
0010
0000
,
1000
0010
0001
0010
1000
0100
0010
0001
,
0011
1000
0100
1100
0100
0010
0001
0011
,
0000
0011
0100
1000
0010
0100
0001
1000
,
0100
0000
0000
1000
0100
0000
0000
0010
0001
0000
0100
0000
0010
0000
2000
0000
,
0000
3010
0100
0001
0010
0100
0010
0001
,
0022
0033
0100
0010
1000
0100
0010
0100
,
1000
0000
2200
3300
0010
0100
0001
0011
,
0000
0110
0000
1100
0000
0110
0001
0010
,
0100
0000
2200
0000
0000
0000
0000
3300
,
1000
0100
0040
0000
0031
0100
0040
0000
,
1030
0000
1000
0000
0001
0000
0001
0000
0010
0100
0010
0000
0110
0000
0000
0000
,
0010
0001
0400
0000
0310
1000
0400
0000
,
1300
0100
0001
0000
0100
0000
0010
0100
1000
0000
0001
0000
1000
0000
2002
0000
,
3003
0100
0010
0220
0330
0100
0001
0020
,
0030
0200
0300
0010
0100
1000
0001
0200
,
0000
0020
0000
0000
0000
0000
0330
0000
,
1000
0000
0000
0000
1001
0000
0000
0000
0010
0000
0100
0000
1000
0100
1000
0100
,
1000
0100
0040
0000
0031
0100
0040
0000
,
1030
0000
1000
0000
0001
0000
0001
0000
0010
0100
0010
0000
0110
0000
0000
0000
,
0010
0001
0400
0000
0310
1000
0400
0000
,
0310
0100
0010
0000
0001
0000
0010
0100
1000
0000
0001
0000
1000
0000
2002
0000
,
3003
0100
0010
0220
0330
0100
0001
2000
,
3000
0001
0100
0010
0100
0001
0010
0200
,
0000
2000
0000
0000
0000
0000
3300
0000
,
1001
0000
0000
0000
,
1000
0000
0010
0000
0100
0001
0010
0000
,
0100
0000
1000
0000
0010
0100
0001
0010
,
0100
0000
1000
0000
0010
0100
0010
0000
,
0100
0000
0000
0000
0001
0000
0202
1000
0303
0000
0000
0000
0000
0000
0000
0000
;

//---------------dance-single - Challenge Itsugo15----------------
#NOTES:
     dance-single:
     Challenge Itsugo15:
     Challenge:
     12:
     0.854,0.798,0.732,0.400,0.753:
0000
0000
0000
0000
0000
0000
0000
1000
,
0001
0000
0000
0000
1001
0000
0000
0100
1000
0010
0000
0000
0101
0000
0001
0000
,
1000
0000
0000
0000
1001
0000
0000
0001
0100
0010
0000
0000
1010
0000
0010
0000
,
1000
0000
0000
0000
1010
0000
0000
1000
0100
0010
0000
0000
0011
0000
0001
0000
,
0100
0000
0000
0000
0101
0000
0000
0100
0001
0010
0000
0000
0110
0000
0010
0000
,
0100
0000
0000
0000
0110
0000
0000
0010
0001
0100
0000
1000
0100
0001
0010
0100
,
1000
0000
0000
0000
1100
0000
0000
1000
0100
0001
0000
0000
0100
1000
0010
0100
,
0001
0000
0000
0000
0101
0000
0000
0001
0010
0100
0000
1000
0010
0100
0001
1000
,
0010
0000
0000
0000
1010
0000
0000
0010
1000
0100
0000
0000
1000
0010
0100
0001
,
0010
0000
0000
0000
0011
0000
0000
0010
0001
0100
0000
0001
0100
0010
1000
0001
,
1000
0000
0000
0000
1001
0000
0000
1000
0001
0010
0000
0100
0010
0001
1000
0010
,
0100
0000
0000
0000
0110
0000
0000
0010
0100
0001
0000
0010
0100
1000
0001
0100
,
0010
0000
0000
0000
0110
0000
0000
0100
0010
1000
0000
1000
0010
0100
0001
1000
,
1001
0000
1000
0000
0100
0000
0010
0000
0001
0000
0100
0000
0010
0000
0100
0010
,
0100
0000
0100
0001
0100
0000
0001
1000
0001
0000
1000
0000
0010
0000
0200
0000
,
0301
0000
0001
0010
0100
1000
0001
0000
1000
0100
0010
0001
0100
0000
0010
0000
,
0110
0000
0100
0010
1000
0001
0010
0000
0100
0010
0001
1000
0010
0000
0100
0000
,
0110
0000
0100
0000
0001
0000
0010
0100
0100
0000
1000
0000
0100
0000
0001
0000
,
0100
1000
0010
0100
0001
0010
0001
0100
0001
0100
0010
0100
0010
1000
0100
0010
,
0110
0000
0100
0000
0010
0000
0100
1000
1000
0000
0010
0000
1000
0000
0100
0000
,
0010
0001
0100
0010
1000
0100
1000
0010
1000
0010
0100
0010
0100
0001
0010
0100
,
0110
0000
0000
0011
0000
0000
0101
0000
0010
0000
1000
0000
0100
0000
1000
0010
,
0100
0000
0001
0010
0100
0000
1000
0001
0100
0010
0100
0001
0010
0100
1000
0001
,
1001
0000
0000
0011
0000
0000
1100
0000
0110
0000
0010
0000
0001
0000
1000
0000
,
1001
0000
0001
0000
1000
1000
0000
0110
0000
0110
0000
0100
0010
0100
0001
1000
,
1001
0000
0001
0000
0010
0000
0100
0000
1000
0000
0010
0000
0100
0000
0010
0100
,
0010
0000
0010
1000
0010
0000
1000
0001
1000
0000
0001
0000
0100
0000
0020
0000
,
1030
0000
1000
0100
0010
0001
1000
0000
0001
0010
0100
1000
0010
0000
0100
0000
,
0110
0000
0010
0100
0001
1000
0100
0000
0010
0100
1000
0001
0100
0000
0010
0000
,
0110
0000
0010
0000
1000
0000
0100
0010
0010
0000
0001
0000
0010
0000
1000
0000
,
0010
0001
0100
0010
1000
0100
1000
0010
1000
0010
0100
0010
0100
0001
0010
0100
,
0110
0000
0010
0000
0100
0000
0010
0001
0001
0000
0100
0000
0001
0000
0010
0000
,
2000
0000
3020
0000
0032
0000
0203
0000
0320
0000
2030
0000
3200
0000
0020
0330
,
0110
0100
1000
1100
0100
0010
0001
0011
,
0000
0000
1001
0000
0100
1000
0010
0100
0010
1000
0100
0010
0100
0000
1000
0000
,
1100
0000
0000
0010
0001
0000
0001
0100
0000
0100
0010
0000
0110
0000
0100
0010
,
0100
0010
0100
0000
1001
0000
0001
1000
0001
1000
0001
0000
0110
0000
0100
1000
,
0020
0000
0030
0000
0101
0000
0001
0100
0001
0100
0001
0000
0011
0000
0010
0001
,
0010
0001
0010
0000
0110
0000
0100
0010
0100
0010
0100
0000
1100
0000
1000
0100
,
0010
0001
0100
0000
0101
0000
0010
0100
0001
0010
0100
0000
0110
0000
2002
0000
,
0000
0000
0000
0200
0000
0000
0000
0000
0000
0000
0000
3303
,
1001
0000
0001
0040
0400
0000
0000
0330
0010
0000
0100
0000
1000
0000
1000
0100
,
1000
0000
0100
0010
0100
0000
0011
0000
0101
0000
0110
0000
1010
0000
0000
0000
,
0010
0000
1000
0400
0040
0000
0000
0330
0010
0000
0001
0000
0100
0000
0010
0000
,
0100
0010
0100
0000
0010
1000
0001
0000
1001
0000
0110
0000
1001
0000
0220
0000
,
0330
0110
1001
0220
0330
0011
1001
1010
,
0000
0000
0000
2002
0000
0000
0000
0000
3003
0002
0000
0000
0023
0000
0000
0230
0000
0000
2300
0000
0000
3020
0000
0000
,
0000
0200
0000
0000
0330
0001
1000
0100
,
0010
0000
0011
0000
1100
0000
1001
0000
1000
0100
0010
0001
0100
0010
1000
0001
,
1001
0000
1000
0400
0040
0000
0000
0330
0100
0000
0010
0000
0001
0000
0001
0010
,
0001
0000
0010
0100
0010
0000
1100
0000
1010
0000
0110
0000
0101
0000
0000
0000
,
0100
0000
0001
0040
0400
0000
0000
0330
0100
0000
1000
0000
0010
0000
0100
0000
,
0010
0100
0010
0000
0100
0001
1000
0000
1001
0000
0110
0000
1001
0000
0220
0000
,
0330
0110
1001
0220
0330
0011
1001
1100
,
0000
1001
0002
2003
3200
0320
0032
0203
,
0000
0020
0000
0000
0330
1000
0001
1001
,
1101
0000
0000
0000
,
1000
0100
0000
0010
0001
0010
0001
0010
0001
0100
0001
0100
0001
0100
0001
0010
,
0100
1000
0000
1000
0100
1000
0100
1000
0100
1000
0010
1000
0010
1000
0010
0100
,
0001
0010
0000
0100
1000
0010
0100
0001
0010
0100
0010
0001
0100
0010
1000
0100
,
1000
0000
0010
0000
0000
0000
0000
0000
4000
0004
0000
0000
3000
0003
0010
0100
1000
0000
0000
0000
0000
0000
0000
0000
0000
0000
0000
0000
0000
0000
0000
0000
;
