#TITLE:Fall Of Tears;
#SUBTITLE:Tears Will Become Melodies Tonight;
#ARTIST:Foreground Eclipse;
#TITLETRANSLIT:Fall Of Tears;
#SUBTITLETRANSLIT:Tears Will Become Melodies Tonight;
#ARTISTTRANSLIT:Foreground Eclipse;
#GENRE:Touhou;
#CREDIT:Itsugo15;
#MENUCOLOR:;
#BANNER:Fall Of Tears-bn.jpg;
#BACKGROUND:Fall Of Tears-bg.jpg;
#LYRICSPATH:Fall Of Tears.lrc;
#CDTITLE:Itsugo15 SimifileS.png;
#MUSIC:Fall Of Tears.mp3;
#OFFSET:-1.650;
#SAMPLESTART:64.565;
#SAMPLELENGTH:30.000;
#SELECTABLE:YES;
#LISTSORT:;
#BPMS:0.000=163.000;
#STOPS:;
#TICKCOUNT:0.000=6;
#BGCHANGES:12.000=Fall Of Tears-bg1.jpg=1.000=1=1=0,
44.000=Fall Of Tears-bg13.jpg=1.000=1=1=0,
76.000=Fall Of Tears-bg14.jpg=1.000=1=1=0,
108.000=Fall Of Tears-bg15.jpg=1.000=1=1=0,
140.000=Fall Of Tears-bg2.jpg=1.000=1=1=0,
172.000=Fall Of Tears-bg3.jpg=1.000=1=1=0,
204.000=Fall Of Tears-bg8.jpg=1.000=1=1=0,
236.000=Fall Of Tears-bg9.jpg=1.000=1=1=0,
268.000=Fall Of Tears-bg4.jpg=1.000=1=1=0,
300.000=Fall Of Tears-bg.jpg=1.000=1=1=0,
99999=-nosongbg-=1.000=0=0=0 // don't automatically add -songbackground-
;
#KEYSOUNDS:;
#ATTACKS:;

//---------------dance-single - Challenge Itsugo15----------------
#NOTES:
     dance-single:
     Challenge Itsugo15:
     Challenge:
     11:
     0.747,0.771,0.976,0.163,0.285:
0000
0000
0000
0000
,
0000
0000
0000
0000
,
0000
0000
0000
0000
,
1100
0000
0000
1100
0000
0000
1100
0000
1001
0000
0000
0000
0001
0000
0100
0000
,
0101
0000
0000
0101
0000
0000
0101
0000
0110
0000
0000
0000
0010
0000
1000
0000
,
1010
0000
0000
1001
0000
0000
1010
0000
0110
0000
0000
0000
0100
0000
0001
0000
,
0101
0000
0000
0110
0000
0000
0101
0000
1001
0000
0000
0000
0001
0000
1000
0000
,
1100
0100
0010
0001
1000
0010
0100
0001
,
0100
0010
1000
0100
0010
0010
0001
0001
,
0011
0010
0100
0001
0100
1000
0001
0100
,
0010
0000
1000
0000
0010
0000
0100
0000
0001
0100
0001
0100
0001
0100
0010
0100
,
0010
0100
0010
1000
0010
0001
0010
0100
,
0001
1000
0100
0001
0100
0010
0001
1000
,
1001
0001
0100
1000
0100
0010
1000
0001
,
0010
1000
0010
0100
1000
0001
0100
0010
,
0110
0010
0100
0001
0100
1000
0100
0010
,
1000
0001
0010
1000
0010
0100
1000
0001
,
1001
1000
0010
0001
0010
0100
0001
1000
,
0100
0000
0001
0000
0100
0000
0010
0000
0001
0010
0001
0010
0001
1000
0001
1000
,
0002
0000
0000
1000
0000
0000
1003
0000
1001
0000
0000
0000
0001
0000
0100
0000
,
0101
0000
0000
0101
0000
0000
0101
0000
0110
0000
0000
0000
0010
0000
1000
0000
,
1010
0000
0000
1001
0000
0000
1010
0000
0101
0000
0000
0000
1000
0000
0100
0000
,
1100
0000
0000
0110
0000
0000
0011
0000
1002
0000
0000
0000
1000
0000
1000
0003
,
1001
0000
0000
1100
0000
0000
0011
0000
0110
0000
0000
0000
0010
0000
0001
0000
,
0011
0000
0000
0110
0000
0000
0011
0000
1001
0000
0000
0000
0001
0000
0100
0000
,
0101
0100
0010
0110
0010
1000
1010
1000
,
0001
0010
0100
1000
0100
0010
0001
1000
,
2001
0000
0000
0001
0000
0000
3001
0000
1001
0000
0000
0000
1000
0000
0010
0000
,
1010
0000
0000
1010
0000
0000
1010
0000
0110
0000
0000
0000
0100
0000
0001
0000
,
0101
0000
0000
1001
0000
0000
0101
0000
1010
0000
0000
0000
0001
0000
0010
0000
,
0011
0000
0000
0110
0000
0000
1100
0000
2001
0000
0000
0000
3001
1000
0001
1000
,
0001
0000
0000
1001
0000
0000
0101
0000
1001
0000
0000
0000
1000
0000
0100
0000
,
1100
0000
0000
1001
0000
0000
1100
0000
1001
0000
0000
0000
0001
0000
0010
0000
,
0011
0010
0100
0001
0100
1000
0001
0100
,
0010
0001
0010
0100
1000
0100
0001
1000
,
1001
0000
0000
1001
0000
0000
1001
0000
1100
0000
0000
1100
0000
0000
1100
0000
,
0110
0000
0000
0110
0000
0000
0110
0000
0011
0000
0000
0011
0000
0000
0011
0000
,
0001
0000
0000
1000
0000
0000
0010
0000
0100
0000
0000
0001
0000
0000
0100
0010
,
1000
0001
0020
0000
0000
0000
0130
0000
0010
0000
0000
0001
0000
0000
1000
0000
,
1001
0000
0000
0101
0000
0000
1001
0000
1100
0000
0000
1010
0000
0000
0110
0000
,
0101
0000
0000
0011
0000
0000
0110
0000
1100
0000
0000
0100
0000
0000
1000
0000
,
0010
0000
0000
0100
0000
0000
0001
0000
0010
0000
0000
1000
0000
0000
0010
0000
,
0002
0000
0000
1000
0000
0000
1003
0000
0001
1000
0001
1000
0001
1000
0001
1000
,
0001
0100
0010
1000
0001
0010
0100
0010
,
0001
1000
0100
0001
0102
0100
0103
1000
,
1100
0100
1000
0001
0100
0010
0100
0001
,
1000
0000
0001
0000
0010
0000
0001
0000
0011
0000
0010
0000
0001
1000
0001
1000
,
0001
0100
0001
1000
1001
0001
0100
0010
,
0001
0010
0100
0001
0101
0000
1001
0000
,
1100
1100
0000
1001
0000
0101
0000
0001
,
0101
0000
0101
0000
0000
0000
1001
0000
0000
0000
1010
0000
0000
0000
0010
1000
,
0001
0010
0011
0010
0001
1000
1001
0001
,
1000
0010
1010
1000
0010
0100
0110
0010
,
0100
0001
0101
0100
0001
1000
1001
0001
,
1000
0100
1100
1000
0100
0010
0110
0100
,
0010
0001
0011
0010
0100
1000
1100
1000
,
0001
0100
0101
0100
0010
1000
1010
0000
,
2001
0100
0001
3010
,
0102
0000
0000
0000
0010
0000
0000
0000
1003
0001
1000
0001
1000
0000
0001
1000
,
0002
0000
0000
0100
0000
0000
0100
0000
1000
0000
0000
0000
1000
0000
0000
0000
,
0010
0000
0000
0010
0000
0000
0013
0000
2000
0000
0000
0100
0000
0000
3001
0000
,
0020
0000
0000
0100
0000
0000
0031
0000
0200
0000
0000
1000
0000
0000
0310
0000
,
0002
0000
0100
0003
2000
0000
0100
0000
,
0002
0000
0100
0000
,
3003
0000
0000
1000
0000
0000
0001
0000
2000
0000
0000
0000
3001
0000
0000
0000
,
2000
0000
0001
0000
,
0000
0000
0000
0000
0000
0000
0000
0000
0001
0000
0000
0000
3001
1000
0001
1000
,
0001
0000
0000
0010
0000
0000
1000
0000
0010
0000
0001
0000
0100
0000
0010
0000
,
1000
0000
0000
0001
0000
0000
0010
0000
1000
0000
0010
0000
0001
0000
1000
0000
,
1001
0000
0000
1000
0000
0000
0100
0000
0001
0000
0100
0000
0010
0000
0001
0000
,
0100
0000
0000
1000
0000
0000
0100
0000
0010
0000
1000
0000
0001
0000
1000
0000
,
1001
0000
0000
0001
0000
0000
1000
0000
0100
0000
0001
0000
0100
0000
0010
0000
,
0001
0000
0000
1000
0000
0000
0010
0000
0100
0000
0001
0000
1000
0000
0001
0000
,
1001
0000
0000
0001
0000
0000
0010
0000
1000
0000
0010
0000
0100
0000
1000
0000
,
0001
0100
0010
1000
0001
0000
0010
0100
1000
0000
0100
0000
0010
0000
0002
0000
,
2000
0000
0000
0000
,
0000
0000
0000
0000
,
0000
0000
0000
0000
,
0000
0000
0000
0000
,
3003
0000
0000
0000
;

//---------------dance-single - Heavy Itsugo15----------------
#NOTES:
     dance-single:
     Heavy Itsugo15:
     Hard:
     8:
     0.574,0.707,0.415,0.260,0.065:
0000
0000
0000
0000
,
0000
0000
0000
0000
,
0000
0000
0000
0000
,
1001
0000
0000
1000
0000
0000
0010
0000
0100
0000
0000
0000
0001
0000
1000
0000
,
1001
0000
0000
0001
0000
0000
0010
0000
0100
0000
0000
0000
1000
0000
0100
0000
,
1100
0000
0000
0100
0000
0000
0010
0000
0001
0000
0000
0000
0100
0000
0001
0000
,
0101
0000
0000
0100
0000
0000
0010
0000
1000
0000
0000
0000
1001
0000
0000
0000
,
0001
0010
0001
0010
0001
1000
0001
1000
,
0001
0100
0001
0100
0010
0100
0010
0100
,
0010
1000
0010
1000
0001
1000
0001
1000
,
0100
1000
0100
1000
0100
0010
0001
MMMM
,
0001
0010
0001
1000
0001
0100
0001
1000
,
0001
0010
0001
0010
0001
1000
0100
1000
,
0100
1000
0001
1000
0010
1000
0001
1000
,
0100
1000
0100
1000
0001
0100
0010
1000
,
0001
1000
0001
1000
0001
0010
0001
0010
,
0001
0010
0100
1000
0100
1000
0100
1000
,
0001
1000
0001
1000
0010
1000
0010
1000
,
0010
0100
0001
0100
0001
0100
0010
1000
,
0002
0000
0000
0000
0013
0000
0100
1000
,
0002
0000
1003
0000
0010
0100
0001
0000
,
0100
0000
0110
0000
0010
0100
0010
0000
,
1000
0000
1001
0000
1000
0001
1000
0001
,
0200
0000
0000
0000
0310
0000
1000
0001
,
0010
0000
0100
1000
0100
0010
0001
1000
,
0100
0000
0010
0001
0000
1000
0010
0000
,
0100
0001
0000
1000
0100
0010
0100
1000
,
2200
0000
0000
0000
0000
0000
0000
0300
3100
0000
0000
0000
0010
0000
0001
0000
,
2000
0000
0000
0000
3020
0000
0000
0000
0230
0000
0000
0000
0302
0000
0000
0003
,
2002
0000
0000
0000
0000
0000
3003
0000
1000
0000
0000
0100
0000
0000
0010
0000
,
0011
0000
0000
0000
0001
0000
0000
0000
1001
0000
0000
0000
1000
0001
1000
0001
,
2000
0000
0000
0000
3010
0000
0100
0001
,
0010
0000
1000
0010
0001
0100
0010
0000
,
2000
0000
0010
0010
0010
0010
0010
0010
,
0010
0010
0010
0010
0010
0000
3010
0000
,
1010
0000
0010
0000
0100
0000
0001
1000
,
1001
0000
1000
0000
0100
0000
0010
0001
,
0011
0000
0100
1000
1100
0000
1000
0001
,
1000
0000
0001
0000
1000
0000
0001
0000
0000
0000
0000
0MMM
0000
0000
0000
0000
0001
0000
1000
0000
0001
0000
2000
0000
0000
0000
0000
0000
3000
0000
0000
0000
,
1001
0001
0100
0000
0010
0000
1010
0000
,
1001
1000
0100
0000
0010
0000
0011
0000
,
1001
0101
1010
1001
,
0110
0000
0000
0000
1001
0000
0000
0000
0001
1000
0001
1000
0001
1000
0001
1000
,
0001
0100
0010
1000
0002
1000
1003
0100
,
0010
0001
0010
0100
0110
0000
0010
0001
,
1000
0010
0100
0001
2000
0001
3001
1000
,
0100
0010
0001
0010
0011
0000
0100
1000
,
1100
0000
0001
0100
0101
0000
1000
0010
,
1010
1001
0011
0110
,
2100
0100
0000
0001
0000
3001
0001
0100
,
0102
0100
0000
1000
0000
1003
0000
1000
,
0001
0000
1001
1000
0010
0000
1010
0010
,
0100
0000
0110
0100
0001
0000
0101
0001
,
1000
0000
1001
1000
0100
0000
1100
0100
,
0010
0000
0110
0010
0001
0000
0011
0001
,
1000
0000
1001
1000
0010
0000
1010
0010
,
0100
0000
0110
0100
0001
0000
0101
0000
,
1002
0100
1003
1001
,
2001
0100
3001
1001
,
2000
0000
0010
0000
,
0000
3000
0020
0000
,
0032
0000
0203
0000
,
2300
0000
3002
1000
,
0203
0000
0010
0000
,
0000
0300
0020
0030
,
2000
0000
0001
0000
,
0000
0000
0000
0000
0000
0000
0000
0000
3002
0000
0000
0000
2000
0000
0000
3000
,
1003
0000
0001
0000
1000
0010
0100
0001
,
1000
0000
0001
0000
1000
0001
0010
0100
,
1000
0000
0100
0000
0010
0001
1000
0010
,
0100
0000
0001
0000
0100
0010
1000
0001
,
1000
0100
1000
0000
0001
0010
0001
0000
,
1000
0001
1000
0000
0010
0100
0010
0000
,
1000
0001
0100
0000
0010
1000
0001
0000
,
0010
0100
1000
0100
0010
0001
1000
0001
,
0200
0000
0000
0000
,
0000
0000
0000
0000
,
0000
0000
0000
0000
,
0000
0000
0000
0000
,
0300
0000
0000
0000
;

//---------------dance-single - Medium Itsugo15----------------
#NOTES:
     dance-single:
     Medium Itsugo15:
     Medium:
     6:
     0.410,0.438,0.309,0.293,0.016: // measure 1
0000
0000
0000
0000
,  // measure 2
0000
0000
0000
0000
,  // measure 3
0000
0000
0000
0000
,  // measure 4
1000
0000
0000
1000
0000
0000
1000
0000
0010
0000
0000
0000
0000
0000
0000
0000
,  // measure 5
0100
0000
0000
0100
0000
0000
0100
0000
0001
0000
0000
0000
0000
0000
0000
0000
,  // measure 6
1000
0000
0000
1000
0000
0000
1000
0000
0100
0000
0000
0000
0000
0000
0000
0000
,  // measure 7
0010
0000
0000
0010
0000
0000
0010
0000
0001
0000
0000
0000
1000
0000
0000
0000
,  // measure 8
1001
0001
0100
0010
,  // measure 9
0110
0010
1000
0001
,  // measure 10
1001
0001
1000
0100
,  // measure 11
1100
0000
1000
0000
0100
0010
0001
0010
,  // measure 12
0100
1000
0001
1001
,  // measure 13
0001
0100
0010
0110
,  // measure 14
0100
0010
1000
1010
,  // measure 15
0010
0100
0001
0101
,  // measure 16
1001
1000
0100
0001
,  // measure 17
0100
0010
0001
1000
,  // measure 18
0010
0001
0010
0100
,  // measure 19
0001
2000
0100
3001
,  // measure 20
2001
0000
0000
0000
3001
0000
1000
0100
,  // measure 21
1000
0000
0100
0000
0010
0001
0010
0000
,  // measure 22
0002
1000
2003
0010
,  // measure 23
3020
0100
0001
0100
,  // measure 24
2030
0000
0000
0000
3010
0000
0100
0001
,  // measure 25
1000
0000
0100
0000
0010
0001
0010
0100
,  // measure 26
2000
0000
0000
3002
0000
0000
0203
0000
,  // measure 27
0320
0000
0000
2030
0000
0000
3001
0000
,  // measure 28
1001
0000
0001
0000
0010
0000
0100
1000
,  // measure 29
0100
0000
1000
0000
0010
0000
0100
0001
,  // measure 30
0200
0000
0310
0000
0020
0000
1030
0001
,  // measure 31
0100
0001
1000
0200
,  // measure 32
0310
0000
0010
0000
0001
0000
1000
0001
,  // measure 33
0100
0000
0010
0001
0010
1000
0001
0000
,  // measure 34
0020
0000
0000
0000
,  // measure 35
0000
0000
0000
0000
,  // measure 36
0230
0000
0000
0300
1000
0000
0001
0100
,  // measure 37
0010
0000
1000
0000
0001
0000
0010
0100
,  // measure 38
1000
0000
0001
0100
0010
0000
1000
0000
,  // measure 39
0020
0031
0020
1030
,  // measure 40
0001
0000
0010
0000
0100
0000
1000
0001
,  // measure 41
0100
0000
0010
0000
1000
0000
0001
0010
,  // measure 42
0100
0000
1000
0100
0010
0000
0002
0000
,  // measure 43
0010
0010
2003
0010
,  // measure 44
3001
0100
0010
1000
,  // measure 45
0002
0010
1000
0100
,  // measure 46
1003
0100
0010
0001
,  // measure 47
2000
0100
0001
0010
,  // measure 48
3002
0103
2000
3100
,  // measure 49
0002
0013
2000
3010
,  // measure 50
1001
0000
0000
0011
0000
0011
0000
0000
,  // measure 51
1001
0000
0000
1010
0000
1010
0000
0000
,  // measure 52
1000
1001
0001
0011
,  // measure 53
0010
0110
0100
1100
,  // measure 54
1000
1001
0001
0101
,  // measure 55
0100
0110
0010
1010
,  // measure 56
1000
1100
0001
0011
,  // measure 57
0001
0101
0100
0110
,  // measure 58
2001
0010
0001
3100
,  // measure 59
1002
0010
1000
0100
,  // measure 60
2003
0000
3100
0000
,  // measure 61
0020
0000
0031
0000
,  // measure 62
2000
0000
3010
0000
,  // measure 63
0200
0000
0301
1000
,  // measure 64
2001
0000
0001
0000
,  // measure 65
0000
3000
1000
0000
,  // measure 66
0002
0000
1000
0000
,  // measure 67
0000
0000
1003
0001
,  // measure 68
0001
1000
1001
1000
,  // measure 69
0100
0010
0110
0100
,  // measure 70
0010
0001
0011
0001
,  // measure 71
0100
0010
0110
1001
,  // measure 72
0001
0010
1000
0010
,  // measure 73
0100
1000
0001
0100
,  // measure 74
1000
0100
0010
1000
,  // measure 75
0001
0010
0100
1000
,  // measure 76
2200
0000
0000
0000
,  // measure 77
0000
0000
0000
0000
,  // measure 78
3300
0000
0000
0000
;

//---------------dance-single - Beginner Itsugo15----------------
#NOTES:
     dance-single:
     Beginner Itsugo15:
     Beginner:
     2:
     0.083,0.153,0.106,0.057,0.000:
0000
0000
0000
0000
,
0000
0000
0000
0000
,
0000
0000
0000
0000
,
1000
0000
0000
0000
,
0000
0000
0000
0000
,
0010
0000
0000
0000
,
0000
0000
0000
0000
,
0100
0000
0000
0000
,
0000
0000
0000
0000
,
0001
0000
0000
0000
,
0000
0000
2000
0000
,
3100
0000
0000
0000
,
0000
0000
0000
0000
,
0010
0000
0000
0000
,
0000
0000
0000
0000
,
0001
0000
0000
0000
,
0000
0000
0000
0000
,
1000
0000
0000
0000
,
0000
0000
0000
0000
,
1001
0000
0000
0000
,
0000
0000
0000
0000
,
1000
0000
0000
0000
,
0000
0000
0000
0000
,
0001
0000
0000
0000
,
0000
0000
0000
0000
,
0100
0000
0000
0000
,
0000
0000
0000
0000
,
0010
0000
0000
0000
,
0000
0000
0000
0000
,
1000
0000
0000
0000
,
0000
0000
0000
0000
,
0100
0000
0000
0000
,
0000
0000
0000
0000
,
0020
0000
0000
0000
,
0000
0000
0000
0000
,
0031
0000
0000
0000
,
0001
0000
0000
0000
,
1000
0000
0000
0000
,
1000
0000
0000
0000
,
0010
0000
0000
0000
,
0010
0000
0000
0000
,
0100
0000
0000
0000
,
0100
0000
0000
0000
,
0110
0000
0000
0000
,
0000
0000
0001
0000
,
1001
0000
0000
0000
,
0000
0000
1000
0000
,
1100
0000
0000
0000
,
0000
0000
0001
0000
,
0011
0000
0000
0000
,
1001
0000
0000
0000
,
0110
0000
0000
0000
,
0000
0000
1000
0000
,
1001
0000
0000
0000
,
0000
0000
0001
0000
,
0101
0000
0000
0000
,
0000
0000
1000
0000
,
1010
0000
0000
0000
,
1001
0000
0000
0000
,
2002
0000
0000
0000
,
0000
3003
0000
0000
,
1000
0000
0000
0000
,
0000
0000
0000
0000
,
0001
0000
0000
0000
,
0000
0000
0000
0000
,
2002
0000
0000
0000
,
0000
0000
3003
0000
,
1000
0000
0000
0000
,
0000
0000
0000
0000
,
0001
0000
0000
0000
,
0000
0000
0000
0000
,
0010
0000
0000
0000
,
0000
0000
0000
0000
,
0100
0000
0000
0000
,
2000
0000
0000
0000
,
3001
0000
0000
0000
;

//---------------dance-single - Easy Itsugo15----------------
#NOTES:
     dance-single:
     Easy Itsugo15:
     Easy:
     4:
     0.122,0.215,0.016,0.130,0.008:
0000
0000
0000
0000
,
0000
0000
0000
0000
,
0000
0000
0000
0000
,
1000
0000
0000
0000
,
0100
0000
0000
0000
,
0010
0000
0000
0000
,
0001
0000
0000
0000
,
1000
0000
0000
0000
,
0010
0000
0000
0000
,
0100
0000
0000
0000
,
0001
0000
0002
0000
,
1003
0000
0000
0000
,
0100
0000
0000
0000
,
0001
0000
0000
0000
,
0100
0000
0000
0000
,
1000
0000
0000
0000
,
0010
0000
0000
0000
,
0100
0000
0000
0000
,
0001
0000
2000
0000
,
3001
0000
0000
0000
,
0010
0000
0000
0000
,
0100
0000
0000
0000
,
1000
0000
0000
0000
,
0100
0000
0000
0000
,
0010
0000
0000
0000
,
0100
0000
0000
0000
,
1000
0000
0000
0000
,
0001
0000
0000
0000
,
0100
0000
0000
0000
,
1000
0000
0000
0000
,
0100
0000
0000
0000
,
0001
0000
0000
0000
,
0010
0000
0000
0000
,
0200
0000
0000
0000
,
1000
0000
0000
0000
,
0310
0000
0000
0000
,
0001
0000
0000
0000
,
1000
0000
0000
0000
,
0010
0000
0000
0000
,
0100
0000
0000
0000
,
0001
0000
0000
0000
,
0100
0000
0000
0000
,
0010
0000
0000
0000
,
1000
0000
1000
0000
,
0001
0000
0000
0000
,
0010
0000
0010
0000
,
0100
0000
0000
0000
,
0010
0000
0001
0000
,
1000
0000
0000
0000
,
0020
0000
0000
0000
0030
0000
0000
1010
0000
0000
0000
0000
0000
0000
0000
0000
,
0002
0000
0000
0000
0003
0000
0000
0101
0000
0000
0000
0000
0000
0000
0000
0000
,
0010
0000
0010
0000
,
1000
0000
0001
0000
,
1000
0000
1000
0000
,
0100
0000
0010
0000
,
0100
0000
0010
0000
,
0001
0000
1000
0000
,
0020
0000
0000
0000
,
0230
0000
0000
0000
,
0302
0000
0000
0000
,
2003
0000
0000
0000
,
3200
0000
0000
0000
,
0320
0000
0000
0000
,
0032
0000
0000
0000
,
2003
0000
0000
0000
,
3020
0000
0000
0000
,
0230
0000
0000
0000
,
0301
0000
0000
0000
,
1000
0000
0000
0000
,
0100
0000
0000
0000
,
0010
0000
0000
0000
,
0001
0000
0000
0000
,
1000
0000
0000
0000
,
0010
0000
0000
0000
,
0100
0000
0001
0000
,
2000
0000
3000
0000
;
