#TITLE:Drawing days;
#SUBTITLE:家庭教師ヒットマンREBORN!;
#ARTIST:SPLAY;
#TITLETRANSLIT:Drawing Days;
#SUBTITLETRANSLIT:Katekyo Hitman Reborn!;
#ARTISTTRANSLIT:Splay;
#GENRE:Otaku's Dream 2nd Mix (Pad);
#CREDIT:Grc-009 feat Itsugo15;
#MENUCOLOR:;
#BANNER:Drawing Days-bn.png;
#BACKGROUND:Drawing Days-bg1.png;
#LYRICSPATH:Drawing Days.lrc;
#CDTITLE:Collab.png;
#MUSIC:Drawing Days.ogg;
#OFFSET:-1.519;
#SAMPLESTART:65.802;
#SAMPLELENGTH:30.000;
#SELECTABLE:YES;
#LISTSORT:;
#BPMS:0.000=176.000;
#STOPS:27.000=0.450
;
#TICKCOUNT:0.000=6;
#BGCHANGES:59.000=Drawing Days.avi=1.000=1=1=0,
347.000=Drawing Days.avi=0.000=0=1=0,
99999=-nosongbg-=1.000=0=0=0 // don't automatically add -songbackground-
;
#KEYSOUNDS:;
#ATTACKS:;

//---------------dance-single - Benninger Itsugo15----------------
#NOTES:
     dance-single:
     Benninger Itsugo15:
     Beginner:
     2:
     0.115,0.205,0.091,0.053,0.000:
0000
0000
0000
0000
,
0000
0000
0000
0000
,
0000
0000
0000
0000
,
0000
0000
0000
0000
,
0000
0000
0000
0000
,
0000
0000
0000
0000
,
0000
0000
0000
0000
,
0010
0000
0000
0000
,
0000
0000
0000
0000
,
0100
0000
0000
0000
,
0000
0000
0000
0000
,
0001
0000
0000
0000
,
0000
0000
0000
0000
,
1000
0000
0000
0000
,
0000
0000
0000
0000
,
1001
0000
0000
0000
,
0000
0000
0000
0000
,
1000
0000
0000
0000
,
0000
0000
0000
0000
,
0001
0000
0000
0000
,
0000
0000
0000
0000
,
0100
0000
0000
0000
,
0000
0000
0000
0000
,
0110
0000
0000
0000
,
1000
0000
0000
0000
,
0100
0000
0000
0000
,
0010
0000
0000
0000
,
0002
0003
0000
0000
,
0001
0000
0000
0000
,
0001
0000
0000
0000
,
1000
0000
0000
0000
,
1001
0000
0000
0000
,
0001
0000
0000
0000
,
0100
0000
0000
0000
,
0010
0000
0000
0000
,
2000
3000
0000
0000
,
1000
0000
0000
0000
,
0100
0000
0000
0000
,
0010
0000
0000
0000
,
0110
0000
0000
0000
,
0001
0000
0000
0000
,
1000
0000
0000
0000
,
0010
0000
0000
0000
,
0100
0000
0000
0000
,
0001
0000
0000
0000
,
0010
0000
0000
0000
,
0100
0000
0000
0000
,
1000
0000
1000
0000
,
1000
0000
0000
0000
,
0001
0000
0001
0000
,
0001
0000
0100
0000
,
1001
0000
0000
0000
,
0010
0000
0000
0000
,
0001
0000
0000
0000
,
0010
0000
0000
0000
,
0100
0000
0100
0000
,
0100
0000
0000
0000
,
0010
0000
0010
0000
,
0010
0000
0001
0000
,
0110
0000
0000
0000
,
1000
0000
0000
0000
,
0100
0000
0000
0000
,
0010
0000
0000
0000
,
0001
0000
1000
0000
,
0001
0000
1000
0000
,
0010
0000
0100
0000
,
0010
0000
0100
0000
,
0001
0000
0100
0000
,
0001
0000
0100
0000
,
0010
0000
1000
0000
,
0010
0000
0100
0000
,
1001
0000
0000
0000
,
0110
0000
0000
0000
,
0011
0000
0000
0000
,
1100
0000
0000
0000
,
1001
0000
0000
0000
,
0100
0000
0000
0000
,
0010
0000
0100
0000
,
0002
0000
0003
0000
,
2002
3003
0000
0000
,
0000
0000
0000
0000
,
0100
0000
0000
0000
,
0010
0000
0000
0000
,
0002
0003
0000
0000
,
0001
0000
0000
0000
,
0010
0000
0000
0000
,
0100
0000
0000
0000
,
2000
0000
0000
0000
,
0000
0000
0000
0000
,
0000
0000
0000
0000
,
3000
0000
0000
0000
;

//---------------dance-single - Light Itsugo15----------------
#NOTES:
     dance-single:
     Light Itsugo15:
     Easy:
     4:
     0.183,0.240,0.122,0.099,0.000:
0000
0000
0000
0000
,
0000
0000
0000
0000
,
0000
0000
0000
0000
,
0000
0000
0000
0000
,
0000
0000
0000
0000
,
0000
0000
0000
0000
,
0000
0000
0000
0000
,
1000
0000
0000
1000
0000
0000
0000
0000
,
0000
0000
0100
0000
,
0010
0000
0000
0001
0000
0000
0001
0000
,
0000
0000
0000
0000
,
0100
0000
0000
0010
0000
0000
0010
0000
,
0000
0000
0000
0000
,
1000
0000
0000
1000
0000
0000
2000
0000
,
0000
0000
0000
3000
,
0001
0000
0000
0001
0000
0000
0000
0000
,
0000
0000
0010
0000
,
0100
0000
0000
1000
0000
0000
1000
0000
,
0000
0000
0000
0000
,
0010
0000
0000
0100
0000
0000
0100
0000
,
0000
0000
0000
0000
,
0001
0000
0000
0001
0000
0000
0002
0000
,
0000
0000
0000
0003
,
1000
0000
1000
0000
,
0100
0000
0000
0000
,
0010
0000
0010
0000
,
0001
0000
0000
0000
,
0100
0000
0100
0000
,
0010
0000
0000
0000
,
1000
0000
1000
0000
,
0100
0000
0000
0000
,
1100
0000
0010
0000
,
0001
0000
0100
0000
,
0010
0000
1000
0000
,
0100
0000
0010
0000
,
0022
0000
0033
0000
,
2000
0000
3000
0000
,
0100
0000
0010
0000
,
0001
0000
1000
0000
,
1001
0000
1000
0000
,
1000
0000
0100
0000
,
0100
0000
0010
0000
,
0010
0000
0001
0000
,
0001
0000
1000
0000
,
1000
0000
0001
0000
,
0010
0000
0100
0000
,
1000
0000
0001
1000
,
1001
0000
0001
0000
,
0010
0000
0100
0000
,
1000
0000
0001
0000
,
1000
0000
0010
0100
,
0110
0000
0010
0000
,
1000
0000
0001
0000
,
0010
0000
0000
0200
0000
0000
0000
0000
,
0000
0300
0010
0100
,
0110
0000
1000
0000
,
0100
0000
0010
0000
,
0001
0000
0010
0000
,
0100
0000
1000
0001
,
1001
0000
1000
0000
,
0100
0000
0010
0000
,
0001
0000
0000
2000
0000
0000
0000
0000
,
0000
0000
3000
0000
,
1001
0000
0000
0000
,
0001
0000
0000
0000
,
0100
0000
0000
0000
,
0010
0000
0000
0000
,
0110
0000
0000
0000
0000
0000
0001
2000
,
0000
0000
0000
3000
,
1000
0000
1000
0000
,
0001
0000
0001
0000
,
0110
0000
0000
0000
,
0100
0000
0000
0000
,
1000
0000
0000
0000
,
0001
0000
0000
0000
,
2002
0000
0000
0000
0000
3003
1000
0000
,
0001
0000
0000
0010
,
0100
0000
0110
0000
,
0000
2000
3000
0000
0000
0002
0003
0000
,
1001
0000
0000
0000
,
0010
0000
0000
0000
,
0010
0000
0000
0100
0000
0000
1100
0000
,
0000
0000
0001
0000
,
0011
0000
0000
0010
0000
0000
0001
0000
,
0000
0000
1001
0000
,
0100
0000
0000
0010
0000
0000
1000
0000
,
0000
0010
0000
0000
0100
0000
0001
0000
,
0002
0000
0000
0000
,
0000
0000
0000
0000
,
0000
0000
0000
0000
,
0003
0000
0000
0000
;

//---------------dance-single - Challenge Itsugo15----------------
#NOTES:
     dance-single:
     Challenge Itsugo15:
     Challenge:
     11:
     0.717,0.822,0.525,0.396,0.152:
0000
0000
0000
0000
,
0000
0000
0000
0000
,
0000
0000
0000
0000
,
0000
0000
0000
0000
,
0000
0000
0000
0000
,
0000
0000
0000
0000
,
0000
0000
0000
0000
,
0011
0000
0010
0001
0010
0100
0010
1000
,
0010
0100
0010
0001
0100
0010
1000
0010
,
1010
1000
0100
1100
1000
0001
1001
0001
,
1000
0001
0010
0100
1000
0010
0100
0001
,
0101
0001
0010
0011
0001
1000
1001
1000
,
0001
1000
0010
0100
0001
0010
0100
1000
,
1100
0100
0010
0110
0010
0001
0011
0010
,
0001
0100
0010
1000
0100
0010
0001
1000
,
1001
0000
0100
1000
0100
0010
0100
0001
,
0100
0010
0100
1000
0010
0100
0001
0100
,
0101
0001
0010
0011
0001
1000
1001
1000
,
0001
1000
0010
0100
0001
0010
0100
1000
,
1100
1000
0010
1010
1000
0001
1001
0001
,
1000
0001
0100
0010
1000
0100
0010
0001
,
0011
0010
0100
0110
0100
1000
1100
0100
,
1000
0010
0100
0001
0010
0100
1000
0100
,
0011
0000
0011
0000
0011
0000
0100
1000
,
0010
0000
0100
0000
0001
0000
1000
0100
1000
0000
0001
0000
1000
0000
0100
0000
,
1100
0000
1100
0000
1100
0000
0001
1000
,
0010
0000
0100
0000
0001
0000
0010
0100
0010
0000
0100
0000
1000
0000
0001
0000
,
1001
0000
1001
0000
1001
0000
0100
1000
,
0010
0000
0100
0000
0010
0000
0100
0001
0100
0000
0001
0000
0010
0000
0100
0000
,
0110
0000
0110
0000
0110
0000
0010
0001
,
0100
0000
0010
0000
1000
0000
0100
1000
0100
0000
0010
0000
0001
0000
0100
0000
,
0202
0303
2002
3003
2200
3300
1000
0100
,
0010
0000
0001
0000
1000
0000
0010
0100
0001
0000
0010
0000
0100
0000
1000
0000
,
2200
3300
2002
3003
0202
0303
0001
0100
,
0010
0000
1000
0000
0001
0000
0010
0100
1000
0000
0010
0000
0100
0000
0001
0000
,
0202
0303
0220
0330
2020
3030
1000
0010
,
0100
0000
0001
0000
1000
0000
0100
0010
0001
0000
0100
0000
0010
0000
1000
0000
,
2020
3030
0220
0330
0202
0303
0100
0001
,
0020
0000
0030
0000
0010
0000
1000
0000
0200
0000
0300
0000
0100
1000
0010
0100
,
0001
0000
1000
0100
0010
0100
1000
0100
,
0020
0030
0001
0010
1000
0010
0001
0010
,
2000
3000
0010
0001
0010
0100
0010
0001
,
0020
0030
0100
1000
0100
0001
0100
1000
,
0200
0300
1000
0010
0100
0001
0010
0100
,
2000
3000
0100
0010
0001
0100
0010
1000
,
0200
0300
1000
1000
0001
0001
0010
0100
,
0110
0000
0110
0000
0000
0000
1100
0000
0000
0000
1001
0000
0000
0000
MMMM
1000
,
0100
0000
0000
0100
0010
0000
0000
0010
0001
0000
0000
0001
0100
0000
0000
0100
,
0010
0000
0000
0010
1000
0000
0000
1000
0100
0000
0000
0100
0010
0000
0000
0010
,
0001
0000
0000
0001
0100
0000
0000
0100
0010
0000
0000
0010
1000
0000
0000
0000
,
1100
0000
0100
0010
0001
0100
0010
1000
,
1010
1000
1000
0001
,
0020
0130
2000
3001
0200
0310
2000
3001
,
0020
0000
0000
0200
0000
0000
0000
0000
,
0000
0000
0330
0000
0000
0000
0000
0000
1000
0000
0000
0000
0001
0000
MMMM
0001
,
0010
0000
0000
0010
0100
0000
0000
0100
1000
0000
0000
1000
0010
0000
0000
0010
,
0100
0000
0000
0100
0001
0000
0000
0001
0010
0000
0000
0010
0100
0000
0000
0100
,
1000
0000
0000
1000
0010
0000
0000
0010
0100
0000
0000
0100
0001
0000
0000
0000
,
0011
0000
0010
0100
1000
0010
0100
0001
,
0101
0001
0001
1000
,
2000
3001
0020
0130
2000
3001
0200
0310
,
2000
0000
0000
0002
0000
0000
0000
0000
,
0000
0000
3003
0000
0001
0000
0000
0100
0001
0100
0010
1000
0001
0010
0100
1000
,
0100
0000
1000
0100
0010
0000
0010
0001
,
0100
0010
0100
0001
0010
0100
1000
0010
,
0100
0000
0100
0001
0010
0000
0010
0100
,
1000
0010
0100
0010
1000
0100
0010
0001
,
0011
0010
0100
1000
0001
0010
0100
1000
,
0001
0010
0100
1000
0001
M00M
0010
0001
,
0010
0001
0010
0001
0200
0000
0310
1000
,
0010
0000
1000
0000
0010
0000
1000
0000
0200
0000
0000
0300
0010
0001
0010
0100
,
1000
0000
0001
0010
0100
0000
0100
1000
,
0010
0100
0010
1000
0100
0010
0001
0100
,
0010
0000
0010
1000
0100
0000
0100
0010
,
0001
0100
0010
0100
0001
0010
0100
1000
,
0200
0000
0010
0000
0010
0000
1300
0002
,
1000
0000
1000
0000
1003
0010
0100
0002
,
1000
0000
1000
0003
2002
0000
0000
0000
,
3003
0001
1001
0000
0000
0100
0110
0000
,
0101
0000
0000
1100
0000
0000
1001
0000
,
0000
0001
0010
0001
0100
0001
0010
0000
,
0011
0000
0000
1100
0000
0000
1001
0000
,
0000
1000
0010
1000
0100
1000
0010
0000
,
1010
0000
0000
0101
0000
0000
1001
0000
,
0000
1000
0010
0100
0001
0010
0100
1000
,
1100
0000
0100
0110
0000
0010
0011
0000
,
0001
0101
0001
0100
0010
1000
0010
0100
,
MMM2
0000
0000
0000
,
0000
0000
0000
0000
,
0000
0000
0000
0000
,
0003
0000
0000
0000
;

//---------------dance-single - GRC-009----------------
#NOTES:
     dance-single:
     GRC-009:
     Hard:
     8:
     0.508,0.576,0.365,0.266,0.000:
0000
0000
0000
0000
,
0000
0000
0000
0000
,
0000
0000
0000
0000
,
0000
0000
0000
0000
,
0000
0000
0000
0000
,
0000
0000
0000
0000
,
0000
0000
0000
0000
,
1001
1000
0010
1000
,
0001
0001
1000
0001
,
1001
0001
0010
0001
,
0001
1000
1000
0010
,
1010
1000
1000
0001
,
0010
0100
1000
0001
,
1001
0001
0001
0100
,
0010
1000
0001
0010
,
0011
0001
0010
0100
,
1000
0001
0100
0010
,
0110
0010
1000
0001
,
0100
0001
1000
0100
,
1100
0100
0010
0001
,
1000
0100
0010
0001
,
0011
0001
0100
0010
,
0100
0001
0100
0010
,
0110
0000
0100
0000
0101
0000
0001
0100
,
0001
1000
0100
0010
0100
0000
0010
0000
,
0110
0000
0010
0000
0011
0000
0001
1000
,
0100
0010
0100
1000
0001
0000
0100
0000
,
0101
0000
0100
0000
0110
0000
0010
1000
,
0100
0001
0100
1000
0001
0000
0100
0000
,
0101
0000
1000
0000
1100
0000
0100
0010
,
0001
0010
0100
1000
0001
0000
0010
0000
,
0011
0000
1000
0000
1010
0000
0100
0001
,
1000
0100
0010
0100
1000
0000
0100
0000
,
1100
0000
1000
0000
1010
0000
0010
0100
,
0001
1000
0100
0010
0001
0000
0010
0000
,
0011
0000
0001
0000
0101
0000
0100
1000
,
0100
0010
1000
0100
0010
0000
0100
0000
,
0110
0000
1000
0000
1001
0000
0001
0100
,
0101
0000
1000
0100
1100
0000
1000
0001
,
1001
0000
0001
0100
0001
1000
0001
0100
,
0001
0010
0100
1000
,
0001
0000
1000
0010
1000
0001
1000
0010
,
1000
0001
1000
0100
,
0010
0000
0001
0100
0010
0100
0001
1000
,
0100
0010
0001
1000
,
1001
0000
0001
1000
0001
1000
0001
1000
,
0001
0100
0000
0010
0000
2000
0000
0000
,
3001
0001
1000
1100
,
0100
0010
0001
0100
0010
0001
0010
0100
,
2000
3200
0302
0023
,
0130
0000
1000
0100
0002
0000
0203
0000
,
2300
0000
3001
0000
0001
0000
0001
0100
,
0010
1000
0100
0001
0100
0010
0001
1000
,
0020
0000
0000
0130
0000
0001
0000
1000
,
0100
0000
0000
0100
0000
1000
0000
0001
,
1000
1000
0001
0011
,
0010
0100
1000
0010
0100
1000
0100
0010
,
0002
0023
2030
3200
,
0310
0000
0001
0010
2000
0000
3020
0000
,
0032
0000
1003
0000
1000
0000
1000
0010
,
0100
0001
0010
1000
0010
0100
1000
0001
,
0200
0000
0000
0310
0000
1000
0000
0001
,
0010
0000
0000
0010
0000
0001
0000
1000
,
0020
0000
0100
0000
0130
0000
0001
1000
,
0200
0000
0010
0000
0310
0000
0001
1000
,
0002
0000
1000
0000
1003
0000
1000
0010
,
0100
0000
0001
0010
0100
0000
1000
0000
,
1100
2000
3200
0302
,
0203
0000
0320
0000
0032
0000
2003
3000
,
1001
0000
0001
0100
0001
0000
1000
0000
,
1001
0000
1000
0100
1000
0000
0001
0000
,
0200
0000
0010
0000
0310
0000
1000
0001
,
0020
0000
0100
0000
0130
0000
1000
0001
,
2000
0000
0001
0000
3001
0000
0001
0100
,
0010
0000
1000
0100
0010
0000
0001
0000
,
0011
0000
0002
0000
0013
0000
0100
1000
,
0002
0000
1003
0000
0100
0000
0010
0001
,
1000
0001
1001
0001
,
0000
1000
1000
0000
0000
0001
0001
0000
,
1001
0000
0000
0110
0000
0000
1001
0000
,
0001
0100
0010
1000
,
1010
0000
0000
1001
0000
0000
0101
0000
,
0001
1000
0100
0010
,
0110
0000
0000
0011
0000
0000
0101
0000
,
0100
0010
1000
0100
,
1100
0000
0000
1001
0000
0000
0101
0000
,
0000
2002
0000
0000
3003
0000
0001
1000
,
0002
0000
0000
0000
,
0000
0000
0000
0000
,
0003
0000
0000
0000
;

//---------------dance-single - GRC-009----------------
#NOTES:
     dance-single:
     GRC-009:
     Medium:
     6:
     0.266,0.339,0.358,0.099,0.000:
0000
0000
0000
0000
,
0000
0000
0000
0000
,
0000
0000
0000
0000
,
0000
0000
0000
0000
,
0000
0000
0000
0000
,
0000
0000
0000
0000
,
0000
0000
0000
0000
,
1001
0000
0000
0001
0000
0000
0000
0000
,
1000
0010
1000
0001
,
1001
0000
0000
1000
0000
0000
0000
0000
,
0100
0010
0001
0100
,
0101
0000
0000
0001
0000
0000
0100
0000
,
0010
1000
0001
1000
,
1001
0000
0000
1000
0000
0000
0100
0000
,
0010
0001
0100
0010
,
0110
0000
0000
0010
0000
0000
0100
0000
,
0010
1000
0001
0100
,
0101
0000
0000
0001
0000
0000
1000
0000
,
0100
0010
0001
1000
,
1001
0000
0000
0001
0000
0000
0100
0000
,
0010
1000
0100
0010
,
0110
0000
0000
0010
0000
0000
0001
0000
,
0010
0100
1000
0001
,
1001
0000
0001
0000
,
0100
0000
0010
0000
,
1000
0000
0100
0000
,
0010
0000
0001
0000
,
0011
0000
0010
0000
,
0100
0000
1000
0000
,
0001
0000
0010
0000
,
0100
0000
1000
0000
,
1100
0000
1000
0000
,
0010
0000
0100
0000
,
0001
0000
1000
0000
,
0100
0000
0010
0000
,
0110
0000
0100
0000
,
1000
0000
0001
0000
,
0100
0000
0010
0000
,
0110
0000
1001
0000
,
0110
0000
0100
0000
,
0100
0000
1000
0000
,
1000
0000
0001
0000
,
0001
0000
0100
0000
,
0100
0000
0010
0000
,
1000
0000
0001
0000
,
0010
0000
0100
0000
,
1000
0000
0001
0000
,
1001
0000
1000
0000
,
0010
0000
0100
0000
,
0001
0000
1000
0000
,
1001
0000
0001
0000
,
0011
0000
0010
0000
,
0200
0000
2300
0000
,
3002
0000
1000
0000
,
1000
0000
1003
0000
,
1001
0000
1000
0000
,
0010
0000
0100
0000
,
0001
0000
1000
0000
,
0100
0000
0010
0000
,
0110
0000
0010
0000
,
0002
0000
2003
0000
,
3020
0000
0100
0000
,
0100
0000
0130
0000
,
0110
0000
1010
0000
,
1000
0000
0001
0000
,
1001
0000
0011
0000
,
0010
0000
0100
0000
,
0110
0000
0011
0000
,
1001
0000
1010
0000
,
0210
0000
0301
0000
,
2001
0000
3100
0000
,
0110
0000
0011
0000
,
0001
0000
1000
0000
,
1001
0000
1100
0000
,
0100
0000
0010
0000
,
0110
0000
0012
0000
,
1003
0000
2010
0000
,
3001
0000
2002
3003
,
0000
1000
0001
0000
0000
0001
1000
0000
,
1001
0000
1100
0000
,
0100
0000
0010
0000
,
0110
0000
0011
0000
,
0001
0000
1000
0000
,
1001
0000
1100
0000
,
1000
0000
0010
0000
,
1010
0000
1001
0000
,
0011
0000
0001
0000
,
2000
0000
0000
0000
,
0000
0000
0000
0000
,
3000
0000
0000
0000
;
