#TITLE:僕が僕のまま;
#SUBTITLE:バスカッシュ!;
#ARTIST:THE SPIN;
#TITLETRANSLIT:Boku ga Boku no Mama;
#SUBTITLETRANSLIT:Basquash!;
#ARTISTTRANSLIT:THE SPIN;
#GENRE:Otaku's Dream 2nd Mix (Pad);
#CREDIT:Itsugo15;
#BANNER:Boku ga Boku no Mama-bn.png;
#BACKGROUND:Boku ga Boku no Mama-bg.png;
#LYRICSPATH:Boku ga Boku no Mama.lrc;
#CDTITLE:Itsugo15 SimifileS.png;
#MUSIC:Boku ga Boku no Mama.ogg;
#OFFSET:1.355;
#SAMPLESTART:43.435;
#SAMPLELENGTH:30.000;
#SELECTABLE:YES;
#LISTSORT:;
#DISPLAYBPM:192.000;
#BPMS:0.000=96.000,20.000=192.000,52.000=96.000,68.000=192.000,92.000=96.000,95.250=192.000,96.000=96.000,100.000=192.000,172.000=96.000,176.000=192.000,180.000=192.000,277.000=96.000;
#STOPS:95.250=0.215
;
#TICKCOUNT:0.000=6;
#BGCHANGES:2.000=Boku ga Boku no Mama.avi=1.000=1=1=0,
242.500=Boku ga Boku no Mama.avi=0.000=0=1=0,
99999=-nosongbg-=1.000=0=0=0 // don't automatically add -songbackground-
;
#KEYSOUNDS:;
#ATTACKS:;

//---------------dance-single - Itsugo----------------
#NOTES:
     dance-single:
     Itsugo:
     Challenge:
     12:
     0.934,1.000,0.324,0.345,0.469: // measure 1
0000
0000
0000
0000
0000
0000
0000
0000
0000
0000
0000
0000
2000
3000
0001
1000
,  // measure 2
0001
1000
0001
1000
0002
0000
0103
0010
0100
0010
0100
0010
0200
0000
0310
1000
,  // measure 3
0100
0010
0001
0100
0020
0000
1030
0100
0020
0000
0130
1000
0002
0000
0103
0010
,  // measure 4
1000
0100
0001
0100
2000
0000
3010
0001
0010
1000
0001
0010
0200
0000
0310
0001
,  // measure 5
1000
0000
0000
0000
0010
0000
0000
0000
0200
0000
0000
0000
0000
0000
0000
0000
0002
0000
0000
0000
0000
0000
0000
0000
0000
0000
0000
0000
0000
0000
0000
0000
0000
0000
0000
0000
0000
0000
0000
0000
0303
0000
0000
0000
0000
0000
0000
0000
0101
0000
0000
0000
0000
0000
0000
0001
1000
0000
0000
0000
0000
0000
0000
0000
,  // measure 6
1000
0100
0010
1000
0010
0001
1000
0010
,  // measure 7
0100
0001
1000
0100
0001
0100
1000
0001
,  // measure 8
0100
1000
0100
0010
1000
0001
0010
0100
,  // measure 9
1000
0010
0100
0001
0100
0010
1000
0100
,  // measure 10
1100
0100
0010
0001
0100
0010
1000
0100
,  // measure 11
0010
0001
1000
0010
0001
1000
0100
0001
,  // measure 12
1000
0100
0010
1000
0010
0100
0010
0001
,  // measure 13
1000
0010
0100
0001
0010
0100
1000
0001
,  // measure 14
1001
0001
0002
0000
0103
0010
1000
0100
0010
0010
0020
0000
0031
0100
0010
1000
,  // measure 15
0100
0000
0000
0000
0100
0000
0000
0000
0200
0000
0000
0000
0000
0000
0000
0000
0310
0000
0000
0000
0001
0000
0000
0000
0100
0000
0000
0000
0010
0000
0000
0000
1000
0000
0000
0000
1000
0000
0000
0000
2000
0000
0000
0000
3000
0000
0000
0000
1001
0000
0000
0000
0000
0000
0000
0000
0001
0100
0000
0000
0000
0000
0000
0000
,  // measure 16
0001
0100
0020
0000
0130
0010
0100
0010
0100
0001
2000
0000
3001
1000
0001
1000
,  // measure 17
0001
0000
0010
0000
0200
0000
0000
0000
0310
0000
0100
0000
0010
0000
0100
0000
0010
0000
0001
0000
2000
0000
0000
0000
3001
0000
1000
0000
0001
0100
0001
1000
,  // measure 18
0100
0000
0010
0000
0001
0000
1000
0010
1000
0000
0100
0000
0010
0000
0001
0010
,  // measure 19
0001
0000
0010
0000
0100
0000
1000
0100
1000
0000
0010
0000
0100
0000
0001
0100
,  // measure 20
0001
0000
0100
0000
0010
0000
1000
0100
0010
0000
0001
0000
0100
0000
0010
1000
,  // measure 21
0100
0000
0010
0000
0001
0000
1000
0010
0100
0000
0001
0000
0010
0000
0100
0010
,  // measure 22
0001
0000
1000
0000
0010
0000
0100
0001
1000
0000
0100
0000
0010
0000
0001
0100
,  // measure 23
0010
0000
0001
0000
1000
0000
0100
0010
1000
0000
0001
0000
0010
0000
1000
0010
,  // measure 24
0100
1000
0000
1100
1100
0000
1000
0001
0000
1001
1001
0000
0001
0100
0000
0000
,  // measure 25
0101
0000
0101
0000
0000
0000
0100
0000
0010
0000
0000
0000
0110
0000
0110
0000
0000
0000
0010
0000
1000
0000
0100
0000
0010
0000
0001
0000
0010
0100
1000
0001
,  // measure 26
0100
0010
1000
0100
0010
1000
0010
0100
,  // measure 27
1000
0001
0100
0010
0001
0010
0100
0001
,  // measure 28
1000
0100
0010
0001
0100
0010
1000
0010
,  // measure 29
0100
0001
0010
0100
1000
0001
0010
0100
,  // measure 30
1000
0010
0100
0001
0010
0100
0001
0100
,  // measure 31
0010
0001
1000
0010
0100
1000
0100
0010
,  // measure 32
1000
0001
0010
0100
1000
0010
0100
0001
,  // measure 33
0100
0000
0010
0000
1000
0000
0100
0000
0010
0001
1000
0010
0100
0001
0010
0100
,  // measure 34
1000
0100
1000
0001
0100
0001
0100
0010
,  // measure 35
1000
0100
0010
1000
0010
0100
1000
0001
,  // measure 36
0100
0001
0100
0010
1000
0010
1000
0001
,  // measure 37
0010
0001
0010
0100
1000
0001
0010
0100
,  // measure 38
1000
0100
1000
0010
0100
0001
0100
0001
,  // measure 39
0010
0100
1000
0010
0100
0001
0010
0100
,  // measure 40
0110
0100
1000
1100
1000
0001
1001
1000
,  // measure 41
0001
0100
0000
0101
0000
0100
0001
1000
,  // measure 42
1001
0001
0010
0011
0010
0100
0110
0100
,  // measure 43
0010
0001
0000
0011
0000
0001
1000
0001
,  // measure 44
1001
0000
1001
0000
0000
0000
1100
0000
1100
0000
0000
0000
0011
0000
0011
0000
0000
0000
1001
0000
0000
0000
1000
0000
0001
0000
0000
0000
0010
0100
1000
0001
,  // measure 45
0100
0010
1000
0100
0010
1000
0010
0100
,  // measure 46
1000
0001
0100
0010
0001
0010
0100
0001
,  // measure 47
1000
0100
0010
0001
0100
0010
1000
0010
,  // measure 48
0100
0001
0010
0100
1000
0001
0010
0100
,  // measure 49
1000
0010
0100
0001
0010
0100
0001
0100
,  // measure 50
0010
0001
1000
0010
0100
1000
0100
0010
,  // measure 51
1000
0001
0010
0100
1000
0010
0100
0001
,  // measure 52
0100
0000
0010
0000
1000
0000
0100
0000
0010
0001
1000
0010
0100
0001
0010
0100
,  // measure 53
1000
0100
1000
0001
0100
0001
0100
0010
,  // measure 54
1000
0100
0010
1000
0010
0100
1000
0001
,  // measure 55
0100
1000
0100
0010
1000
0100
0001
1000
,  // measure 56
0010
0001
0010
0100
1000
0001
0010
0100
,  // measure 57
0001
1000
0001
0100
1000
0001
1000
0010
,  // measure 58
0001
1000
0001
0010
1000
0001
1000
0100
,  // measure 59
0020
0230
2300
3002
0023
0230
0320
0032
,  // measure 60
1003
2002
3003
0010
0100
0000
0202
0000
,  // measure 61
0000
2323
0000
3030
;

//---------------dance-single - Itsugo----------------
#NOTES:
     dance-single:
     Itsugo:
     Beginner:
     2:
     0.132,0.230,0.032,0.097,0.000:
0000
0000
0000
0000
,
0000
0000
0000
0000
,
0000
0000
0000
0000
,
0000
0000
0000
0000
,
0000
0000
0000
0000
,
0001
0000
0000
0000
,
0010
0000
0000
0000
,
0100
0000
0000
0000
,
1000
0000
0000
0000
,
0001
0000
0000
0000
,
0100
0000
0000
0000
,
0010
0000
0000
0000
,
1000
0000
0000
0000
,
0001
0000
1000
0000
,
0100
0000
1000
1001
,
0001
0000
0100
0000
,
0010
0000
1000
0100
,
1100
0000
0010
0000
,
0001
0000
0000
0000
,
0100
0000
0010
0000
,
1000
0000
0000
0000
,
0100
0000
0010
0000
,
0001
0000
1000
0000
,
0020
0000
0000
0000
0000
0000
0000
0000
0000
0000
0000
0000
0000
0030
0000
0000
,
0100
0000
0001
0000
,
1000
0000
0000
0000
,
0100
0000
0000
0000
,
0010
0000
0000
0000
,
0001
0000
0000
0000
,
1000
0000
0000
0000
,
0010
0000
0000
0000
,
0100
0000
0000
0000
,
0002
0000
0000
0000
,
1003
0000
0000
0000
,
0200
0000
0000
0000
,
0310
0000
0000
0000
,
0002
0000
0000
0000
,
1003
0000
0000
0000
,
0010
0000
0000
0000
,
0100
0000
0100
0000
,
0100
0000
0100
0000
,
0001
0000
1000
0000
,
0001
0000
0001
0000
,
2000
0000
0000
3100
,
0010
0000
0000
0000
,
0001
0000
0000
0000
,
1000
0000
0000
0000
,
0010
0000
0000
0000
,
0100
0000
0000
0000
,
0001
0000
0000
0000
,
1000
0000
0000
0000
,
0100
0000
0000
0000
,
0010
0000
0000
0000
,
0002
0000
0000
0000
,
1003
0000
0000
0000
,
0020
0000
0000
0000
,
0130
0000
0000
0000
,
0001
0000
0000
0000
,
1000
0000
0100
0000
,
0010
0000
0001
0000
,
0000
2002
0000
0000
,
3003
0000
0000
0000
;

//---------------dance-single - Itsugo----------------
#NOTES:
     dance-single:
     Itsugo:
     Easy:
     4:
     0.197,0.295,0.054,0.151,0.005:
0000
0000
0000
0000
,
0000
0000
0000
0000
,
0000
0000
0000
0000
,
0000
0000
0000
0000
,
0000
0002
0000
0000
,
1003
0000
0000
0000
,
0010
0000
0000
0000
,
0100
0000
0000
0000
,
0001
0000
0000
0000
,
1000
0000
0000
0000
,
0100
0000
0000
0000
,
0010
0000
0000
0000
,
0001
0000
0000
0000
,
1000
0010
0100
0001
,
1000
0100
1000
1100
,
0001
0000
0100
0000
,
0010
0000
1000
1001
,
0001
0000
0010
0000
,
0100
0000
1000
0000
,
0001
0000
0100
0000
,
0010
0000
1000
0000
,
0100
0000
1000
0000
,
0010
0000
0100
0000
,
0002
0000
0000
0000
0000
0000
0000
0000
0000
0000
0000
0000
0000
1003
0000
0000
,
1000
0100
0010
0001
,
0011
0000
0001
0000
,
1000
0000
0010
0000
,
0100
0000
0001
0000
,
0010
0000
1000
0000
,
0010
0000
0001
0000
,
0100
0000
1000
0000
,
0100
0000
0010
0000
,
2000
0000
0000
0000
,
3001
0000
0010
0000
,
0200
0000
0000
0000
,
1300
0000
0010
0000
,
0200
0000
0000
0000
,
0301
0000
1000
0000
,
0100
0000
0010
0000
,
0002
0000
1000
0000
,
1000
0000
1000
0000
,
2003
0000
0001
0000
,
0001
0000
3001
0000
,
1001
0001
0100
0020
,
1030
0000
0100
0000
,
0010
0000
0100
0000
,
1000
0000
0001
0000
,
0100
0000
0010
0000
,
0100
0000
0001
0000
,
0010
0000
1000
0000
,
0010
0000
0002
0000
,
2000
0000
0000
0000
0000
0000
0000
3003
,
1000
0000
0010
0000
,
0200
0000
0000
0000
,
0301
0000
0010
0000
,
0200
0000
0000
0000
,
1300
0000
0001
0000
,
0100
0000
0010
0000
,
1000
0000
0000
0100
0000
0000
0010
0000
,
0000
0001
0000
0000
1000
0000
0010
0000
,
0000
0000
0220
0000
0000
0000
0000
0330
;

//---------------dance-single - Itsugo----------------
#NOTES:
     dance-single:
     Itsugo:
     Medium:
     7:
     0.279,0.460,0.108,0.151,0.016:
0000
0000
0000
1000
,
0000
0001
0000
0100
,
0000
0010
1000
0001
,
0000
0010
0000
0100
,
0000
2000
0000
3001
,
1001
0000
0001
0000
,
0100
0000
0010
0000
,
1000
0000
0100
0000
,
0010
0000
0100
0000
,
1000
0000
0001
0000
,
0100
0000
0010
0000
,
1000
0000
0100
0000
,
0010
0000
0001
0000
,
0011
0001
1001
1000
,
1010
0010
0200
0301
,
0101
0001
1001
1000
,
1100
0100
0020
0031
,
1001
0000
1000
0000
,
0010
0000
0100
0000
,
0001
0000
0100
0000
,
1000
0000
0100
0000
,
0010
0000
1000
0000
,
0002
0000
0023
0000
,
0230
0000
0000
0000
0000
0000
0000
0000
0000
0000
0000
0000
0000
1300
0000
0000
,
1001
0000
0001
0000
0100
0000
0010
1000
,
0100
0000
0010
0000
,
0100
0000
1000
0000
,
0001
0000
0100
0000
,
0010
1000
0100
0010
,
0001
0000
0100
0000
,
0010
0000
1000
0000
,
0010
0100
0001
1000
,
0200
0000
0000
0000
,
0310
0000
0001
0000
,
2000
0000
3010
0000
,
0100
0000
0001
0000
,
0020
0000
0130
0000
,
1000
0000
0001
0000
,
0100
0000
0010
0000
,
1000
0000
0000
0100
0000
0000
0010
0000
,
0000
0001
0000
1000
0000
0010
0100
0001
,
0010
0000
0100
1000
0010
0000
0100
0001
,
0000
0010
0000
0100
0000
1000
0001
0000
,
0100
0000
0000
0010
0000
0000
1000
0000
0000
0100
0000
0000
0010
0000
0001
0000
,
1000
0000
0010
0000
,
0100
0000
0001
0000
,
1000
0000
0100
0000
,
0010
0000
0001
0000
,
0100
0000
0010
0000
,
1000
0000
0100
0000
,
0001
0000
0100
0000
,
2000
0000
0000
0000
,
3001
0000
0100
0000
,
0020
0000
1030
0000
,
0100
0000
0010
0000
,
0002
0000
1003
0000
,
0010
0000
0100
0000
,
0001
0000
1000
0000
,
0100
0010
0001
0100
0001
0010
0100
1000
,
0010
0100
0000
0001
1000
0000
0100
0000
,
0000
0000
0220
0000
0000
0000
0000
0330
;

//---------------dance-single - Itsugo----------------
#NOTES:
     dance-single:
     Itsugo:
     Hard:
     10:
     0.693,0.786,0.291,0.043,0.129:
0000
0000
0000
1000
,
0010
0100
0001
1000
,
0100
0010
0001
1000
,
0010
0100
0001
1000
,
0100
0000
0020
0000
0000
0000
0001
0031
,
0011
0000
0001
1000
0010
0000
0100
0001
,
0010
0000
0100
1000
0010
0000
0100
0001
,
0100
0000
0010
1000
0010
0000
1000
0100
,
0010
0000
0001
0100
0010
1000
0100
0010
,
0001
0000
0010
0100
1000
0000
0010
0100
,
0001
0000
0100
0010
1000
0000
0100
0010
,
0001
0000
1000
0010
0100
0000
0001
0010
,
0100
0010
0001
0100
0010
1000
0100
0010
,
0110
0010
0100
0010
0011
0001
1000
0010
,
1010
0010
0100
0001
0101
0001
1001
1000
,
1100
1000
0100
0010
0110
0100
0010
0001
,
0011
0001
1000
0010
1010
0001
0101
1000
,
1100
0000
0010
0001
0100
0000
0010
1000
,
0100
0000
0010
0001
0100
0000
0010
1000
,
0010
0000
0100
0001
0010
0000
0100
1000
,
0001
0000
0100
0010
1000
0000
0100
0010
,
0001
0000
0100
0010
1000
0000
0010
0100
,
0001
0000
0010
0100
2000
0000
3001
0000
,
1001
0001
0000
0100
0100
0000
0010
0010
0000
1000
0100
0000
1000
0001
0000
0000
,
1001
1000
0000
0010
0010
0000
0100
0100
0000
0001
0010
0000
0001
1000
0001
1000
,
0001
0000
1000
0001
0010
0100
0010
0100
,
0010
0001
0010
0100
0010
0001
0010
0100
,
1000
0010
0100
0010
0001
0010
0100
0001
,
1000
0100
0010
0100
0001
0100
1000
0001
,
1001
1000
0010
0100
0010
1000
0100
0010
,
0001
1000
0010
1000
0010
0100
0010
0100
,
0001
0010
0100
0001
0100
0010
0001
0100
,
0010
0000
1000
0000
0100
0000
0010
0000
0001
0010
0001
0010
0001
0010
0001
0010
,
0001
0000
0010
0100
1000
0000
0100
0010
,
0001
1000
0010
0100
0010
0001
0010
0100
,
0001
0000
1000
0100
0010
0000
0100
1000
,
0001
0100
0010
1000
0010
0001
0010
0100
,
0001
0000
1000
0010
0100
0000
0001
1000
,
0100
0000
0010
0001
1000
0010
0100
0000
,
0101
0000
0000
1001
0000
0000
0011
0000
,
0000
0110
0000
1000
0000
0010
0100
0001
,
1001
1000
0001
0100
0010
0100
0010
1000
,
0100
0010
0100
1000
0001
1000
0001
0100
,
0101
0001
0000
1001
1000
0000
1100
0100
0000
0100
0000
0010
0001
0000
0011
0000
,
1001
1000
0100
0010
0001
0100
0010
1000
,
0010
0001
0010
1000
0010
1000
0100
0010
,
0100
1000
0100
0010
0001
0100
0010
0001
,
1000
0100
0001
1000
0100
0001
0100
1000
,
0001
0010
0100
1000
0100
0010
0001
0100
,
0010
0001
1000
0100
0010
1000
0100
0010
,
0001
1000
0010
0100
0001
1000
0100
1000
,
0010
0000
0100
0000
0001
0000
1000
0000
0100
1000
0100
1000
0100
1000
0100
1000
,
0100
0000
0010
0001
1000
0000
0010
0100
,
0001
1000
0100
0010
0001
1000
0010
0000
,
1000
0000
0010
0100
0001
0000
1000
0100
,
0010
0001
0010
0100
1000
0001
1000
0010
,
0100
0000
0010
1000
0010
0000
0100
0001
,
0100
0000
0010
1000
0100
0000
0010
0001
,
1000
0010
0100
0001
0010
0100
0010
0001
,
0100
0010
0000
1000
0001
0000
0011
0000
,
0000
2200
0000
3300
;
