#TITLE:Angelic Layer -The2nd Night-;
#SUBTITLE:SHIKI's 2nd VOCALOID CD [Re DEAR];
#ARTIST:Hatsune Miku;
#TITLETRANSLIT:Angelic Layer -The2nd Night-;
#SUBTITLETRANSLIT:SHIKI's 2nd VOCALOID CD [Re DEAR];
#ARTISTTRANSLIT:Hatsune Miku;
#GENRE:Vocaloid;
#CREDIT:Itsugo15;
#MENUCOLOR:;
#BANNER:Angelic Layer -The2nd Night--bn.jpg;
#BACKGROUND:Angelic Layer -The2nd Night--bg.jpg;
#LYRICSPATH:Angelic Layer -The2nd Night-.lrc;
#CDTITLE:Itsugo15 SimifileS.png;
#MUSIC:Angelic Layer -The2nd Night-.mp3;
#OFFSET:0.437;
#SAMPLESTART:88.191;
#SAMPLELENGTH:30.000;
#SELECTABLE:YES;
#LISTSORT:;
#BPMS:0.000=154.000;
#STOPS:;
#TICKCOUNT:0.000=8;
#BGCHANGES:4.000=Angelic Layer -The2nd Night--bg1.jpg=1.000=1=1=0,
100.000=Angelic Layer -The2nd Night--bg2.jpg=1.000=1=1=0,
164.000=Angelic Layer -The2nd Night--bg3.jpg=1.000=1=1=0,
228.000=Angelic Layer -The2nd Night--bg4.jpg=1.000=1=1=0,
284.000=Angelic Layer -The2nd Night--bg5.jpg=1.000=1=1=0,
316.000=Angelic Layer -The2nd Night--bg.jpg=1.000=1=1=0,
99999=-nosongbg-=1.000=0=0=0 // don't automatically add -songbackground-
;
#KEYSOUNDS:;
#ATTACKS:;

//---------------dance-single - Heavy Itsugo15----------------
#NOTES:
     dance-single:
     Heavy Itsugo15:
     Hard:
     9:
     0.524,0.576,0.316,0.354,0.239: // measure 1
0000
0000
0000
0000
,  // measure 2
0002
0000
0000
0003
,  // measure 3
0002
0000
0000
0003
,  // measure 4
2000
0000
3000
0000
,  // measure 5
2000
0000
0000
3000
,  // measure 6
0010
0010
0010
0010
,  // measure 7
0100
0100
0100
0100
,  // measure 8
0001
0001
0001
0001
,  // measure 9
1000
1000
0001
0001
,  // measure 10
1001
0000
0000
0001
0000
0000
0010
0000
0100
0000
0000
0010
0000
0000
0001
0000
,  // measure 11
1000
0000
0000
0100
0000
0000
0010
0000
0100
0000
0000
1000
0000
0000
0001
0000
,  // measure 12
0100
0000
0000
1000
0000
0000
0001
0000
1000
0000
0000
0100
0000
0000
0001
0000
,  // measure 13
1000
0000
0000
0100
0000
0000
0001
0000
1000
0000
0000
0001
0000
0000
0100
0000
,  // measure 14
0110
0000
0000
0100
0000
0000
1000
0000
0010
0000
0000
1000
0000
0000
0100
0000
,  // measure 15
0010
0000
0000
0001
0000
0000
0100
0000
0001
0000
0000
0010
0000
0000
0100
0000
,  // measure 16
1000
0000
0000
0001
0000
0000
0010
0000
0001
0000
0000
1000
0000
0000
0010
0000
,  // measure 17
0100
0000
0000
0001
0000
0000
1000
0000
0010
0000
0000
1000
0000
0000
0100
0000
,  // measure 18
1100
0000
0000
1000
0000
0000
0100
0000
0010
0000
0000
0100
0000
0000
1000
0000
,  // measure 19
0001
0000
0000
0010
0000
0000
0100
0000
0010
0000
0000
0001
0000
0000
1000
0000
,  // measure 20
0010
0000
0000
0001
0000
0000
1000
0000
0001
0000
0000
0010
0000
0000
1000
0000
,  // measure 21
0001
0000
0000
0010
0000
0000
1000
0000
0001
0000
0000
1000
0000
0000
0010
0000
,  // measure 22
0110
0000
0000
0010
0000
0000
0001
0000
0100
0000
0000
0001
0000
0000
0010
0000
,  // measure 23
0100
0000
0000
1000
0000
0000
0010
0000
1000
0000
0000
0100
0000
0000
0010
0000
,  // measure 24
0001
0000
0000
1000
0000
0000
0100
0000
1000
0000
0000
0001
0000
0000
0100
0000
,  // measure 25
0010
0000
0000
1000
0000
0000
0001
0000
0010
0000
0000
0100
0000
0000
1000
0000
,  // measure 26
2100
0000
3100
0000
0100
1000
0001
0100
,  // measure 27
0102
0000
0000
0000
0103
0000
0000
0000
0100
0000
0000
0001
0000
0000
1000
0000
,  // measure 28
0100
0010
0011
0100
,  // measure 29
1100
0000
0000
1000
0000
0000
0001
0000
0100
0000
0010
0000
0100
0000
0001
0000
,  // measure 30
0102
0000
0103
0000
0100
0001
1000
0100
,  // measure 31
2100
0000
0000
0000
3100
0000
0000
0000
0100
0000
0000
0010
0000
0000
0001
0000
,  // measure 32
1000
0010
1010
0100
,  // measure 33
0101
0000
0000
0001
0000
0000
0100
0000
0010
0000
1000
0000
0010
0000
0100
0000
,  // measure 34
0110
0000
0110
0000
0010
0100
0001
1000
,  // measure 35
1001
0000
1001
0000
0001
1000
0100
0010
,  // measure 36
0110
0010
0011
0001
,  // measure 37
1001
0000
0000
0000
1000
0000
0000
0000
1010
0000
0000
0010
0000
0000
0100
0000
,  // measure 38
0110
0000
0010
0000
0010
0000
0100
0001
,  // measure 39
0100
0000
0100
0000
0100
0000
0001
1000
,  // measure 40
0001
0000
0001
0000
0001
0000
0010
0001
,  // measure 41
0010
0000
0010
0000
0010
0100
1000
0001
,  // measure 42
0020
0000
0030
0002
0000
0003
2000
3000
,  // measure 43
0200
0000
0300
0020
0000
0030
0200
0300
,  // measure 44
2000
0000
3000
0002
0000
0000
0000
1003
,  // measure 45
0001
2000
0000
0001
0001
0000
3100
0000
,  // measure 46
1200
0000
0300
0020
0000
0030
0002
0003
,  // measure 47
0020
0000
0030
0200
0000
0300
2000
3000
,  // measure 48
0200
0000
0300
0002
0000
0003
0200
0300
,  // measure 49
2000
0000
0000
0002
0000
3000
1003
0000
,  // measure 50
1001
0000
0101
0000
0001
0001
0001
0000
,  // measure 51
0101
0000
0000
0000
0110
0000
0000
0010
0000
0000
0100
0000
0010
0000
0000
0000
,  // measure 52
0110
0000
1010
0000
1000
1000
1000
0000
,  // measure 53
1010
0000
0000
0000
1001
0000
0000
0001
0000
0000
1000
0000
0200
0000
0000
0000
,  // measure 54
1300
0100
1000
0100
1000
0100
1000
0100
,  // measure 55
0010
0100
0010
0100
0010
0100
0010
0100
,  // measure 56
0010
0001
0010
0001
0010
0001
0010
0001
,  // measure 57
0020
0031
0002
1003
,  // measure 58
1001
0000
0000
0001
0000
0000
0010
0000
0200
0000
0000
0000
0310
0000
0001
0000
,  // measure 59
2000
0000
0000
0000
0000
0000
3001
0000
1000
0000
0000
0010
0000
0000
0100
0000
,  // measure 60
0020
0000
0000
0000
0000
0000
1030
0000
0001
0000
0000
0100
0000
0000
0010
0000
,  // measure 61
1000
0000
0000
0001
0000
0000
1000
0000
0100
0000
0000
0000
0010
0000
0000
0000
,  // measure 62
0110
0000
0000
0010
0000
0000
0010
0000
0100
0000
0000
0100
0000
0000
0100
0000
,  // measure 63
2000
3002
0203
0320
,  // measure 64
0200
0000
0000
0000
0330
0010
1000
0001
,  // measure 65
0100
0000
0000
0001
0000
0000
1000
0000
0001
0000
0000
0000
1000
0000
0000
0000
,  // measure 66
1001
0000
0000
0001
0000
0000
1000
0000
0200
0000
0000
0000
0000
0000
1300
0100
,  // measure 67
1000
0000
0000
0001
0000
0000
0100
0000
0010
0000
0000
0100
0000
0000
0001
0000
,  // measure 68
0002
0000
0000
0000
0000
0000
0103
0000
0010
0000
0000
1000
0000
0000
0001
0000
,  // measure 69
1000
0000
0000
0100
0000
0000
0010
0000
0010
0000
0000
0000
0100
0000
0000
0000
,  // measure 70
0110
0000
0000
0010
0000
0000
0010
0000
0100
0000
0000
0100
0000
0000
0100
0000
,  // measure 71
0020
0032
2003
3020
,  // measure 72
0100
0000
0000
0100
0000
0030
0100
0000
0010
0000
0000
0010
0000
0000
0010
0000
,  // measure 73
1000
0000
0000
1000
0000
0000
1000
0000
0001
0000
0000
0001
0000
0000
0001
0000
,  // measure 74
0010
0000
0000
0100
0000
0000
0010
0000
0001
0000
0000
1000
0000
0000
0100
0000
,  // measure 75
0010
0000
0000
0001
0000
0000
1000
0000
0100
0000
0000
1000
0000
0000
0010
0000
,  // measure 76
0010
0010
0010
0010
,  // measure 77
0110
0100
0100
0100
,  // measure 78
0101
0001
1001
1000
,  // measure 79
1100
0110
0011
1100
,  // measure 80
0002
0000
0000
0000
,  // measure 81
0000
0000
0000
0000
,  // measure 82
0000
0000
0000
0000
,  // measure 83
0000
0000
0000
0000
,  // measure 84
0003
0000
0000
0000
;

//---------------dance-single - Beginner Itsugo15----------------
#NOTES:
     dance-single:
     Beginner Itsugo15:
     Beginner:
     2:
     0.098,0.183,0.108,0.031,0.000:
0000
0000
0000
0000
,
0000
0000
0000
0000
,
0000
0000
0000
0000
,
0000
0000
0000
0000
,
0000
0000
0000
0000
,
0000
0000
0000
0000
,
0000
0000
0000
0000
,
0000
0000
0000
0000
,
0000
0000
0000
0000
,
1000
0000
0000
0000
,
1000
0000
0000
0000
,
0001
0000
0000
0000
,
0001
0000
0000
0000
,
1001
0000
0000
0000
,
0001
0000
0000
0000
,
0100
0000
0000
0000
,
0010
0000
0000
0000
,
0110
0000
0000
0000
,
0010
0000
0000
0000
,
1000
0000
0000
0000
,
0100
0000
0000
0000
,
1100
0000
0000
0000
,
0010
0000
0000
0000
,
0001
0000
0000
0000
,
0100
0000
0000
0000
,
0101
0000
0000
0000
,
0001
0000
0000
0000
,
0100
0000
0000
0000
,
0001
0000
0000
0000
,
1000
0000
0000
0000
,
0100
0000
0000
0000
,
1000
0000
0000
0000
,
0001
0000
0000
0000
,
1001
0000
0000
0000
,
1000
0000
0000
0000
,
0010
0000
0000
0000
,
1000
0000
0000
0000
,
1010
0000
0000
0000
,
0001
0000
0000
0000
,
0010
0000
0000
0000
,
0001
0000
0000
0000
,
0011
0000
0000
0000
,
0010
0000
0000
0000
,
0100
0000
0000
0000
,
0010
0000
0000
0000
,
0110
0000
0000
0000
,
1000
0000
0000
0000
,
0001
0000
0000
0000
,
1000
0000
0000
0000
,
1001
0000
0000
0000
,
1000
0000
0000
0000
,
1000
0000
0000
0000
,
1000
0000
0000
0000
,
1001
0000
0000
0000
,
0001
0000
0000
0000
,
0010
0000
0000
0000
,
0200
0000
0000
0000
,
1300
0000
0000
0000
,
0001
0000
0000
0000
,
0100
0000
0000
0000
,
0010
0000
0000
0000
,
0110
0000
0000
0000
,
1000
0000
0000
0000
,
0100
0000
0000
0000
,
0010
0000
0000
0000
,
0110
0000
0000
0000
,
0010
0000
0000
0000
,
0001
0000
0000
0000
,
1000
0000
0000
0000
,
1001
0000
0000
0000
,
2002
0000
0000
0003
,
3001
0000
0000
0000
,
0010
0000
0000
0000
,
0100
0000
0000
0000
,
1000
0000
0000
0000
,
0001
0000
0000
0000
,
0010
0000
0000
0000
,
0100
0000
0000
0000
,
2000
0000
0000
0000
,
3001
0000
0000
0000
;

//---------------dance-single - Light Itsugo15----------------
#NOTES:
     dance-single:
     Light Itsugo15:
     Easy:
     4:
     0.199,0.274,0.185,0.008,0.000:
0000
0000
0000
0000
,
0001
0000
0000
0000
,
0001
0000
0000
0000
,
1000
0000
0000
0000
,
1000
0000
0000
0000
,
0010
0010
0010
0010
,
0100
0100
0100
0100
,
0001
0001
0001
0001
,
1000
1000
1000
1000
,
0001
0000
1000
0000
,
0100
0000
0010
0000
,
0001
0000
1000
0000
,
0001
0000
0100
0000
,
0101
0000
0100
0000
,
0010
0000
1000
0000
,
0100
0000
1000
0000
,
0001
0000
0010
0000
,
0011
0000
0001
0000
,
1000
0000
0010
0000
,
0100
0000
0001
0000
,
1000
0000
0100
0000
,
1100
0000
1000
0000
,
0001
0000
0010
0000
,
0001
0000
0100
0000
,
0010
0000
1000
0000
,
1010
0000
1000
0000
,
0001
0000
0001
0000
,
0010
0000
0100
0000
,
1000
0000
0001
0000
,
0100
0000
0100
0000
,
0010
0000
0010
0000
,
1000
0000
0100
0000
,
0010
0000
0001
0000
,
0011
0000
0001
0000
,
1000
0000
1000
0000
,
0010
0000
0100
0000
,
0001
0000
1000
0000
,
0100
0000
0010
0000
,
0010
0000
0001
0000
,
1000
0000
0010
0000
,
0100
0000
0001
0000
,
0101
0000
1000
0000
,
1001
0000
0100
0000
,
1100
0000
0010
0000
,
0100
0000
1000
0000
,
1100
0000
1000
0000
,
1001
0000
0001
0000
,
0101
0000
0100
0000
,
0010
0000
0010
0000
,
0110
0000
0000
0000
,
1010
0000
0000
0000
,
0101
0000
0000
0000
,
1001
0000
0000
0000
,
1001
0000
0001
0000
,
1000
0000
1000
0000
,
0001
0000
0010
0000
,
0200
0000
0000
0300
,
0110
0000
0010
0000
,
0001
0000
0010
0000
,
0100
0000
0010
0000
,
0001
0000
1000
0000
,
1001
0000
0001
0000
,
0100
0000
0010
0000
,
1000
0000
0100
0000
,
0010
0000
0100
0000
,
0110
0000
0010
0000
,
0001
0000
1000
0000
,
0010
0000
0100
0000
,
0001
0000
0010
0000
,
0011
0000
0001
0000
,
1001
0000
1000
0000
,
1010
0000
1000
0000
,
0001
0000
0001
0000
,
0010
0000
0010
0000
,
0100
0000
0100
0000
,
0110
0000
0100
0000
,
1000
0000
0100
0000
,
0010
0000
0001
0000
,
0010
0000
0100
0000
,
0110
0000
0000
0000
;

//---------------dance-single - Challenge Itsugo15----------------
#NOTES:
     dance-single:
     Challenge Itsugo15:
     Challenge:
     11:
     0.851,1.000,0.408,0.270,0.720:
0000
0000
0000
0000
,
1001
0000
0000
0001
0000
0000
0001
0000
0000
0001
0000
0000
1000
0000
0100
0000
,
1100
0000
0000
0100
0000
0000
0100
0000
0000
0100
0000
0000
0010
0000
0001
0000
,
0011
0000
0000
0001
0000
0000
0001
0000
0000
0001
0000
0000
1000
0000
0010
0000
,
1010
0000
0000
0010
0000
0000
0010
0000
0000
0010
0000
0000
0010
0000
0100
0000
,
0001
0100
0001
0100
0001
0100
0001
0100
0001
0100
0001
0100
0001
0100
0001
0100
,
0001
1000
0001
1000
0001
1000
0001
1000
0001
1000
0001
1000
0001
1000
0001
1000
,
0001
0010
0001
0010
0001
0010
0001
0010
0001
0010
0001
0010
0001
0010
0001
0010
,
0004
4000
0000
0000
0000
0000
0000
3000
0003
0000
1000
0000
0001
0000
1000
0000
0004
4000
0000
0000
0000
0000
0000
3000
0003
0000
1000
0000
0001
0000
0000
0000
,
1001
0000
0001
1000
0000
0100
1000
0000
0100
0000
0000
0010
0000
0000
0100
0000
,
1000
0000
0100
0010
0000
0001
0010
0000
0001
0000
0000
1000
0000
0000
0001
0000
,
0100
0000
0010
1000
0000
0001
1000
0000
0100
0000
0000
0010
0000
0000
0100
0000
,
1000
0000
0100
0010
0000
0001
1000
0000
0001
0000
0000
1000
0000
0000
0010
0000
,
1010
0000
1000
0010
0000
0100
0010
0000
0100
0000
0000
0001
0000
0000
1000
0000
,
0001
0000
0010
0100
0000
1000
0100
0000
0010
0000
0000
0001
0000
0000
1000
0000
,
0001
0000
0100
0001
0000
1000
0001
0000
0010
0000
0000
0001
0000
0000
1000
0000
,
0100
0000
1000
0010
0000
0100
0010
0000
0100
0000
0000
0001
0000
0000
1000
0000
,
1001
0000
1000
0001
0000
0010
0001
0000
0011
0000
0000
0110
0000
0000
0010
0000
,
0001
0000
0010
0100
0000
1000
0100
0000
1100
0000
0000
1001
0000
0000
1000
0000
,
0010
0000
0100
0001
0000
1000
0001
0000
1001
0000
0000
0011
0000
0000
0010
0000
,
0001
0000
1000
0001
0000
0100
0010
0000
0110
0000
0000
0101
0000
0000
0100
0000
,
0101
0000
0001
0100
0000
0010
0100
0000
0110
0000
0000
1001
0000
0000
0001
0000
,
1000
0000
0100
0010
0000
0001
0010
0000
0011
0000
0000
1001
0000
0000
0001
0000
,
1000
0000
0010
1000
0000
0001
1000
0000
1001
0000
0000
0011
0000
0000
0001
0000
,
0010
0000
0100
1000
0000
0001
1000
0000
0010
0000
0100
0000
0010
0000
1000
0000
,
1010
0000
1000
0000
0001
1000
0001
0000
1000
0001
1000
0000
0001
0000
0010
0000
,
0011
0000
0010
0000
0001
0010
0001
0000
0010
0001
0010
0000
0100
0000
1000
0000
,
1100
0100
0010
0001
0011
0010
0100
1000
,
0001
0100
0010
1000
0010
0001
0010
1000
,
1010
0000
1000
0000
0010
1000
0010
0000
1000
0010
1000
0000
0010
0000
0100
0000
,
0110
0000
0100
0000
0010
0100
0010
0000
0100
0010
0100
0000
0001
0000
0100
0000
,
0010
1000
0001
0010
1000
0010
0001
0010
,
0100
1000
0001
0100
1000
0100
0001
1000
,
1001
0000
0001
0000
1000
0001
1000
0000
0001
1000
0001
0000
1000
0000
0100
0000
,
1100
0000
0100
0000
1000
0100
1000
0000
0100
1000
0100
0000
0010
0000
0001
0000
,
0011
0010
0100
1000
1100
0100
0010
0001
,
1000
0010
0100
0001
0100
1000
0100
0001
,
0101
0000
0001
0000
0100
0001
0100
0000
0001
0100
0001
0000
0100
0000
0010
0000
,
0110
0000
0010
0000
0100
0010
0100
0000
0010
0100
0010
0000
1000
0000
0010
0000
,
0100
0001
1000
0100
0001
0100
1000
0100
,
0010
0001
1000
0010
0001
0010
1000
0001
,
1001
1000
0010
0200
0000
0000
0301
0000
,
1000
0100
0010
0002
0000
0000
0013
0000
,
0100
0010
0001
1000
0000
1000
0000
0001
,
0100
0020
0000
1000
1030
0000
0001
0000
,
1001
0001
0100
0020
0000
0000
1030
0000
,
0001
0010
0100
2000
0000
0000
3100
0000
,
0010
0100
1000
0001
0000
0001
0000
1000
,
0020
0000
0000
0130
0001
0000
1000
0000
,
1001
0000
0011
0000
0001
0001
1001
0000
,
0001
0000
1000
0000
0020
0000
1030
0010
1000
0000
0001
0000
1001
0000
0000
0000
,
1001
0000
1100
0000
1000
1000
1001
0000
,
1000
0000
0001
0000
0200
0000
0301
0100
0001
0000
1000
0000
0001
1000
0001
1000
,
1001
0000
1000
0000
0100
0000
1000
0100
1000
0100
1000
0100
1000
0000
0001
0000
,
1000
0000
0001
0000
0100
0000
0001
0100
0001
0100
0001
0100
0001
0000
0100
0000
,
0010
0000
1000
0000
0001
0000
1000
0001
1000
0001
1000
0001
1000
0000
0001
0000
,
1000
0100
1000
0000
0001
0010
0001
0000
1000
0000
1000
0000
0001
1000
0001
1000
,
1001
0000
0001
0000
1000
0000
0010
0000
0100
0001
0100
0010
1000
0001
1000
0100
,
0010
0000
0001
0000
1000
0000
0100
0000
0010
0001
0010
0100
1000
0001
0100
0010
,
1000
0000
1000
0000
0001
0000
0001
0000
2000
0000
0000
3020
0000
0000
0230
0000
,
0302
0000
0000
2003
0000
0000
3200
0000
0310
0000
0010
0000
0001
0000
0001
0000
,
0011
0000
0010
0000
0100
0000
1000
0000
0100
0010
0001
0010
0100
1000
0001
0100
,
0020
1030
0002
0013
0200
0310
0002
1003
,
0020
0000
0100
0000
1030
0001
0100
0010
,
1000
0000
0000
0001
0000
0000
0100
0000
0101
0000
0000
0000
1010
0000
0000
0000
,
1001
0000
1000
0000
0001
0000
0100
0000
0001
0100
0001
0100
0001
0000
0100
0010
,
1000
0000
1000
0000
0001
0000
0010
0000
0100
1000
0100
0010
0001
1000
0010
0100
,
0001
0000
0001
0000
1000
0000
1000
0000
0002
0000
0000
0203
0000
0300
0202
0303
,
0002
0000
0000
2003
0000
3000
2002
3003
1000
0000
1000
0000
0100
0000
0100
0000
,
1100
0000
0100
0000
0010
0000
0001
0000
0010
0100
1000
0100
0010
0001
1000
0100
,
0020
0000
0000
0000
0001
0000
0000
0000
1000
0000
0000
0000
0130
0000
0010
0100
,
0010
0000
0010
0100
0000
0010
0100
0000
0010
0000
0000
0010
0000
0000
0010
0000
,
0001
0000
0010
0001
0000
0010
0001
0000
0001
0000
0000
0001
0000
0000
0001
0000
,
1000
0000
0001
1000
0000
0001
1000
0000
1000
0000
0000
1000
0000
0000
1000
0000
,
0100
0000
1000
0100
0000
1000
0100
0000
0100
0000
0000
0100
0000
0000
0100
0000
,
1000
0100
1000
0100
0010
0100
0010
0100
1000
0100
1000
0100
0010
0100
0010
0100
,
0010
0001
0010
0001
0010
0100
0010
0100
0010
0001
0010
0001
0010
0100
0010
0100
,
1000
0100
1000
0100
0010
0100
0010
0100
0010
0001
0010
0001
0010
0100
0010
0100
,
0010
0001
1000
0001
1000
0001
1000
0001
1000
0001
4004
0000
0000
0000
0000
3003
,
2000
0000
0000
0000
,
0000
0000
0000
0000
,
0000
0000
0000
0000
,
3000
0000
0000
0000
;

//---------------dance-single - Medium Itsugo15----------------
#NOTES:
     dance-single:
     Medium Itsugo15:
     Medium:
     6:
     0.431,0.426,0.308,0.301,0.000:
0000
0000
0000
0000
,
2000
0000
0000
0000
,
3020
0000
0000
0000
,
0230
0000
0000
0000
,
0302
0000
0000
0000
,
1003
0001
1000
0001
,
1000
0100
0010
0001
,
0010
0100
0010
0100
,
0010
0001
1000
0100
,
0010
0000
0010
0000
0100
0010
0100
0000
,
1000
0000
1000
0000
0100
1000
0100
0000
,
0010
0000
0010
0000
0100
0010
0100
0000
,
1000
0000
0001
0000
0100
0010
1000
0001
,
1001
0000
0001
0000
0001
1000
0001
0000
,
0100
0000
0100
0000
0001
0100
0001
0000
,
1000
0000
1000
0000
0001
1000
0001
0000
,
0010
0000
0010
0000
0001
0010
0001
0000
,
0011
0000
0100
0000
0010
0100
0010
0000
,
0001
0000
0001
0000
0010
0001
0010
0000
,
0100
0000
0100
0000
0010
0100
0010
0000
,
0001
0000
1000
0000
0010
0100
0001
1000
,
1001
0000
1000
0000
1000
0001
1000
0000
,
0010
0000
0010
0000
1000
0010
1000
0000
,
0001
0000
0001
0000
1000
0001
1000
0000
,
0100
0000
0100
0000
1000
0100
1000
0000
,
1200
0010
1300
0001
,
0201
0010
0301
0100
,
0110
0010
1010
1000
,
1001
0001
0011
0010
,
0120
0001
0130
1000
,
1200
0010
1300
0001
,
1001
1000
1100
0100
,
0110
0010
0011
0001
,
0021
0100
0031
1000
,
1020
0100
1030
0010
,
0110
0100
0101
0001
,
1001
1000
1100
0100
,
0210
1000
0310
0001
,
0021
0100
0031
1000
,
1001
0001
0101
0100
,
0110
0010
1010
1000
,
2000
0000
0000
0001
0000
0000
3100
0000
,
0020
0000
0000
0002
0000
0033
0011
0000
,
0002
0000
0000
2000
0000
3003
0000
0001
,
1000
0001
0000
1000
1000
0000
1001
0000
,
0002
0000
0000
1000
0000
0000
0103
0000
,
0020
0000
0000
2000
0000
3030
1010
0000
,
2000
0000
0000
0002
0000
3003
1000
0000
,
0002
0000
0000
1003
0000
0000
0001
0000
,
1001
0000
0000
2000
0000
0000
0010
0000
,
3020
0000
0000
0130
0000
0000
0200
0000
,
0001
0000
0000
0002
0300
0000
0103
0001
,
0100
0010
1000
0002
,
1003
0000
1000
0000
1000
0000
0001
1000
,
0100
0000
0100
0000
0100
0000
0100
0010
,
0001
0001
0002
0000
,
2003
3100
0002
0103
,
1001
0000
0001
0000
1000
0000
0010
0100
,
0001
0100
0010
1000
,
0001
0010
0100
1000
,
0100
0100
0010
0010
,
0110
0000
0100
0000
1000
0000
0001
0010
,
0100
0100
1000
1000
,
0002
0000
0000
0000
0003
1000
0001
1000
,
0100
0000
0100
0000
2000
0000
0000
3000
,
1100
0000
0100
0000
0010
0000
0001
1000
,
0100
0010
0100
1000
,
0001
1000
0010
0100
,
0001
0100
0001
0000
1000
0000
0001
0000
,
1001
0000
1000
0000
0001
0000
0010
0100
,
2000
3200
0320
0032
,
1003
1000
0001
0001
,
0100
0100
0010
0010
,
1000
0001
0100
0010
,
1000
1000
0001
0010
,
0011
0001
0001
0001
,
1001
1000
1000
1000
,
1010
0100
0101
0001
,
2002
0000
0000
0000
0000
0000
0000
0003
,
3001
0000
0000
0000
;
