#TITLE:thirdeyeblind;
#SUBTITLE:ROLLING ★ STAR;
#ARTIST:岸田教団&THE明星ロケッツ;
#TITLETRANSLIT:thirdeyeblind;
#SUBTITLETRANSLIT:ROLLING ★ STAR;
#ARTISTTRANSLIT:Kishida Kyoudan & The Akeboshi Rockets;
#GENRE:Otaku's Dream 2nd Mix (Pad);
#CREDIT:Itsugo15 feat NinjaFoxX;
#BANNER:thirdeyeblind-bn.jpg;
#BACKGROUND:thirdeyeblind-bg.jpg;
#LYRICSPATH:thirdeyeblind.lrc;
#CDTITLE:Collab.png;
#MUSIC:thirdeyeblind.ogg;
#OFFSET:-0.510;
#SAMPLESTART:63.092;
#SAMPLELENGTH:25.500;
#SELECTABLE:YES;
#LISTSORT:;
#BPMS:0.000=78.800,8.000=157.030;
#STOPS:;
#TICKCOUNT:0.000=6;
#BGCHANGES:0.000=thirdeyeblind-bg17.jpg=1.000=1=1=0,
8.000=thirdeyeblind-bg7.jpg=1.000=1=1=0,
24.000=thirdeyeblind-bg9.jpg=1.000=1=1=0,
40.000=thirdeyeblind-bg12.jpg=1.000=1=1=0,
56.000=thirdeyeblind-bg3.jpg=1.000=0=1=0,
60.000=thirdeyeblind-bg8.jpg=1.000=1=1=0,
76.000=thirdeyeblind-bg13.jpg=1.000=1=1=0,
92.000=thirdeyeblind-bg15.jpg=1.000=1=1=0,
108.000=thirdeyeblind-bg16.jpg=1.000=1=1=0,
124.000=thirdeyeblind-bg5.jpg=1.000=1=1=0,
156.000=thirdeyeblind-bg6.jpg=1.000=1=1=0,
188.000=thirdeyeblind-bg14.jpg=1.000=1=1=0,
220.000=thirdeyeblind-bg10.jpg=1.000=1=1=0,
236.000=thirdeyeblind-bg4.jpg=1.000=1=1=0,
252.000=thirdeyeblind-bg11.jpg=1.000=1=1=0,
268.000=thirdeyeblind-bg2.jpg=1.000=1=1=0,
99999=-nosongbg-=1.000=0=0=0 // don't automatically add -songbackground-
;
#KEYSOUNDS:;
#ATTACKS:;

//---------------dance-single - ----------------
#NOTES:
     dance-single:
     :
     Challenge:
     10:
     0.623,0.752,0.192,0.157,0.650:
0000
0000
0000
0000
,
0000
0000
0000
0000
,
0001
1000
0001
0000
1000
0000
0010
1000
0010
0000
0100
0000
0001
0000
1000
0000
,
0010
1000
0010
0100
0001
0010
0001
0010
,
0001
1000
0001
0000
0100
0000
0010
0100
0010
0000
0100
0000
0001
0000
0010
0000
,
0100
0000
0000
0000
1000
0000
0001
0000
1000
0100
1000
0100
1000
0100
1000
0100
,
1000
0000
0010
1000
0000
0001
0100
0010
,
0000
0000
0100
0000
0010
0000
0000
0000
1000
0010
0000
0000
1000
0000
0000
0000
,
1001
0000
1000
0100
0000
1000
0000
0001
,
0000
0000
0100
0000
0000
0000
0010
0000
0000
0000
1000
0100
1000
0100
1000
0100
,
1000
0000
0010
1000
0000
0010
1000
0001
,
0000
0000
1000
0000
0010
0000
0000
0000
1000
0010
0000
0000
0100
0000
0000
0000
,
0010
0000
1000
0100
0000
0010
0100
1000
,
0100
0010
0000
0010
0100
0000
0010
0001
0000
1000
0100
0000
0010
0001
1000
0100
,
M000
1000
1000
1000
,
1001
0000
0000
0000
1000
0000
1000
0100
0010
0000
0001
0000
0010
0000
0001
0000
,
0010
0001
0010
0100
0010
0000
0001
0100
,
0001
0000
0100
0000
0010
0000
0100
0000
0010
0000
0000
0100
0000
0000
0010
0000
,
0100
0000
0000
0000
0001
0000
0010
0001
0010
0000
0100
1000
0100
0000
0000
0000
,
1100
0000
0000
0000
1000
0000
0100
0010
0100
0000
0010
0000
0001
0000
0010
0000
,
0100
0010
0100
0010
0001
0000
1000
0100
,
1100
0100
0110
0010
0011
0010
0020
0000
,
0130
1000
0100
0000
0000
0000
1000
0010
1000
0000
0000
0000
0001
0000
0000
0000
,
2001
0000
0000
0000
,
3010
0000
0000
0000
0000
0000
0000
1000
0000
0000
0000
0010
0000
0000
0000
1000
0000
0000
0000
0010
0000
0000
0000
0100
0000
0000
0000
0000
0000
0000
0000
0001
0000
0000
0000
0010
0000
0000
0000
0001
0000
0000
0000
0010
0000
0000
0000
0100
0000
0000
0000
0000
0000
0000
0000
1000
0000
0000
0000
0010
0000
0000
0000
0100
,
0000
0000
0000
0000
0000
0000
0000
0001
0000
0000
0000
0100
0000
0000
0000
0001
0000
0000
0000
0000
0000
0000
0000
0010
0000
0000
0000
0100
0000
0000
0000
1000
0000
0000
0000
0000
0000
0000
0000
0100
0000
0000
0000
0010
0000
0000
0000
0000
0000
0000
0000
0100
0000
0000
0000
0010
0000
0000
0000
0000
0000
0000
0000
0000
,
0002
0000
0000
0000
0203
0000
0000
0000
0320
0000
1030
0100
1000
0100
1000
0100
,
1000
0000
0000
0000
0000
0000
0000
0000
0100
0000
0000
0000
0000
0000
0000
0000
1000
0000
0000
0000
0000
0000
0000
0100
0000
0000
0000
1000
0000
0000
0000
0100
0000
0000
0000
1000
0000
0000
0000
0100
0000
0000
0000
0000
0000
0000
0000
0010
0000
0000
0000
0001
0000
0000
0000
0010
0000
0000
0000
0001
0000
0000
0000
0010
,
0000
0000
0000
0000
0000
0000
0000
0100
0000
0000
0000
0010
0000
0000
0000
0100
0000
0000
0000
0000
0000
0000
0000
0000
0010
0000
0000
0000
0100
0000
0000
0000
2000
0000
0000
0000
0000
0000
0000
0000
3100
0000
0000
0000
0010
0000
0000
0000
0100
0000
0000
0000
0010
0000
0000
0000
0001
0000
0000
0000
0010
0000
0000
0000
,
0001
0010
0110
0100
1100
0000
0011
0000
,
1100
1000
0100
0010
0001
0010
0001
0000
,
1000
0100
1000
0100
1000
0000
0000
0000
0010
0000
0100
0000
0000
0000
0001
0000
,
0100
0000
0000
0000
0010
0000
0000
1000
0000
0000
0010
0000
0100
0010
0100
0010
,
0100
0000
0000
0001
0000
0000
0010
0000
0000
0000
0000
0000
0001
0000
1000
0000
,
0100
0000
0000
0010
0000
0000
0001
0000
0000
0000
1000
0000
0100
1000
0100
1000
,
0100
0000
0000
1000
0000
0000
0100
0000
0000
0000
0000
0000
0010
0000
0000
0000
,
0001
0000
0000
0010
0000
0000
0100
0000
1000
0000
0010
0100
0000
0010
1000
0000
,
0001
0000
0000
0100
0000
0000
0010
0000
0000
0000
0000
0000
1000
0000
0000
0000
,
0100
0010
0000
0100
1000
0000
0010
0100
0000
0001
0100
0000
0001
0000
0000
0000
,
2001
0000
0010
3000
0200
0000
0310
0000
,
0200
0000
0000
0000
0010
0000
0300
0000
1000
0001
0000
0000
1000
0000
0010
0000
,
0100
0000
0001
0010
0100
0000
1000
0000
,
0020
0000
0000
0000
1030
0000
0000
0000
0002
1000
0000
0000
1000
0000
0003
0000
,
1000
0000
0000
0100
0000
0000
0010
0000
0000
0100
0010
0000
0001
0000
0000
0000
,
0100
0000
0000
0010
0000
0000
0100
0000
0000
0010
1000
0000
0010
0000
0000
0000
,
0100
0000
0000
0010
0000
0000
1000
0000
0000
0000
0000
0000
0010
0000
0000
0000
,
0110
0000
0000
1010
0000
0000
0101
0000
0010
1000
0010
1000
0010
1000
0010
1000
,
0002
0103
0001
0100
,
0020
0000
0000
0000
0100
0000
0000
0000
0130
0001
0000
0000
1000
0000
0100
0000
,
0010
0000
0100
1000
0001
0000
0100
0000
,
0020
0000
0000
0000
0100
0000
0000
0000
2030
0001
0000
0000
0010
0000
3000
0000
,
0001
0000
0000
0010
0000
0000
0100
0000
0000
0010
0001
0000
1000
0000
0000
0000
,
0010
0000
0000
0100
0000
0000
0010
0000
0000
0100
0010
0000
0100
0000
0000
0000
,
0001
0000
0000
1000
0000
0000
0001
0000
0000
0000
0000
0000
0100
0000
0000
0000
,
1010
0000
0000
0110
0000
0000
1010
0000
0101
0000
0000
0000
1010
0000
0000
0000
,
1001
0000
0000
0010
0100
0000
0000
0010
0100
0000
0001
0010
0100
1000
0100
0010
,
0001
0000
0000
0100
0010
0000
0000
0010
0100
0000
0010
0100
0010
1000
0010
0100
,
0010
0000
0000
0100
0010
0000
0000
0100
0010
0000
1000
0100
0010
0100
0010
0001
,
0100
0000
0000
0001
0010
0000
0000
0001
0000
0000
0100
0010
0000
1000
0010
0000
,
1001
0000
0000
0010
0100
0000
0000
0100
0010
0000
1000
0001
0010
0100
0010
0001
,
0010
0000
0000
0100
0010
0000
0000
0010
0100
0000
0010
0100
0010
0001
0010
0100
,
1000
0000
0000
0010
0100
0000
0000
0010
0100
0000
0010
0100
0010
1000
0010
0100
,
0001
1000
0000
0010
0100
0000
0001
1000
0000
0010
0100
0000
0001
0010
0100
0010
,
0002
0000
0000
0000
,
1003
0000
0000
0000
0000
0000
0000
0000
0000
0000
0000
0000
0000
0000
0000
0000
0000
0000
0000
0000
0000
0000
0000
0000
0000
0000
0000
0000
0000
0000
0000
0000
0000
0000
0000
0000
0000
0100
0000
0000
0000
0000
0000
0000
0000
0000
0000
0000
0000
0000
0000
0000
0000
0000
0000
0000
0000
0000
0000
0000
0000
0000
0000
0000
0000
0000
0000
0000
0000
0000
0000
0000
0000
1000
0000
0000
0000
0000
0000
0000
0000
0000
0000
0000
0000
0000
0000
0000
0000
0000
0000
0000
0000
0000
0000
0000
0000
0000
0000
0000
0000
0000
0000
0000
0000
0000
0000
0000
0000
0000
0000
0000
0000
0000
0000
0000
0000
0000
0000
0000
2000
0000
0000
0000
0000
0000
0000
0000
0000
0000
0000
0000
0000
0000
0000
0000
0000
0000
0000
0000
0000
0000
0000
0000
0000
0000
0000
0000
0000
0000
0000
0000
0000
0000
0000
0000
0000
0000
0000
0000
0000
0000
0000
0000
0000
0000
0000
0000
0000
0000
0000
0000
0000
0000
0000
0000
0000
0000
0000
0000
0000
0000
0000
0000
0000
0000
0000
0000
0000
0000
0000
0000
,
0000
0000
0000
0000
0000
0002
0000
0000
,
0000
0000
0000
0000
,
0000
0000
0000
0000
,
0000
0000
0000
0000
,
3003
0000
0000
0000
;

//---------------dance-single - Itsugo----------------
#NOTES:
     dance-single:
     Itsugo:
     Beginner:
     2:
     0.105,0.143,0.070,0.061,0.000:
0000
0000
0000
0000
,
0000
0000
0000
0000
,
0110
0000
0000
0000
,
0010
0000
0000
0000
,
0100
0000
0000
0000
,
1000
0000
0000
0000
,
1100
0000
0000
0000
,
1000
0000
0000
0000
,
0001
0000
0000
0000
,
0100
0000
0000
0000
,
0101
0000
0000
0000
,
0100
0000
0000
0000
,
0010
0000
0000
0000
,
1000
0000
0000
0000
,
1001
0000
0000
0000
,
1000
0000
0000
0000
,
0100
0000
0000
0000
,
0010
0000
0000
0000
,
0001
0000
0000
0000
,
0011
0000
0000
0000
,
0010
0000
0000
0000
,
0100
0000
1000
0000
,
0002
0000
0003
0000
,
1001
0000
0000
0000
,
1000
0000
0000
0000
,
1000
0000
0010
0000
,
0100
0000
0000
0000
,
0100
0000
0000
0000
,
0001
0000
0000
0000
,
1000
0000
0100
0000
,
0020
0000
0000
0000
,
0130
0000
0000
0000
,
1000
0000
0000
0000
,
1000
0000
0000
0000
,
0001
0000
0000
0000
,
1001
0000
0000
0000
,
0001
0000
0000
0000
,
0100
0000
0000
0000
,
0010
0000
0000
0000
,
2000
0000
3000
0000
,
0002
0000
0003
0000
,
0010
0000
0100
0000
,
1000
0000
0000
0000
,
0100
0000
0000
0000
,
0010
0000
0000
0000
,
0001
0000
0000
0000
,
1000
0000
0000
0000
,
0002
0000
0003
0000
,
2000
0000
3000
0000
,
0010
0000
0100
0000
,
0001
0000
0000
0000
,
0100
0000
0000
0000
,
0010
0000
0000
0000
,
1000
0000
0000
0000
,
0001
0000
0000
0000
,
1001
0000
0000
0000
,
1000
0000
0000
0000
,
0010
0000
0000
0000
,
0100
0000
0001
0000
,
0100
0000
0000
0000
,
0010
0000
0000
0000
,
1000
0000
0000
0000
,
0001
0000
0010
0000
,
0200
0000
0000
0000
,
0000
0000
0000
0000
,
0000
0000
0000
0000
0000
0300
0000
0000
;

//---------------dance-single - Itsugo----------------
#NOTES:
     dance-single:
     Itsugo:
     Easy:
     4:
     0.191,0.237,0.078,0.174,0.000:
0000
0000
0000
0000
,
0000
0000
0000
0000
,
1000
0000
0000
0000
,
1000
0000
0000
0000
,
0010
0000
0000
0000
,
0020
0000
0000
0000
,
0130
0000
0001
0000
,
1000
0000
0100
0000
,
0100
0000
1000
0000
,
0010
0000
0100
0000
,
0100
0000
0001
0000
,
0010
0000
0100
0000
,
0100
0000
0010
0000
,
0001
0000
1000
0000
,
1001
0000
0000
0000
,
1000
0000
0010
0000
,
1000
0000
0000
0000
0200
0000
0000
0300
,
0010
0000
0001
0000
,
0100
0000
0000
0000
0002
0000
0000
0003
,
1000
0000
0100
0000
,
0010
0000
0001
0000
,
1001
0000
1000
0000
,
0020
0000
0000
0000
,
0130
0000
0001
0000
,
1000
0000
0100
0000
,
0010
0000
0100
0000
,
1000
0000
0002
0000
,
0103
0000
0010
0000
,
1000
0000
0100
0000
,
1100
0000
1000
0000
,
1001
0000
0001
0000
,
0200
0000
0000
0000
,
0320
0000
0000
0000
,
2030
0000
0000
0000
,
3002
0000
0000
0000
,
0023
0000
0000
0000
,
0230
0000
0000
0000
,
2300
0000
0000
0000
,
3001
0000
1000
0000
,
1001
0000
0001
0000
,
0101
0000
0100
0000
,
0010
0000
1000
0000
,
0200
0000
0310
0000
,
0001
0000
0001
0000
,
1000
0000
1000
0000
,
0010
0000
0100
0000
,
0002
0000
2003
0000
,
3100
0000
0010
0000
,
0001
0000
0001
0000
,
1000
0000
0010
0000
,
0100
0000
0001
0000
,
1001
0000
1000
0000
,
1100
0000
0100
0000
,
0010
0000
0001
0000
,
2000
0000
0000
0000
3020
0000
0000
0030
,
0100
0000
0100
0001
,
1000
0000
0100
0010
,
0001
0000
1000
0010
,
0100
0000
0100
0010
,
1000
0000
0100
0010
,
0001
0000
0010
0100
,
1000
0000
0001
0100
,
0010
1000
0100
0010
,
0002
0000
0000
0000
0000
0000
0000
0003
,
1000
0010
0100
0001
,
0000
0000
0000
0000
0000
2002
0000
0000
,
0000
0000
0000
0000
,
0000
0000
0000
0000
,
3003
0000
0000
0000
;

//---------------dance-single - Itsugo----------------
#NOTES:
     dance-single:
     Itsugo:
     Medium:
     7:
     0.467,0.489,0.305,0.113,0.009:
0000
0000
0000
0000
,
0000
0000
0000
0000
,
1001
0001
0001
0001
,
1001
1000
1000
1000
,
1001
0010
1000
0100
,
0020
0000
0000
0000
0032
0000
0000
0003
,
1001
0000
0001
0100
0000
0010
0000
1000
,
0000
0100
1000
0000
1100
0000
1000
0000
,
0001
0000
0100
0001
0000
0010
0000
0010
,
0000
0100
0000
1000
0000
0001
0100
0000
,
0110
0000
0010
1000
0000
1000
0000
0100
,
0000
0010
0100
0000
1000
0000
1001
0000
,
0100
0000
0001
0010
0000
0100
0000
1000
,
0000
0010
0100
0010
0000
1000
0100
0010
,
0002
0000
0000
0003
,
1001
0000
0001
0000
0010
0001
0010
0001
,
0010
0100
0010
0100
2000
0000
3000
1000
,
0001
0000
0100
0000
0010
0000
1000
0000
0100
0000
0000
0100
0000
0000
0010
0000
,
0002
0000
0003
0100
0010
1000
0010
0000
,
0010
0000
0100
0001
0010
0100
1000
0100
,
0010
0001
0100
0010
2000
0000
3000
0000
,
1010
1001
0011
0110
,
1100
0000
0000
0101
0000
0000
1001
0000
,
1000
0000
0100
0000
0010
0001
0100
0010
,
1000
0000
1000
0010
0100
0000
0100
0001
,
0010
0100
1000
0100
0010
0000
0001
0100
,
0010
0000
1000
0010
0100
0000
0001
0000
,
1001
0000
0001
0010
0100
1000
0001
0100
,
0010
1000
0100
0010
0001
0000
1001
0001
,
0100
1001
0110
1100
,
1010
0000
0100
0001
0000
0010
0100
0000
,
2100
0000
0010
0000
0100
0001
0000
0100
,
0010
0000
3001
0100
0000
0010
0100
0000
,
0002
0000
0010
0100
0000
1000
0000
1003
,
0100
0000
0010
0100
0000
0001
1000
0010
,
1000
0000
0010
0100
0000
0010
0100
0000
,
0001
0000
0010
0100
0000
0010
0100
0000
,
1100
0000
1000
0100
0000
0010
0001
0000
,
0001
0100
0010
0100
0010
1000
1001
0000
,
1001
0000
1000
0100
0010
0000
0001
0000
,
0011
0000
0010
0100
0010
0100
0010
0100
,
1000
0000
0001
0100
0010
0000
1010
0000
,
1001
0000
0001
1000
0001
1000
0001
1000
,
0100
0000
0100
0010
0001
0000
0011
0000
,
0001
0000
1000
0010
0100
0000
0110
0000
,
0100
0000
0001
0010
0000
0100
0010
0000
,
0011
0000
0001
1000
0010
0100
0001
0010
,
0100
0000
0100
0010
0001
0000
1000
0000
,
1002
0000
1000
0000
0100
0003
0100
0010
,
1000
0000
0100
0010
0001
0000
0010
0000
,
2100
0000
0010
0000
0001
3000
0100
0000
,
0010
0000
0001
0100
0000
0010
1000
0000
,
1010
0000
0001
0010
0000
0100
1000
0000
,
0010
0100
0000
0001
0000
0001
0010
0000
,
0110
0000
0100
1000
0010
0000
0100
0000
,
0001
0000
0010
0000
0100
1000
0100
0010
,
0001
0000
1000
0000
0010
0100
0001
0010
,
0100
0000
0010
0000
0001
1000
0010
0100
,
0001
0000
0100
0000
0010
0100
0001
1000
,
0100
0000
0010
0000
0001
1000
0010
0100
,
0001
0000
0100
0000
1000
0100
0010
1000
,
0001
0000
0010
0000
0100
1000
0010
0100
,
0001
0010
0100
1000
0001
1000
0010
0100
,
0002
0000
0000
0000
,
0013
0000
0000
0100
0000
0000
1000
0000
0000
0000
0002
0000
0000
0000
0000
0000
,
0000
0000
0000
0400
,
0303
0000
0000
0000
;

//---------------dance-single - Itsugo----------------
#NOTES:
     dance-single:
     Itsugo:
     Hard:
     9:
     0.612,0.688,0.471,0.235,0.187: // measure 1
0000
0000
0000
0000
,  // measure 2
0000
0000
0000
0000
,  // measure 3
1001
0001
1000
0001
,  // measure 4
1000
0010
0100
0001
,  // measure 5
0011
0010
0100
1000
,  // measure 6
2002
0000
0000
3003
0202
0000
0000
0303
,  // measure 7
0100
0000
0010
1000
0000
0100
0000
0010
,  // measure 8
0000
0100
1000
0000
1100
0000
0101
0000
,  // measure 9
0001
0000
1000
0100
0000
0010
0000
0100
,  // measure 10
0000
0000
1000
0000
0001
0000
0100
0000
0010
0100
0010
0100
0010
0100
0010
0100
,  // measure 11
0010
0000
1000
0100
0000
0010
0000
0100
,  // measure 12
0000
1000
0001
0000
0101
0000
0110
0000
,  // measure 13
0010
0000
1000
0100
0000
0010
0000
0100
,  // measure 14
0000
1000
0001
0100
0000
0010
1000
0100
,  // measure 15
0020
0000
0000
0030
,  // measure 16
1001
0000
0001
0000
0100
0010
1000
0100
,  // measure 17
0010
1000
0010
0100
1000
0000
0001
0000
,  // measure 18
0101
0000
1001
0001
0010
0100
1000
0001
,  // measure 19
0200
0000
0300
0000
0100
0000
0010
1000
0010
0000
1000
0001
2000
0000
0000
0000
,  // measure 20
3001
0000
0000
0000
0010
0000
0100
1000
0001
0000
0100
0000
0010
0000
1000
0000
,  // measure 21
0100
0010
0100
1000
0001
0000
0100
0010
,  // measure 22
1010
1000
1100
0100
0110
0010
0011
0001
,  // measure 23
1000
0001
1000
0000
0000
0000
0001
0100
0001
0000
0000
0000
1000
0000
0001
0000
,  // measure 24
0020
0000
0031
0000
0001
0100
0010
1000
,  // measure 25
0010
0001
1000
0100
0001
1000
0100
0010
,  // measure 26
1000
0010
0100
0010
0001
0010
0100
1000
,  // measure 27
0001
0000
0100
0000
0010
0000
1000
0000
0100
0000
0010
0100
0010
0100
0010
0100
,  // measure 28
0010
0000
0001
0100
0010
1000
0100
0010
,  // measure 29
1000
0000
0001
0000
1000
0000
0010
0000
0100
0000
1000
0001
1000
0001
1000
0001
,  // measure 30
0100
1010
0110
1001
,  // measure 31
0101
0100
0010
1010
1000
0100
1100
0000
,  // measure 32
0011
0000
0001
0100
0000
0010
1000
0100
,  // measure 33
0110
0000
1100
0001
0000
0101
0001
0010
,  // measure 34
1100
0000
0000
0101
0000
0000
0010
0000
0000
0000
1000
0000
0001
0000
0010
0000
,  // measure 35
0011
0000
0000
0100
0000
0000
1000
0000
0000
0000
1001
0000
0001
1000
0001
1000
,  // measure 36
0002
0000
1003
1100
0000
0100
0110
0000
,  // measure 37
0011
0000
0001
1001
0000
1000
1010
0100
,  // measure 38
0001
0000
0010
0100
0000
1000
0001
0000
,  // measure 39
1001
0000
0001
0000
0010
0000
0100
0000
0010
0000
0001
0000
2000
0000
0000
3000
,  // measure 40
1001
0010
0100
0001
0010
0000
0110
0000
,  // measure 41
0011
0000
1000
0010
0100
0001
0010
0100
,  // measure 42
0110
0000
0010
0001
0100
0000
0110
0000
,  // measure 43
2020
3030
1000
0100
0010
0100
1000
0010
,  // measure 44
0100
0000
1000
0200
0300
0010
2000
3000
,  // measure 45
1001
0000
0010
0200
0300
0010
0001
1000
,  // measure 46
0020
0030
0100
0002
0003
0001
1000
0100
,  // measure 47
1100
0000
0000
1001
0000
0000
0101
0000
1000
0010
1000
0010
1000
0010
1000
0010
,  // measure 48
2000
0000
3100
0010
0001
1000
1000
0001
,  // measure 49
1001
0000
1000
0100
0010
0001
1000
0010
,  // measure 50
0100
0000
0001
0010
0100
0000
0110
0000
,  // measure 51
1001
0000
1000
0010
0100
0001
0010
0100
,  // measure 52
0110
0000
0100
0020
0030
0001
2000
3000
,  // measure 53
0010
0000
0100
0002
0003
1000
0200
0300
,  // measure 54
1100
0000
0100
0010
0000
0010
0001
1000
,  // measure 55
1001
0000
0000
0110
0000
0000
0010
0000
1000
0000
0100
0000
0010
0000
0001
0000
,  // measure 56
1000
0000
0000
0000
1001
0000
0000
0000
1000
0000
0010
0100
0010
0000
1000
0000
,  // measure 57
0100
0000
0001
0000
0100
0000
1000
0000
0001
0000
0100
0001
0100
0000
0010
0000
,  // measure 58
1000
0000
0100
0000
0010
0000
0001
0000
1000
0000
0010
0100
0010
0000
0100
0000
,  // measure 59
0001
0000
1000
0000
0100
0000
0010
0001
0010
0000
0100
1000
0100
0000
1000
0000
,  // measure 60
0001
0000
0000
0000
1001
0000
0000
0000
0001
0000
0100
0010
0100
0000
0001
0000
,  // measure 61
0010
0000
1000
0000
0010
0000
0001
0000
1000
0000
0010
1000
0010
0000
0100
0000
,  // measure 62
0001
0000
0010
0000
0100
0000
1000
0000
0001
0000
0100
0010
0100
0000
0010
0000
,  // measure 63
1000
0001
0000
0010
0100
0000
0100
1000
0000
1000
0001
0010
0100
1000
0100
0010
,  // measure 64
0002
0000
0000
0000
,  // measure 65
2003
0000
0000
0000
0000
0000
0000
0000
0000
0000
0000
0000
3000
0020
0000
0000
0000
0000
0000
0000
0000
0000
0000
0000
0030
0200
0000
0000
0000
0000
0000
0000
0000
0000
0000
0000
0000
0000
0000
0000
0300
0002
0000
0000
0000
0000
0000
0000
0000
0000
0000
0000
0000
0000
0000
0000
0000
0000
0000
0000
0000
0000
0000
0000
,  // measure 66
0000
0000
0000
1003
;
