#TITLE:裏切りの夕焼け;
#SUBTITLE:デュラララ!!;
#ARTIST:THEATRE BROOK;
#TITLETRANSLIT:Uragiri no Yuuyake;
#SUBTITLETRANSLIT:Durarara!!;
#ARTISTTRANSLIT:Theatre Brook;
#GENRE:Otaku's Dream 2nd Mix (Pad);
#CREDIT:Itsugo15;
#BANNER:Uragiri no Yuuyake-VD2.avi;
#BACKGROUND:Uragiri no Yuuyake-bg.jpg;
#LYRICSPATH:Uragiri no Yuuyake.lrc;
#CDTITLE:Itsugo15 SimifileS.png;
#MUSIC:Uragiri no Yuuyake.ogg;
#OFFSET:1.102;
#SAMPLESTART:42.085;
#SAMPLELENGTH:30.000;
#SELECTABLE:YES;
#LISTSORT:;
#BPMS:0.000=151.050,232.000=302.100,240.000=151.050;
#STOPS:;
#TICKCOUNT:0.000=6;
#BGCHANGES:3.000=Uragiri no Yuuyake-VD1.avi=1.000=1=1=0,
173.000=Uragiri no Yuuyake-bg9.jpg=1.000=1=1=0,
180.000=Uragiri no Yuuyake-bg1.jpg=1.000=1=1=0,
188.000=Uragiri no Yuuyake-bg10.jpg=1.000=1=1=0,
195.500=Uragiri no Yuuyake-bg8.jpg=1.000=1=1=0,
204.500=Uragiri no Yuuyake-bg2.jpg=1.000=1=1=0,
220.000=Uragiri no Yuuyake-bg7.jpg=1.000=1=1=0,
228.000=Uragiri no Yuuyake-bg4.jpg=1.000=0=1=1,
229.000=Uragiri no Yuuyake-bg5.jpg=1.000=0=1=0,
230.000=Uragiri no Yuuyake-bg6.jpg=1.000=0=1=0,
231.000=Uragiri no Yuuyake-bg3.jpg=1.000=1=1=0,
240.000=Uragiri no Yuuyake-VD2.avi=1.000=1=1=0,
294.000=Uragiri no Yuuyake-VD2.avi=0.000=0=1=0,
99999=-nosongbg-=1.000=0=0=0 // don't automatically add -songbackground-
;
#KEYSOUNDS:;
#ATTACKS:;

//---------------dance-single - Itsugo----------------
#NOTES:
     dance-single:
     Itsugo:
     Beginner:
     3:
     0.209,0.235,0.073,0.131,0.000:
0000
0000
0000
0000
,
0000
0001
0000
0001
,
0000
0001
0000
0001
,
1000
0010
0000
0010
,
0000
0010
0000
0010
,
0100
0001
0000
0001
,
0000
0001
0000
0001
,
1000
0100
0000
0100
,
0000
0100
0000
0100
,
0010
0001
0000
0001
,
0000
0001
0000
0001
,
1000
0010
0000
0100
,
0000
0010
0000
1000
,
0000
0001
0000
0010
,
0000
0100
0000
1000
,
1100
0100
0000
0010
,
0000
0001
0000
1000
,
0000
0010
0000
0100
,
0000
0001
0001
0000
,
0101
0001
0000
1000
,
0000
0100
0000
0010
,
0000
0100
0000
1000
,
0000
0001
0000
0100
,
0000
0101
0000
0010
,
0000
1010
0000
1000
,
0000
0001
0000
0010
,
0000
0100
0000
0010
,
0110
0100
0000
1000
,
0000
0001
0000
0100
,
0000
0010
0000
0100
,
0000
0001
0000
1000
,
0000
0100
0000
1100
,
0000
0010
0000
0011
,
0000
0001
0000
1000
,
0000
0010
0020
0000
,
0130
0001
0000
1000
,
0000
0100
0000
0010
,
0000
0100
0000
1000
,
0000
0001
0000
0010
,
0000
0100
0000
0010
,
0000
0001
0000
1000
,
1001
0001
0000
1000
,
0000
0001
0000
0001
,
1000
0020
0030
0020
,
0030
0020
0030
0100
,
0001
2000
3000
2000
,
3000
2000
3000
1000
,
0001
0020
0030
0020
,
0030
0020
0030
0010
,
0001
0200
0300
0200
,
0300
0200
0300
0020
,
1030
0001
0000
1000
,
0000
0100
0000
0010
,
0000
0100
0000
1000
,
0000
0001
0000
1000
,
0000
0001
0000
0100
,
0000
0010
0000
0100
,
0000
0000
0001
0000
0000
0000
1000
0100
,
0000
0000
0000
0000
,
0000
0000
0000
0000
,
1000
0100
0000
0010
,
0000
0001
0000
0100
,
0000
0010
0000
0100
,
0000
0001
0000
1000
,
1001
0001
0000
0010
,
0000
0100
0000
1000
,
0000
0001
0000
1000
,
0000
0010
0020
0000
,
0200
0000
0000
0000
,
0000
0000
0000
0030
,
0301
0000
1000
0000
,
0100
0000
0010
0000
,
0001
0000
0000
0000
;

//---------------dance-single - Itsugo----------------
#NOTES:
     dance-single:
     Itsugo:
     Easy:
     4:
     0.204,0.209,0.041,0.090,0.000:
0000
0000
0000
0000
,
0000
0001
0000
1000
,
0000
0001
0000
1000
,
0010
0100
0000
0001
,
0000
0100
0000
0001
,
1000
0010
0000
1000
,
0000
0010
0000
1000
,
0001
0010
0000
0001
,
0000
0010
0000
0001
,
1000
0100
0000
1000
,
0000
0100
0000
1000
,
0100
0010
0000
0001
,
0000
1000
0000
0010
,
0100
0001
0000
0100
,
0000
0010
0000
1000
,
0001
0010
0000
0100
,
0000
0010
0000
0001
,
1000
0010
0000
0100
,
0000
0010
1000
0000
,
1010
1000
0000
0001
,
0000
0010
0000
0010
,
0000
0001
0000
1000
,
0000
0100
0000
0100
,
0000
1100
0000
0011
,
0000
0101
0000
1010
,
0000
1000
0000
0001
,
0000
0010
0000
0200
,
1300
0100
0000
0010
,
0000
0100
0000
1000
,
0000
0001
0000
0100
,
0000
0010
0000
1000
,
0000
0001
0000
0010
,
0000
0100
0000
1000
,
0000
0100
0000
0010
,
0000
0002
2000
3000
,
1003
0010
0000
0100
,
0000
0001
0000
0100
,
0000
0010
0000
1000
,
0000
0100
0000
0010
,
0000
0001
0000
0010
,
0000
0100
0000
1000
,
0001
0001
0000
0001
,
1000
1000
0000
0010
,
0010
0200
0000
0001
,
0000
0001
0000
0302
,
0000
1000
0000
1000
,
0000
1000
0000
2003
,
0000
0100
0000
0100
,
0000
0100
0000
3200
,
0000
0010
0000
0010
,
0000
0010
0000
0310
,
0000
0010
0000
0001
,
0000
0100
0000
0001
,
0000
0010
0000
0100
,
0000
1000
0000
0010
,
1000
1000
0000
0001
,
0100
0100
0000
0010
,
0010
0000
1000
0000
0000
0000
0001
2000
,
0000
0000
0000
0000
,
0000
0000
0000
0000
,
3001
0010
0000
0100
,
0000
0010
0000
0001
,
0000
1000
0000
0010
,
0000
0100
0000
0010
,
0000
1000
0000
0100
,
0000
0010
0000
0001
,
0000
0100
0000
0010
,
0000
1000
2000
0000
,
3002
1000
0000
1000
,
0000
1000
0000
1000
,
0000
1000
0000
1000
,
0000
1000
0000
1000
,
2000
0000
0000
0000
,
3003
0000
0000
0000
;

//---------------dance-single - Itsugo----------------
#NOTES:
     dance-single:
     Itsugo:
     Challenge:
     11:
     0.766,0.904,0.571,0.588,0.069: // measure 1
0000
0000
0000
0000
,  // measure 2
1000
0001
0011
0001
1000
0001
0011
0001
,  // measure 3
1000
0001
0011
0001
1000
0001
0011
0002
,  // measure 4
2003
3000
1100
1000
0001
1000
1100
1000
,  // measure 5
0001
1000
1100
1000
0001
1000
1100
2000
,  // measure 6
3020
0030
1010
1000
0001
1000
1010
1000
,  // measure 7
0001
1000
1010
1000
0001
1000
1010
2000
,  // measure 8
3002
0003
0011
0001
1000
0001
0011
0001
,  // measure 9
1000
0001
0011
0001
1000
0001
0011
0002
,  // measure 10
0203
0300
0101
0001
0100
0010
0110
0100
,  // measure 11
0010
0000
1000
0000
1010
0000
0010
0000
1000
0000
0001
0000
0010
0100
1000
0000
,  // measure 12
2200
3300
0000
0000
0022
0000
0033
0000
0202
0000
0303
0000
0101
0000
0001
0000
,  // measure 13
1000
0001
1001
1000
0100
1000
1100
1000
,  // measure 14
0010
0100
1000
0100
0001
1000
0100
0010
,  // measure 15
0001
0100
0010
0001
0010
1000
0001
0010
,  // measure 16
0022
0033
0000
0000
2200
0000
3300
0000
2020
0000
3030
0000
1010
0000
1000
0000
,  // measure 17
0001
1000
1001
0001
0010
0001
0011
0001
,  // measure 18
0100
0010
0001
0010
1000
0001
0010
0100
,  // measure 19
1000
1100
1001
0202
0000
0000
0303
0000
,  // measure 20
0101
0001
1000
0100
1100
1000
0100
0020
,  // measure 21
0001
0032
1000
1000
0100
0103
0010
1000
,  // measure 22
0100
0010
0001
1000
0010
0001
0010
2000
,  // measure 23
0001
0001
3100
0010
0001
0010
0100
1000
,  // measure 24
1100
1000
0001
1001
0001
0100
0010
0110
,  // measure 25
0000
0010
1000
0100
0000
0001
0100
0010
,  // measure 26
0001
1000
0010
0100
0002
0000
0103
0010
,  // measure 27
2000
0000
0010
0010
0001
3001
0100
0010
,  // measure 28
1010
1000
0001
0010
0011
0001
0010
0200
,  // measure 29
1000
2300
0001
0001
0010
3010
0100
0001
,  // measure 30
0010
0100
1000
0001
0100
1000
0100
0002
,  // measure 31
1000
1000
0013
0100
1000
0100
0010
0001
,  // measure 32
0011
0001
1000
1001
1000
0010
0100
0110
,  // measure 33
0000
0100
0001
0010
0000
1000
0010
0100
,  // measure 34
1000
0001
0100
0010
2000
0000
3010
0100
,  // measure 35
0002
0000
2003
0200
0000
0000
0000
3300
,  // measure 36
1100
0000
1000
0100
0010
0100
0001
0100
,  // measure 37
0010
0100
1000
0001
0100
0010
1000
0001
,  // measure 38
0020
0000
0130
1000
1100
0000
1001
0000
,  // measure 39
0101
0100
0010
1000
1010
0000
1001
0000
,  // measure 40
0011
0000
0001
0010
0100
0010
1000
0010
,  // measure 41
0100
0010
0001
1000
0010
0100
0001
1000
,  // measure 42
0100
1000
0100
0000
1000
0000
0001
0000
0100
0000
0010
0000
0100
0000
0001
0000
,  // measure 43
0100
0001
0100
0000
0010
0000
1000
0000
0001
1000
0100
1000
0010
0100
0001
0010
,  // measure 44
0002
0000
0000
0000
1003
0000
0010
0100
0001
0000
1000
0000
0100
0000
0010
0001
,  // measure 45
1000
0000
0010
0000
0100
0000
0001
1000
0100
0000
0010
0000
0001
0000
0100
0000
,  // measure 46
1000
1000
0100
0100
0001
0001
0010
2000
,  // measure 47
0000
3010
0001
2000
0040
0000
0000
3030
,  // measure 48
0101
0002
0203
0302
2003
0000
3100
0010
,  // measure 49
0002
0203
2300
3200
0000
0301
1000
1100
,  // measure 50
0000
0100
0010
0011
0000
0001
1000
1010
,  // measure 51
0010
0000
0100
0001
1000
0000
0100
1000
0001
0000
0010
0001
1000
0000
0010
0100
,  // measure 52
0001
2000
0000
3010
0200
0000
0301
0010
,  // measure 53
2000
0000
3020
0000
0032
0000
0103
0010
2000
0000
3100
0000
0001
0000
0100
0000
,  // measure 54
0010
0000
0000
0000
0002
0000
0000
0003
0002
0000
0000
0000
2003
0000
0000
0000
3020
0000
0000
0000
0230
0000
0000
0000
0302
0000
0000
0000
2003
0000
0000
0000
,  // measure 55
3010
0000
0100
0001
1000
0000
1000
0000
0100
0000
0100
0000
0010
0000
0010
0000
,  // measure 56
0001
1000
1001
0001
2000
0001
3001
1000
,  // measure 57
0002
1000
0103
0010
1000
0100
0001
0100
,  // measure 58
0110
0010
0011
0001
1001
1000
1010
0220
,  // measure 59
0000
0000
0000
0000
,  // measure 60
0000
0000
0000
0000
,  // measure 61
M33M
0000
0001
0010
0011
0001
0010
0200
,  // measure 62
1000
2300
0001
0001
0010
3010
0100
0001
,  // measure 63
0010
0100
1000
0001
0100
1000
0100
0002
,  // measure 64
1000
1000
0013
0100
1000
0100
0010
0001
,  // measure 65
0011
0001
1000
1001
1000
0010
0100
0110
,  // measure 66
0000
0100
0001
0010
0000
1000
0010
0100
,  // measure 67
1000
0001
0100
0010
2000
0000
3010
0100
,  // measure 68
0002
0000
1003
0200
0000
0000
0000
0300
,  // measure 69
1000
0100
0010
0001
1000
0100
0010
0001
,  // measure 70
1000
0010
0100
0001
1000
0010
0100
0001
,  // measure 71
1000
0100
0001
0100
1000
0001
0010
1000
,  // measure 72
0010
0011
0001
1001
1000
1010
0010
0110
,  // measure 73
0202
0000
0000
0000
,  // measure 74
0000
0000
0000
0000
,  // measure 75
0000
0000
0000
0000
,  // measure 76
0000
0000
0000
0000
,  // measure 77
0000
0000
0000
0000
0303
0M0M
M0M0
0000
0000
0000
0000
0000
0000
0000
0000
0000
;

//---------------dance-single - Itsugo----------------
#NOTES:
     dance-single:
     Itsugo:
     Medium:
     7:
     0.388,0.459,0.073,0.073,0.000:
0000
0000
0000
0000
,
0000
0001
0000
0001
,
0000
0001
0000
0001
,
1000
0001
0000
0001
,
0000
0001
0000
0001
,
0100
0010
0000
0010
,
0000
0010
0000
0010
,
1000
0100
0000
0100
,
0000
0100
0000
0100
,
1000
0001
0000
0001
,
0000
0001
0000
0001
,
0100
0010
1000
0100
,
0100
1000
0010
0100
,
0001
1000
0100
0001
,
0100
1000
0001
0010
,
0011
0001
0100
0100
,
0010
0010
1000
0100
,
0001
0100
1000
0010
,
0100
0000
0001
1000
0000
0000
0000
0000
,
1001
0000
0001
0000
0010
0100
0010
0000
,
0100
0000
1000
0000
0010
0000
0100
0001
,
0010
0000
0100
0000
1000
0000
0010
0100
,
0001
0000
1000
0100
0010
0000
0100
1000
,
0010
0000
0100
0000
0001
0000
1000
1100
,
0000
0000
0100
0000
0010
0000
0001
0100
,
0010
0000
1000
0010
0100
0000
0001
0010
,
0100
0000
1000
0001
0100
0001
0010
0001
,
1000
0000
1000
0010
0100
0001
1000
0100
,
0010
0000
0001
0000
0100
0000
0100
0010
,
1000
0000
0100
0000
0010
0000
0100
1000
,
0010
0000
0100
0000
0001
0000
0010
0100
,
0000
0010
0001
0000
0100
0010
1000
1010
,
0000
1000
0100
0000
0010
0000
0001
0000
,
0100
0010
1000
0000
0100
0000
0010
0001
,
1000
0010
0100
0002
0000
0000
0000
0000
,
1003
0100
0010
0001
,
0100
0010
1000
0010
,
0100
0110
0100
0001
,
1000
1001
1000
0100
,
0010
0100
0100
1000
,
1000
0001
0001
0100
,
0010
1000
0100
0001
,
0100
0000
1000
0000
0010
1000
0010
1000
,
0020
0000
0000
0000
0130
0100
0000
0000
,
0001
0001
0000
0000
1000
1000
0100
0010
,
0001
0000
0100
0000
0010
0000
1000
0100
,
0000
0010
0100
1000
0002
0000
0100
0000
,
1003
0010
0100
0001
0010
0000
0100
1000
,
0000
0100
0010
0001
0000
0100
0010
2000
,
0000
3010
0100
0002
0000
1003
0100
0010
,
0000
0100
1000
0001
0100
0010
1000
0100
,
0010
0100
0000
1000
0001
0000
0100
0010
,
0000
1000
0100
0010
0100
1000
0010
0000
,
0100
0001
1000
0100
0010
0000
0100
1000
,
0001
0100
0001
0010
0100
1000
0010
0100
,
0001
1000
0100
0000
1000
0010
0000
0100
,
0001
0000
0010
0100
0000
1000
0100
0000
,
0010
0000
0001
0000
1000
0000
0010
0200
,
0000
0000
0000
0000
,
0000
0000
0000
0000
,
0301
1000
0100
0010
,
0001
0011
0001
0100
,
0010
1000
0010
0100
,
0001
1000
0100
0010
,
0100
0000
1000
0000
0010
0100
0000
0101
,
0000
0001
0010
0000
0100
0000
1000
0000
,
1000
0100
0010
0001
0100
0000
0010
1000
,
0010
0100
0001
2000
0000
0000
0000
0000
,
3100
0010
0001
0100
,
0010
1000
0100
0010
,
0001
0100
0010
0100
,
0001
1000
0100
0010
,
0220
0000
0000
0000
,
0000
0000
0000
0000
,
0000
0000
0000
0000
,
0330
0000
0000
0000
;

//---------------dance-single - Itsugo----------------
#NOTES:
     dance-single:
     Itsugo:
     Hard:
     9:
     0.582,0.687,0.253,0.310,0.029:
0000
0000
0000
0000
,
1000
0001
1000
0001
,
1000
0000
0001
0000
1000
0000
0001
1000
,
0100
0000
0010
0000
0001
0000
0100
0010
,
1000
0000
0010
0100
0000
0001
0000
1000
,
0100
0000
0010
0100
0010
0000
0001
0000
,
0100
0010
1000
0200
0000
0000
0010
0300
,
1100
0000
1000
0001
0010
0000
0100
1000
,
0000
0010
0000
0100
0000
0100
0001
0010
,
0100
0000
1000
0100
0010
0001
0000
0010
,
0001
1000
0000
0010
0000
0100
0001
1000
,
0100
1100
0010
0011
,
0001
0000
0100
0010
1000
0000
0010
0000
,
0100
0001
1000
0100
0010
0100
1000
0010
,
0100
0001
0010
0100
1000
0000
0100
1000
,
1001
0000
0101
0000
1001
0000
1000
0100
,
0010
0000
0100
1000
0010
0100
0001
0000
,
0100
0000
0001
1000
0100
0000
0010
0100
,
1000
0010
0100
0002
0000
2003
0000
3000
,
1100
0000
0100
0000
0010
0001
0100
0010
,
2000
0000
0100
0000
0010
0000
3001
0100
,
0001
0000
0011
0000
0010
0100
1000
0200
,
0010
0000
1300
0000
0100
1000
0010
0200
,
0000
0301
0100
0010
0000
1000
0001
0012
,
0000
0103
0010
1000
0000
0100
0010
0001
,
0010
0100
1000
0010
0100
0000
0001
0100
,
0020
0000
1030
0001
0020
0000
0100
0000
,
0031
0000
0010
0100
1000
0010
0100
0001
,
2000
0000
0100
0000
3001
0010
0200
0000
,
2300
0000
3001
0100
0010
0100
0001
0020
,
0100
0000
0001
0030
1000
0100
0010
0001
,
0100
0010
1000
0001
0000
0010
0100
0110
,
0000
0100
1000
0010
0000
0100
0001
0000
,
0100
0010
1000
0001
0020
0000
0130
1000
,
0010
0000
0100
0002
0000
0000
0000
0000
,
0103
0000
0010
1000
0001
1000
0100
0010
,
0001
0010
0100
1000
0001
0100
0010
1000
,
0010
0000
0100
0000
0001
0010
0001
0100
,
0001
0000
0100
0000
0001
0000
1000
0010
,
1000
0000
0100
0010
0001
0010
0100
1000
,
0010
0100
1000
0100
0010
1000
0100
0010
,
0011
0010
0100
1000
0010
0100
0001
0101
,
0001
0000
1000
0000
0100
0000
0010
0000
0001
0010
0001
0010
0001
0010
0001
0010
,
0001
0000
0000
0000
0010
0000
0100
1000
0001
0000
1000
0000
0001
0000
1000
0100
,
0010
0000
0001
0000
1000
0000
0001
1000
0010
0000
0010
0000
0100
0000
0010
0000
,
1000
0001
0001
0100
0100
0010
1000
0200
,
0000
0310
0100
1000
0020
0000
0100
0000
,
0130
0001
1000
0100
0010
0000
0100
1000
,
0000
0001
0100
0010
0000
1000
0100
1100
,
0000
0100
0010
0110
0000
0010
0001
0011
,
0000
0001
0100
0010
1000
0010
0100
0001
,
1000
0100
0010
0100
2000
0000
3010
0200
,
0000
0301
1000
0100
0010
0001
0100
0000
,
0010
1000
0010
0100
0002
0000
0013
0100
,
1000
1000
0001
0100
0010
0010
1000
0001
,
1001
1000
0100
0000
0010
0100
0000
1000
,
0100
0000
0010
0001
0000
0010
0100
1000
,
1100
0100
0110
0001
0011
0001
1001
2002
,
0000
0000
0000
0000
,
0000
0000
0000
0000
0000
0000
0000
3003
,
1001
0000
0001
0100
0010
1000
0010
0100
,
0001
0010
1000
0010
0001
1000
0100
0010
,
0001
0100
0010
1000
0010
0100
0001
0010
,
0100
0001
0100
1000
0100
0010
0001
0011
,
0010
0001
0100
0010
1000
1010
1000
1001
,
0000
0001
0010
0100
1000
0001
0100
0000
,
0101
1000
0100
0010
0002
0000
0013
0100
,
2000
0000
3100
0020
0000
0000
0000
0000
,
0032
0023
2030
3200
,
0302
0023
2030
3200
,
0302
0023
0230
1300
,
1100
1001
0101
0110
,
2002
0000
0000
0000
,
0000
0000
0000
0000
,
0000
0000
0000
0000
,
0000
0000
0000
0000
,
0000
0000
3003
0000
;
