#TITLE:ロスタイムメモリー;
#SUBTITLE:メカクシティレコーズ;
#ARTIST:自然の敵P feat. じん;
#TITLETRANSLIT:Lost Time Memory;
#SUBTITLETRANSLIT:Mekaku City Records;
#ARTISTTRANSLIT:Shizen no Teki-P feat. IA;
#GENRE:Otaku's Dream 3rd Mix (Pad);
#CREDIT:Itsugo15;
#BANNER:Lost Time Memory bn.avi;
#BACKGROUND:Lost Time Memory-bg.jpg;
#LYRICSPATH:Lost Time Memory.lrc;
#CDTITLE:Itsugo15 SimifileS.png;
#MUSIC:Lost Time Memory.mp3;
#OFFSET:-0.410;
#SAMPLESTART:94.000;
#SAMPLELENGTH:30.000;
#SELECTABLE:YES;
#LISTSORT:;
#BPMS:0.000=105.000,60.000=210.000,406.500=52.500;
#STOPS:379.500=0.300
;
#TICKCOUNT:0.000=6;
#BGCHANGES:-0.850=Lost Time Memory 1.avi=1.000=1=1=0,
267.500=Lost Time Memory 2.avi=1.000=0=1=0,
417.250=Lost Time Memory 2.avi=0.000=0=1=0,
99999=-nosongbg-=1.000=0=0=0 // don't automatically add -songbackground-
;
#KEYSOUNDS:;
#ATTACKS:;

//---------------dance-single - Itsugo15----------------
#NOTES:
     dance-single:
     Itsugo15:
     Challenge:
     12:
     0.845,0.842,0.558,0.282,0.380: // measure 1
0000
0000
0000
0000
,  // measure 2
0000
0000
0000
0000
,  // measure 3
0000
0000
0000
0000
,  // measure 4
0000
0000
0000
0000
,  // measure 5
1000
0000
0010
0000
0100
0000
0001
1000
0001
0100
0001
1000
0001
0010
0000
0010
,  // measure 6
0100
0000
1000
0000
0001
0000
0100
0010
1000
0100
0000
0010
0000
0001
0000
1000
,  // measure 7
0010
0000
0100
0000
0001
0000
0100
1000
0100
0010
0100
0001
0000
1000
0100
0020
,  // measure 8
0000
0000
0030
0000
0002
0000
0000
0000
2003
0000
0000
0000
3020
0000
0030
0100
,  // measure 9
0000
0001
1000
0000
0100
0000
0010
0001
0000
0010
0100
1000
0100
0010
0000
0001
,  // measure 10
0000
1000
0010
0100
0001
0000
0100
0010
0000
0010
0000
0000
0000
1000
0100
0010
,  // measure 11
0000
0001
0000
0000
0010
0000
1000
0010
0000
0001
0000
1000
0010
0200
0000
0301
,  // measure 12
0000
0000
0100
0000
1000
0100
0001
1000
0000
1000
0000
0000
0000
0100
0010
0001
,  // measure 13
0000
0010
0000
0000
0100
0010
0100
1000
0000
0100
1000
0001
1000
0100
0000
1000
,  // measure 14
0000
0001
0100
0010
1000
0010
0100
0001
0000
1000
0000
0000
0100
0000
0010
0002
,  // measure 15
0000
0000
0000
0000
0013
0001
0010
0200
0000
0000
0000
0000
0000
0000
0000
0300
,  // measure 16
1100
0000
0100
1000
0001
0100
0010
1000
,  // measure 17
0100
0010
0001
0010
0100
0010
1000
0010
,  // measure 18
0002
0000
0013
0100
0010
0001
1000
0010
,  // measure 19
0100
0010
0001
0010
0100
0001
0101
0000
,  // measure 20
1001
0000
1000
0100
0010
0100
0001
0100
,  // measure 21
0010
0001
1000
0010
0100
0010
0001
0010
,  // measure 22
2000
0000
3001
0010
0100
1000
0010
0100
,  // measure 23
1000
1000
0100
0200
0000
0010
0310
1000
,  // measure 24
1010
0000
1000
0010
0100
0001
1000
0001
,  // measure 25
0010
0100
0001
1000
0010
0001
1000
0010
,  // measure 26
0200
0000
0301
1000
0001
0010
0100
0010
,  // measure 27
0001
0010
0001
1000
0001
1000
0010
1000
0010
0100
0010
0100
0001
0100
0001
1000
,  // measure 28
0100
0000
1000
0001
0100
0010
1000
0100
,  // measure 29
0010
0100
0001
0100
0010
0100
1000
0001
,  // measure 30
0020
0000
0130
1000
0001
0100
0010
1000
,  // measure 31
0010
0100
0001
0102
0000
1000
1003
0001
,  // measure 32
1001
0000
1000
0100
0010
0100
1000
0001
,  // measure 33
0100
0010
1000
0001
0010
0100
1000
0100
,  // measure 34
0010
0010
0001
1000
1000
0010
0100
0100
,  // measure 35
1000
0001
0001
0010
0100
0001
1000
0100
,  // measure 36
1100
0000
1000
0000
1001
0000
0001
0000
0100
0000
0001
0000
1000
0000
0001
0010
,  // measure 37
0001
0000
1000
0000
1001
0000
1000
0000
0010
0000
1000
0000
0001
0000
0100
0001
,  // measure 38
1000
0001
1001
0001
0100
0010
1000
0001
,  // measure 39
0010
0000
0001
0000
0010
0000
0100
0000
0000
0000
0000
0000
0000
0110
0000
0000
0000
0000
0000
0000
0000
1001
0000
0000
0000
0000
0000
0000
0001
0000
0000
0000
,  // measure 40
0101
0000
0001
0000
1000
0000
0100
0000
1000
0000
0001
0000
0010
0000
0001
1000
,  // measure 41
0010
0000
1000
0000
1010
0000
1000
0000
0001
0000
1000
0000
0100
0000
1000
0001
,  // measure 42
0100
0001
0101
0100
0001
0010
0001
1000
,  // measure 43
0001
0000
0000
0000
0000
0000
0000
0000
0100
0000
0000
0000
0001
0000
0000
0000
0010
0000
0000
0000
1000
0000
0000
000M
010M
0000
0000
M000
0000
0000
00M0
0000
M00M
0000
0000
00M0
0000
0000
0000
0000
1000
0000
0000
0000
0100
0000
0000
0000
1000
0000
0000
0000
0001
0000
0000
0000
0100
0000
0000
0000
0001
0000
0000
0000
,  // measure 44
0010
0000
0001
0000
1001
0000
1000
0000
0010
0000
1000
0000
0001
0000
1000
0100
,  // measure 45
1000
0000
0001
0000
1001
0000
0001
0000
0100
0000
0001
0000
1000
0000
0010
1000
,  // measure 46
0001
1000
1001
1000
0010
0100
0001
1000
,  // measure 47
0100
0000
1000
0000
0100
0000
0010
0000
0000
0000
0000
0000
0000
0110
0000
0000
0000
0000
0000
0000
0000
1001
0000
0000
0000
0000
0000
0000
1000
0000
0000
0000
,  // measure 48
1010
0000
1000
0000
0001
0000
0010
0000
0001
0000
1000
0000
0100
0000
1000
0001
,  // measure 49
0100
0000
0001
0000
0101
0000
0001
0000
1000
0000
0001
0000
0010
0000
0001
1000
,  // measure 50
0010
1000
1010
0010
1000
0100
1000
0001
,  // measure 51
1001
0000
0001
0000
0101
0000
1000
0000
1010
0000
0010
1000
0001
0000
2002
0000
,  // measure 52
3000
0000
1000
0003
1000
0000
0010
0000
1000
0000
0100
0000
0010
0000
0220
0000
,  // measure 53
0300
0000
0100
0030
0100
0000
0001
0000
0100
0000
1000
0000
0001
0000
2002
0000
,  // measure 54
0003
0000
0001
3000
0001
0000
0100
0000
0010
0000
0100
0000
0001
0000
0202
0000
,  // measure 55
0300
0103
0010
0220
0030
0310
1000
2020
,  // measure 56
0030
0000
0010
3000
0010
0000
0100
0000
0001
0000
0010
0000
0100
0000
0220
0000
,  // measure 57
0030
0000
0010
0300
0010
0000
1000
0000
0010
0000
0001
0000
1000
0000
2002
0000
,  // measure 58
3000
0000
1000
0003
1000
0000
0010
0000
0100
0000
0010
0000
1000
0000
2020
0000
,  // measure 59
0030
0000
3010
0000
0100
0000
0001
0010
0100
0000
1000
0000
0001
0000
1001
0000
,  // measure 60
0001
0100
0001
1000
0100
1000
0010
2020
,  // measure 61
3030
0010
0100
0001
1000
0100
0010
0220
,  // measure 62
0330
0100
1000
0100
0010
0001
1000
2002
,  // measure 63
3003
0001
1000
0100
0010
0001
0100
0101
,  // measure 64
0001
0100
1000
0100
0010
1000
0001
1001
,  // measure 65
1000
0100
0001
0100
0010
0001
0100
0101
,  // measure 66
0001
0100
1000
0100
0010
1000
0100
0020
,  // measure 67
0000
0000
0000
0000
0000
0000
0030
000M
0M00
00M0
M000
00M0
0M00
000M
00M0
0000
,  // measure 68
0110
0000
0011
0000
1001
0000
1000
0010
,  // measure 69
0000
1010
0000
0010
0100
0001
0000
1000
,  // measure 70
0100
0000
1100
0000
0100
0010
0000
0011
,  // measure 71
0000
0011
0000
1100
0000
1010
0000
0100
,  // measure 72
0001
0000
0101
0000
1001
0000
0001
0010
,  // measure 73
0000
0011
0000
1100
0000
0100
1000
0010
,  // measure 74
0100
0100
0001
1000
1000
0100
0010
0010
,  // measure 75
0001
1000
1000
0010
0100
0001
1000
0100
,  // measure 76
1100
0000
0011
0000
1001
0000
0001
0100
,  // measure 77
0000
0101
0000
0100
0010
1000
0000
0001
,  // measure 78
0010
0000
0011
0000
0010
0001
0000
1000
,  // measure 79
0000
1001
0000
0110
0000
1001
0000
0001
,  // measure 80
1000
0000
1100
0000
1000
0001
0000
0100
,  // measure 81
0000
0101
0000
1010
0000
0010
1000
0100
,  // measure 82
0010
0001
0010
0000
0001
0000
1000
0001
1000
0000
0010
0000
1000
0010
1000
0000
,  // measure 83
0001
0000
0100
0001
0100
0000
0001
0000
1000
0100
0010
0001
1000
0000
0001
0000
,  // measure 84
1001
0000
1100
0000
1000
0010
0000
1010
,  // measure 85
0000
0101
0000
0100
0001
0010
0100
1000
,  // measure 86
0100
0100
1000
0001
0001
0100
0010
0010
,  // measure 87
0001
0000
0010
0000
1000
0000
0100
0000
1000
0010
0100
0001
0010
0001
1000
0000
,  // measure 88
0010
0100
0001
1000
0100
0100
0010
0001
,  // measure 89
0100
0010
1000
1000
0001
0010
0100
0110
,  // measure 90
0000
0010
0001
1000
0010
0100
0000
0100
,  // measure 91
0001
1000
0000
1001
0000
0110
0000
1001
,  // measure 92
0000
1000
0100
1000
0010
0100
0001
0010
,  // measure 93
0001
0100
0001
0010
0001
0100
0010
1000
,  // measure 94
0100
0100
0010
0001
0001
1000
0010
0010
,  // measure 95
0100
0001
0001
0100
0010
1000
0001
0010
,  // measure 96
1001
1000
0010
0100
0001
0010
0100
1000
,  // measure 97
0010
0100
0001
1000
0100
1100
1000
0100
,  // measure 98
0010
0100
1000
0010
1000
0100
0010
0001
,  // measure 99
0011
0001
0100
0010
0100
0001
0101
0100
,  // measure 100
0001
1000
0010
0100
0010
1000
0100
0010
,  // measure 101
0110
0010
0011
0001
1001
1000
0010
0010
,  // measure 102
0100
0001
0001
1000
0100
2200
0000
0000
,  // measure 103
0000
0000
3300
0000
0000
0000
0000
1000
0000
0000
0010
0000
0000
0100
0000
0000
0000
0001
0000
0000
0000
0000
1000
0000
0000
0000
0000
0100
0000
0000
0000
0000
,  // measure 104
0010
0000
0000
0001
0000
0000
0000
2002
0000
0000
0000
0000
0000
0000
0000
0000
,  // measure 105
0000
0000
0000
0000
0000
0000
0000
0000
0000
0000
0000
0000
0000
0000
0000
0000
3003
0000
M00M
M00M
MMMM
0000
0000
0000
0000
0000
0000
0000
0000
0000
0000
0000
0000
0000
0000
0000
0000
0000
0000
0000
0000
0000
0000
0000
0000
0000
0000
0000
0000
0000
0000
0000
0000
0000
0000
0000
0000
0000
0000
0000
0000
0000
0000
0000
;

//---------------dance-single - Itsugo----------------
#NOTES:
     dance-single:
     Itsugo:
     Beginner:
     2:
     0.101,0.139,0.000,0.047,0.003:
0000
0000
0000
0000
,
0000
0000
0000
0000
,
0000
0000
0000
0000
,
0000
0000
0000
0000
,
0001
0000
0000
0000
,
0001
0000
0000
0000
,
1000
0000
0000
0000
,
1000
0000
0000
0000
,
0010
0000
0000
0000
,
0010
0000
0000
0000
,
0100
0000
0000
0000
,
0100
0000
0000
0000
,
0001
0000
0000
0000
,
0010
0000
0000
0000
,
0100
0000
0000
0000
,
1000
0000
0000
0000
,
0000
0000
0000
0000
,
1000
0000
0000
0000
,
0000
0000
0000
0000
,
0001
0000
0000
0000
,
0001
0000
0000
0000
,
0100
0000
0000
0000
,
0100
0000
0000
0000
,
0010
0000
0000
0000
,
0010
0000
0000
0000
,
1000
0000
0000
0000
,
2000
0000
0000
0000
,
3001
0000
0000
0000
,
0010
0000
0000
0000
,
0001
0000
0000
0000
,
1000
0000
0000
0000
,
0010
0000
0000
0000
,
1000
0000
0000
0000
,
0001
0000
0000
0000
,
0001
0000
0000
0000
,
1000
0000
0000
0000
,
1000
0000
0000
0000
,
0010
0000
0000
0000
,
0010
0000
0000
0000
,
0100
0000
0000
0000
,
0100
0000
0000
0000
,
0001
0000
0000
0000
,
0001
0000
0000
0000
,
0010
0000
0000
0000
,
0100
0000
0000
0000
,
1000
0000
0000
0000
,
0100
0000
0000
0000
,
0010
0000
0000
0000
,
0100
0000
0000
0000
,
1000
0000
0000
0000
,
0001
0000
0000
0000
,
0100
0000
0000
0000
,
0100
0000
0000
0000
,
0001
0000
0000
0000
,
0001
0000
0000
0000
,
1000
0000
0000
0000
,
1000
0000
0000
0000
,
0100
0000
0000
0000
,
0100
0000
0000
0000
,
0010
0000
0000
0000
,
0001
0000
0000
0000
,
1000
0000
0000
0000
,
0010
0000
0000
0000
,
0100
0000
0000
0000
,
0001
0000
0000
0000
,
0100
0000
0000
0000
,
0020
0000
0000
0000
,
1030
0000
0000
0000
,
1000
0000
0000
0000
,
0001
0000
0000
0000
,
0001
0000
0000
0000
,
0010
0000
0000
0000
,
0010
0000
0000
0000
,
0100
0000
0000
0000
,
0100
0000
0000
0000
,
1000
0000
0000
0000
,
1000
0000
0000
0000
,
0001
0000
0000
0000
,
0001
0000
0000
0000
,
0100
0000
0000
0000
,
0010
0000
0000
0000
,
2000
0000
0000
0000
,
3002
0000
0000
0000
,
0013
0000
0000
0000
,
0010
0000
0000
0000
,
0002
0000
0000
0000
,
2003
0000
0000
0000
,
3100
0000
0000
0000
,
0100
0000
0000
0000
,
1000
0000
0000
0000
,
0010
0000
0000
0000
,
0100
0000
0000
0000
,
0001
0000
0000
0000
,
1000
0000
0000
0000
,
0100
0000
0000
0000
,
1000
0000
0000
0000
,
0010
0000
0000
0000
,
0100
0000
0000
0000
,
0001
0000
0000
0000
,
1000
0000
0000
0000
,
0100
0000
0000
0000
,
1000
0000
0000
0000
0000
0020
0000
0000
,
0000
0000
0000
0000
,
0000
0000
0000
0000
0000
0000
0000
0130
0000
0000
0000
0000
0000
0000
0000
0000
;

//---------------dance-single - Itsugo----------------
#NOTES:
     dance-single:
     Itsugo:
     Easy:
     5:
     0.208,0.245,0.020,0.108,0.010:
0000
0000
0000
0000
,
0000
0000
0000
0000
,
0000
0000
0000
0000
,
0000
0000
0000
0000
,
1000
0000
0010
0000
,
0100
0000
0001
0000
,
0010
0000
0100
0000
,
1000
0000
0001
0000
,
1000
0000
0010
0000
,
1000
0000
0001
0000
,
0010
0000
0001
0000
,
0100
0000
0001
0000
,
1000
0000
0100
0000
,
1000
0000
0001
0000
,
0100
0000
0010
0000
,
2000
0000
0000
0000
,
0000
0000
0000
0000
,
3002
0000
0000
0000
,
0000
0000
0000
0000
,
0013
0000
0100
0000
,
1000
0000
0010
0000
,
0100
0000
0001
0000
,
1000
0000
0200
0000
,
1300
0000
0001
0000
,
0100
0000
0010
0000
,
1000
0000
0001
0000
,
0020
0000
0000
0000
,
0031
0000
1000
0000
,
0010
0000
0100
0000
,
0001
0000
1000
0000
,
0100
0000
2000
0000
,
3001
0000
0100
0000
,
0010
0000
1000
0000
,
0001
0000
0000
0001
0000
0000
0001
0000
,
0000
0001
0000
0000
1000
0000
0001
0000
,
0100
0000
0010
0000
,
1000
0000
0100
0000
,
0010
0000
0001
0000
,
1000
0000
1001
0000
,
0001
0000
0100
0000
,
0010
0000
1000
0000
,
0100
0000
1000
0000
,
0010
0000
0200
0000
,
0301
0000
1000
0000
,
0100
0000
0010
0000
,
0001
0000
0100
0000
,
0010
0000
0110
0000
,
0010
0000
1000
0000
,
0001
0000
0010
0000
,
0100
0000
1000
0000
,
1000
0000
0001
0000
,
0002
0003
0100
0000
,
0010
0000
1000
0000
,
0002
0003
1000
0000
,
0100
0000
0010
0000
,
0200
0300
1000
0000
,
0001
0000
0100
0000
,
0020
0030
1000
0000
,
0001
0000
0010
0000
,
0100
0000
1000
0000
,
1000
0000
0001
0000
,
0100
0000
0010
0000
,
0010
0000
1000
0000
,
0001
0000
0010
0000
,
0100
0000
1000
0000
,
0001
0000
0100
0000
,
0020
0000
0000
0000
,
1030
0000
1000
0000
,
0010
0000
0010
0000
,
0100
0000
0100
0000
,
0001
0000
0001
0000
,
1000
0000
0001
0000
,
0010
0000
0100
0000
,
1000
0000
0000
1000
0000
0000
1000
0000
,
0000
1000
0000
0000
1000
0000
1000
0000
,
0001
0000
0100
0000
,
0010
0000
0010
0000
,
1000
0000
1000
0000
,
0001
0000
0001
0000
,
0010
0000
0100
0000
,
1000
0000
0100
0000
,
0010
0000
0001
0000
,
1000
0000
1000
0000
,
0010
0000
0100
0000
,
0001
0000
0100
0000
,
0010
0000
1000
0000
,
0001
0000
0000
0000
0010
0000
0000
0020
,
0000
0000
0130
0000
,
1000
0000
0100
0000
,
0010
0000
0010
0000
,
0001
0000
0001
0000
,
0100
0000
0010
0000
,
1000
0000
0100
0000
,
1000
0000
0000
1000
0000
0000
1000
0000
,
0000
0001
0000
0000
0100
0000
0000
0010
,
0110
0000
0100
0000
,
0001
0000
1000
0000
,
0100
0000
0010
0000
,
0001
0000
1000
0000
,
0010
0000
0100
0000
,
0001
0000
1000
0100
,
0000
0010
0000
0000
0000
0002
0000
0000
,
0000
0000
0000
2003
0000
0000
3000
0000
0000
0000
0000
0020
0000
0000
0030
0000
,
0000
0000
0000
0000
0000
0000
0000
0200
0000
0000
0000
0000
0000
0000
0000
0000
,
0300
0000
0000
0000
;

//---------------dance-single - Itsugo----------------
#NOTES:
     dance-single:
     Itsugo:
     Medium:
     7:
     0.454,0.421,0.182,0.047,0.027:
0000
0000
0000
0000
,
0000
0000
0000
0000
,
0000
0000
0000
0000
,
0000
0000
0000
0000
,
1000
1000
1000
0000
0001
0000
0001
0000
,
0100
0100
0100
0000
0010
0000
0010
0000
,
1000
1000
1000
0000
0100
0000
0010
0000
,
0001
1000
1000
1000
,
0010
0100
0001
1000
,
0100
0010
0100
1000
,
0001
0100
0010
1000
,
0001
0010
0100
1000
,
0100
0010
0001
1000
,
0010
0010
1000
0001
,
0010
0001
1000
1000
,
0001
0001
0010
0100
,
0010
0001
0010
0100
,
1000
0001
0001
0100
,
0010
1000
0100
0010
,
0110
0100
0100
1000
,
0010
0100
0001
0010
,
0001
0001
0100
0010
,
1000
0100
0010
0002
0000
0000
1003
0000
,
0001
0001
0100
0100
,
0010
1000
0100
0010
,
0100
0100
1000
1000
,
0001
0100
0001
0000
1000
0001
1000
0001
,
1000
0100
1000
1000
,
0100
0010
0100
1000
,
1100
0100
0100
1000
,
1000
0010
0100
0002
0000
0000
0103
0000
,
1001
0001
1000
0010
,
0100
0001
0010
0100
,
1000
0010
0000
0100
0001
0000
0010
0100
,
0000
1000
0001
0000
0100
0000
0001
0000
,
0010
0000
0100
0000
0010
0000
0001
0010
,
0001
0010
0001
0010
0001
1000
0000
0010
,
0100
0010
1000
0001
,
1000
0100
0000
1100
0000
0010
0000
0001
,
1000
0000
0010
0000
0100
0000
0001
0100
,
0001
0100
0001
0100
0000
0010
1000
0100
,
0010
0001
1000
0010
,
0100
0001
1000
0100
0000
1100
0000
0000
,
0001
0000
0001
0000
0001
0000
1000
0010
,
0100
0010
1000
0100
0010
0001
0000
0001
,
0010
0100
1000
0001
,
0100
0010
0000
0110
0000
0010
0000
1000
,
0001
0000
0010
0000
0100
0000
1000
0100
,
1000
0100
0010
0001
,
0100
0000
0010
0000
1000
0010
1000
0000
,
0001
0100
0001
0000
1000
0100
0010
0002
,
0000
0013
0100
1000
,
0100
1000
0010
0100
,
0001
0010
0100
1000
,
0010
0000
0100
0001
0010
0000
0100
1000
,
0010
0100
0001
1000
,
0100
1000
0001
0100
,
0010
0000
0100
0001
0010
0000
0100
1000
,
0010
0100
0001
1000
,
0001
1000
0010
0100
,
0001
0100
0010
1000
,
0100
0010
0100
1000
,
0001
0100
0010
1000
,
0001
0001
0010
0100
,
1000
1000
0001
0100
,
0001
0000
0010
0100
1000
0001
0100
0020
,
0000
0000
0000
0000
0000
0000
0000
0030
,
0110
0000
0001
0000
1000
0000
1000
0010
,
0000
1000
0000
0010
0100
0001
0000
0100
,
0001
0000
1000
0000
0100
0000
1000
0200
,
0000
1000
0000
1300
0000
0001
0000
0001
,
0100
0000
0010
0000
1000
0000
1000
0001
,
0000
0010
0000
0100
0000
1000
0100
0010
,
0001
0000
0000
0001
0000
0000
0100
0000
,
0000
0101
0000
0000
0100
0000
0001
0000
,
1000
0000
0100
0000
1000
0000
1000
0001
,
0000
0100
0000
0100
0010
1000
0000
0100
,
0010
0000
0001
0000
0001
1000
0000
0010
,
0000
0100
0000
0001
0000
0001
0000
1000
,
0100
0000
0010
0000
0100
0000
1000
0001
,
0000
0100
0000
0100
0000
0010
1000
0000
,
1010
0000
0000
0011
0000
0000
1100
0000
,
0000
0101
0000
0000
0101
0000
1100
0000
,
1000
0000
0010
0000
0100
0001
0000
1000
,
0000
0100
0000
0100
0000
1000
0001
0000
,
0100
0000
0000
0101
0000
0000
1100
0000
,
0000
1010
0000
0000
0101
0000
0000
1001
,
0000
0000
1000
0000
0100
0000
0000
0010
,
0000
0000
0001
0000
1000
0000
0000
0010
,
0000
0100
0001
0000
1000
0100
0000
0010
,
0000
0010
0000
0100
0000
0100
0000
1000
,
0000
0001
0100
0010
1000
0000
0010
1000
,
0000
1000
0001
0000
0010
0000
0100
0000
,
0110
0000
0000
1001
0000
0000
0101
0000
,
0000
0110
0000
0000
1010
0000
0000
1001
,
0001
0000
0010
0000
0100
1000
0000
0100
,
0000
0010
0000
0001
0000
0100
0000
0100
,
0010
0000
1000
0000
1000
0010
0000
0100
,
0001
0000
0010
0000
0010
0100
0000
1000
,
0001
0000
0100
0000
0010
1000
0000
1000
,
0001
0010
0100
0110
,
0000
1001
0000
0000
0001
2000
0000
0000
,
3000
0000
0000
0000
0000
0000
0000
1000
0000
0000
0010
0000
0000
0100
0000
0000
0000
0001
0000
0000
0000
0000
1000
0000
0000
0000
0000
0100
0000
0000
0000
0000
,
0010
0000
0000
0001
0000
0000
0000
2000
0000
0000
0000
0000
0000
0000
0000
0000
,
0000
0000
0000
0000
0000
3000
0000
0000
0000
0000
0000
0000
0000
0000
0000
0000
;

//---------------dance-single - Itsugo----------------
#NOTES:
     dance-single:
     Itsugo:
     Hard:
     10:
     0.661,0.876,0.235,0.202,0.208:
0000
0000
0000
0000
,
0000
0000
0000
0000
,
0000
0000
0000
0000
,
0000
0000
0000
0000
,
1000
0000
0010
0000
0100
0000
0010
0100
0010
0100
0010
0100
0010
1000
0000
1000
,
0001
0000
0010
0000
0100
0000
1000
0100
0010
0001
0000
1000
0000
0010
0000
0100
,
0001
0000
1000
0000
0100
0000
0010
0001
0010
0100
1000
0001
0000
0100
0010
2000
,
0000
0000
3000
0000
0002
0000
0000
0000
0023
0000
0000
0000
0230
0000
0000
1000
,
0300
0001
0100
0000
0010
0000
1000
0001
0000
0010
0100
0010
0001
1000
0000
0010
,
0000
1000
0001
0010
0100
0000
1000
0001
0000
0100
0000
0000
0000
0001
1000
0100
,
0000
0010
0000
0000
0001
0000
1000
0010
0000
0100
0000
0001
1000
0200
0000
1300
,
0000
0000
0010
0000
0100
0001
1000
0100
0000
0200
0000
0000
0000
1300
0001
0100
,
0000
0200
0000
0000
0301
0100
0001
1000
0000
0001
1000
0001
0010
0002
0000
2003
,
0000
3010
0100
0001
0100
0010
1000
0001
0000
0010
0000
0000
0100
0000
1000
0002
,
0000
0000
0000
0000
1003
0001
1000
0002
0000
0000
0000
0000
0000
0000
0000
0000
,
2003
0000
3001
1000
0001
1000
0001
1000
,
0001
0010
0001
0010
0100
1000
0100
1000
,
0002
0100
0100
1000
,
2003
0000
0100
0000
0010
3000
1010
0000
,
0101
0000
0001
0100
0001
0100
0001
0100
,
0001
1000
0001
1000
0001
1000
0100
0010
,
0002
0000
1003
0001
1000
0001
1000
0001
,
1000
0010
0100
0002
0000
0103
0010
1000
,
0002
0000
1003
0100
1000
0100
1000
0100
,
1000
0010
1000
0010
1000
0010
0100
0001
,
2000
0000
3100
1000
0100
1000
0100
1000
,
0100
0010
0001
0010
0100
1000
0100
0010
,
0002
0000
0013
0001
0010
0001
0010
0001
,
0010
0100
0010
0100
1000
0100
1000
0010
,
0200
0000
0301
0100
0001
0100
0001
0100
,
0001
0010
0100
2000
0000
3100
1000
0001
,
0200
0000
0310
0100
0010
0100
0010
0100
,
0010
1000
0001
0010
0100
1000
0100
0010
,
0001
1000
0000
1000
0010
0000
0010
0100
,
0000
0100
0001
0000
0001
1000
0100
0000
,
1100
0000
0100
0000
0010
0000
0100
1000
,
0100
0001
0100
1000
0001
0100
0000
0010
,
1000
0000
0001
0000
0010
0000
0100
1000
,
0100
0010
0000
0110
0000
1001
0000
0001
,
1000
0000
0010
0000
0100
0000
0001
0100
,
0001
1000
0001
0020
0000
0130
1000
0002
,
0000
0000
1000
0000
1000
0000
1000
0003
,
0001
1000
0000
1100
0000
0011
0000
0001
,
1000
0000
1000
0000
1000
0000
0010
0100
,
0010
1000
0001
0010
0100
1000
0000
0100
,
0010
0000
0010
0000
0010
0000
0001
1000
,
0010
0100
0000
0110
0000
1001
0000
1000
,
0100
0000
0100
0000
0100
0000
0010
0001
,
0010
0100
1000
0001
0000
0100
0010
1000
,
0000
0001
0010
0000
0100
0000
0200
0000
,
1300
0000
2000
0000
3001
0000
0100
0010
,
0000
1000
0100
0010
0000
0001
0010
0100
,
0000
1000
0001
0100
0010
1000
0001
0010
,
0000
0010
0100
1000
0100
0010
0001
1000
,
0000
0001
1000
0001
0000
0100
0010
1000
,
0000
0001
0010
0100
0000
1000
0001
0100
,
0000
0010
0000
1000
0000
0001
1000
0100
,
0000
0010
0001
0000
1000
0010
0100
0001
,
0000
1000
0100
0010
0001
0010
0100
1000
,
0000
0001
0100
0010
0000
1000
0001
0010
,
0000
0100
1000
0001
0100
0010
0000
0110
,
0000
0100
0001
1000
0100
1000
0010
0100
,
0000
0001
0000
1000
0100
0010
0001
1000
,
0000
0001
1000
0001
1000
0001
1000
0010
,
0000
1000
0001
1000
0001
1000
0001
0010
,
0000
0100
1000
0001
0100
0010
1000
0200
,
0000
0000
0000
0000
M300
00M0
0M00
000M
,
1100
0000
1001
0000
0101
0000
0100
0001
,
0000
1000
0000
0100
1000
0010
0000
0100
,
0001
0000
0101
0000
0001
1000
0000
1100
,
0000
1001
0000
0101
0000
0110
0000
0010
,
1000
0000
0001
0000
0010
0000
0100
1000
,
0000
0001
0000
0100
0000
0010
1000
0001
,
0010
0000
0001
1000
0000
1000
0010
0000
,
0010
0100
0000
0100
0001
1000
0100
0010
,
0001
0000
0011
0000
0001
0000
1000
0010
,
0000
0100
0000
0010
1000
0001
0000
0010
,
0100
0000
0110
0000
0010
0000
0001
1000
,
0000
1001
0000
1010
0000
1001
0000
0001
,
0010
0000
0100
0000
1000
0100
0000
1000
,
0000
0001
0000
0100
0000
0010
1000
0001
,
0010
0000
0100
1000
0000
0100
0010
0000
,
0001
1000
0000
0010
0100
0001
1000
0100
,
1100
0000
0100
0000
1000
0001
0000
0100
,
0000
0010
0000
1000
0000
0001
0010
0100
,
1000
0000
0100
0100
0000
0010
0010
0000
,
0001
0001
0000
1000
0010
0100
0001
1000
,
0000
0100
1000
0100
1000
0100
1000
0001
,
0000
1000
0001
1000
0001
1000
0001
0100
,
0000
0010
1000
0001
0010
0100
0000
0010
,
0001
1000
0000
1001
0000
1001
0000
0101
,
0000
0100
0001
1000
0100
0000
0010
0100
,
0000
1000
0001
0100
0010
1000
0001
0010
,
0100
0000
0100
1000
0000
1000
0001
0000
,
0001
0100
0000
0100
0010
1000
0001
0010
,
0011
0000
0001
1000
0001
0100
0000
0010
,
0000
1000
0000
0001
0000
1001
0000
1000
,
0100
0010
0100
1000
0001
1001
0000
0101
,
0000
0100
0000
0010
0000
1000
0001
0010
,
0100
1000
0100
0010
0001
1000
0000
0000
,
1001
0000
0011
0000
1010
0000
1100
0100
,
1000
0001
0010
0100
1000
0002
0000
0000
,
0000
0000
0003
0000
0000
0000
0000
0001
0000
0000
0100
0000
0000
0010
0000
0000
0000
1000
0000
0000
0000
0000
0001
0000
0000
0000
0000
0010
0000
0000
0000
0000
,
0100
0000
0000
2000
0000
0000
0000
0002
0000
0000
0000
0000
0000
0000
0000
0000
,
0000
3003
0000
0000
;
