#TITLE:拍手喝采歌合;
#SUBTITLE:刀語;
#ARTIST:supercell;
#TITLETRANSLIT:Hakushu Kassai Uta Awase;
#SUBTITLETRANSLIT:Katanagatari;
#ARTISTTRANSLIT:Supercell;
#GENRE:Otaku's Dream 3rd Mix (Pad);
#CREDIT:Itsugo;
#BANNER:Hakushu Kassai Uta Awase-bn.avi;
#BACKGROUND:Hakushu Kassai Uta Awase-bg.jpg;
#LYRICSPATH:Hakushu Kassai Uta Awase.lrc;
#CDTITLE:Itsugo15 SimifileS.png;
#MUSIC:Hakushu Kassai Uta Awase.ogg;
#OFFSET:0.100;
#SAMPLESTART:63.200;
#SAMPLELENGTH:26.500;
#SELECTABLE:YES;
#LISTSORT:;
#BPMS:0.000=41.750,18.000=167.000,50.000=83.500,66.000=167.000,98.000=83.500,100.000=167.000,144.000=83.500,148.000=167.000,170.000=83.500,227.000=83.500;
#STOPS:;
#TICKCOUNT:0.000=6;
#BGCHANGES:0.125=Hakushu Kassai Uta Awase-VD.avi=1.000=1=1=0,
172.000=Hakushu Kassai Uta Awase-VD.avi=0.000=0=1=0,
99999=-nosongbg-=1.000=0=0=0 // don't automatically add -songbackground-
;
#KEYSOUNDS:;
#ATTACKS:;

//---------------dance-single - Itsugo----------------
#NOTES:
     dance-single:
     Itsugo:
     Challenge:
     11:
     0.697,0.706,0.806,0.393,0.636: // measure 1
0000
0000
0000
0000
0000
0000
0000
0000
2000
0000
0000
0000
0000
0000
0000
0000
0000
0000
0000
0000
0000
0000
0002
0000
0000
0000
0000
0000
0000
0000
0000
0000
3003
0000
0000
0000
1001
0000
0000
0000
0000
0000
1000
0000
0000
0010
0000
0000
0000
0100
0000
0000
0000
0000
0000
0001
0000
0000
1000
0000
0000
0000
0100
0000
,  // measure 2
0000
0000
0000
0000
1000
0000
0000
0001
0000
0000
0000
1001
0000
0000
0000
0000
0000
1000
0000
0000
0010
0000
0000
0000
1010
0000
0000
0000
0000
0000
0000
0010
0000
0000
0100
0000
0000
0000
0001
0000
0000
0000
0000
0000
0000
0010
0000
0000
0100
0000
0000
0000
1000
0000
0000
0000
0000
0000
0001
0000
0000
0000
0000
0000
,  // measure 3
1001
0000
0000
0000
0000
0000
0000
1000
0000
0000
0100
0000
0000
0000
1100
0000
0000
0000
0000
1000
0000
0100
0000
0000
0010
0000
0000
0000
0001
0000
0000
0000
0100
0000
0010
0000
0000
1000
0000
0000
0000
0001
0000
0000
0000
0010
0000
0100
0000
0000
1000
0000
0000
0000
1100
0000
0000
0000
0000
0000
0000
1000
0000
0000
,  // measure 4
0001
0000
0000
0000
0000
1001
0000
0000
0000
0000
0000
0000
0001
0000
0000
0000
0100
0000
0000
0000
0000
0000
0101
0000
0000
0000
0000
0000
0000
0000
0100
0000
0000
0000
0000
0010
0000
0000
0000
0000
0220
0000
0000
0000
0000
0000
0000
0000
0000
0000
0000
2000
0000
0000
0000
0000
0000
0000
0000
0000
0000
0000
0000
0000
,  // measure 5
0000
0000
0000
0000
0002
0000
0000
3333
1001
0000
0000
1000
0010
0000
0100
0000
,  // measure 6
0001
0000
0000
0010
0100
0000
1000
0000
0002
0000
0000
0000
0203
0000
0000
0000
,  // measure 7
0320
0000
1030
0001
0011
0000
0001
1000
,  // measure 8
1010
0000
0010
0100
0101
0000
0010
0100
,  // measure 9
4400
0000
0000
3300
1100
1000
1010
0010
,  // measure 10
0110
0100
0101
0001
1001
1000
1100
0100
,  // measure 11
0110
0000
0010
0000
0011
0000
0001
0000
1000
0010
0100
0001
1000
0100
0010
0001
,  // measure 12
0100
0010
1000
0100
0010
0001
0010
0100
1000
0000
0000
1100
0000
0000
1001
0000
,  // measure 13
0101
0000
0000
0000
0110
0000
0000
0000
1010
0000
0010
1000
0001
0010
0100
1000
,  // measure 14
0002
0000
0000
0000
0000
0000
0000
0000
0000
0000
0000
0000
0103
0000
0000
0000
0010
0000
0000
0000
1000
0000
0100
0000
0010
0000
0100
1000
0001
0000
0100
0000
,  // measure 15
0020
0000
0000
0000
2030
0000
0000
0000
3002
0000
0000
0013
0100
0010
0001
1000
,  // measure 16
0200
0000
0000
0000
0000
0000
0000
0000
1300
0000
0000
0000
0010
0000
0100
0000
0002
0000
0000
0000
0000
0000
1003
0000
0100
0000
0010
0001
1000
0000
0010
0000
,  // measure 17
0200
0302
0203
0320
2030
0000
0002
3003
1001
0000
1000
0100
1000
0000
0001
0100
,  // measure 18
0001
0000
1000
0010
1000
0000
0001
0010
0001
0000
0100
0000
0100
0000
0010
0000
,  // measure 19
0010
0000
1000
0000
1000
0000
0100
0000
0010
0000
0001
0100
0010
0000
1000
0000
,  // measure 20
0001
0000
0010
0100
1000
0000
0100
0010
0001
0000
0100
0000
0100
0000
0010
0000
,  // measure 21
0020
0000
0030
0000
0110
0000
0000
0000
1001
0000
0000
0001
0000
0000
0011
0000
,  // measure 22
1100
0000
0000
1000
0000
0000
1010
0000
0101
0000
0000
0100
0000
0000
0110
0000
,  // measure 23
1010
0000
0000
0010
0000
0000
0110
0000
0101
0000
0000
0001
0000
0000
0011
0000
,  // measure 24
0110
0000
0000
0100
0000
0000
1100
0000
1001
0000
0000
0001
0000
0000
0100
0000
,  // measure 25
0010
1000
0100
0010
0001
0000
1000
0000
2002
0000
0000
0000
0000
0000
0000
3003
,  // measure 26
1001
0000
0000
0110
0000
0000
1001
0000
1101
0000
0000
0000
1000
0000
0000
0000
,  // measure 27
1010
0000
0000
0100
0001
0000
1000
0000
0110
0000
0000
0100
1000
0000
0010
0000
,  // measure 28
1010
0000
0000
0010
0001
0000
1000
0000
0110
0000
0000
0010
1000
0000
0100
0000
,  // measure 29
0011
0000
0000
0010
0001
0000
0100
0000
0101
0000
0000
0100
0010
0000
1000
0000
,  // measure 30
1010
0000
0000
1000
0100
0000
0010
0000
0001
0010
0100
1000
0010
0100
0001
1000
,  // measure 31
0100
0000
0000
0010
0001
0000
1000
0000
1001
0000
0000
0001
1000
0000
0010
0000
,  // measure 32
1010
0000
0000
1000
0010
0000
0100
0000
0001
0000
0101
0000
1100
0000
0000
0000
,  // measure 33
0110
0000
0000
0010
0001
0000
1000
0000
0110
0000
0000
0010
1000
0000
0100
0000
,  // measure 34
0011
0000
0000
1000
0001
0000
0100
0000
1010
0000
0000
0100
0001
0000
1000
0000
,  // measure 35
0100
0010
0001
0100
0010
1000
0100
0010
0100
1000
0010
0100
0001
0010
0100
1000
,  // measure 36
0020
0000
0032
0000
,  // measure 37
0203
0000
0000
0000
0000
0000
0000
0000
0000
0000
0000
0000
0000
0000
0000
0300
,  // measure 38
0440
0000
4334
0000
,  // measure 39
3443
0000
0000
0000
0000
0000
0000
0000
0331
1000
0001
1000
0001
1000
0001
1000
,  // measure 40
1001
1000
1010
0001
0101
1000
1100
0001
,  // measure 41
0011
0100
1100
0001
0101
0010
1010
0001
,  // measure 42
0011
0010
0001
1000
0010
1000
0100
0010
0001
0100
0010
1000
0001
0010
0100
1000
,  // measure 43
1100
0000
0000
1001
0000
0000
0101
0000
2220
0030
0300
3000
0000
0000
0000
0000
;

//---------------dance-single - Itsugo----------------
#NOTES:
     dance-single:
     Itsugo:
     Hard:
     8:
     0.545,0.593,0.610,0.165,0.419:
0000
0000
0000
0000
0000
0000
0000
0000
2000
0000
0000
0000
0000
0000
0000
0000
0000
0000
3000
0000
0000
0000
0002
0000
0000
0000
0000
0000
0000
0000
0000
0000
0003
0000
0000
0000
1000
0000
0000
0000
0000
0000
0010
0000
0000
0100
0000
0000
0000
0001
0000
0000
0000
0000
0000
1000
0000
0000
0100
0000
0000
0000
0010
0000
,
0000
0000
0000
0000
0001
0000
0000
1000
0000
0000
0000
0010
0000
0000
0000
0000
0000
0100
0000
0000
0001
0000
0000
0000
1000
0000
0000
0000
0000
0000
0000
0100
0000
0000
0010
0000
0000
0000
0001
0000
0000
0000
0000
0000
0000
0010
0000
0000
0100
0000
0000
0000
1000
0000
0000
0000
0000
0000
0001
0000
0000
0000
0000
0000
,
0100
0000
0000
0000
0000
0000
0000
0010
0000
0000
1000
0000
0000
0000
0001
0000
0000
0000
0000
1000
0000
0100
0000
0000
0010
0000
0000
0000
0001
0000
0000
0000
0100
0000
0010
0000
0000
1000
0000
0000
0000
0001
0000
0000
0000
0010
0000
0100
0000
0000
1000
0000
0000
0000
0001
0000
0000
0000
0000
0000
0000
0100
0000
0000
,
0010
0000
0000
0000
0000
1000
0000
0000
0000
0000
0000
0000
0001
0000
0000
0000
0010
0000
0000
0000
0000
0000
0100
0000
0000
0000
0000
0000
0000
0000
1000
0000
0000
0000
0000
0010
0000
0000
0000
0000
0200
0000
0000
0000
0000
0000
0000
0000
0000
0000
0000
0302
0000
0000
0000
0000
0000
0000
0000
0000
0000
0000
0000
0000
,
0000
0000
0000
0000
2000
0000
0000
3003
1001
0000
0000
0000
1000
0000
0000
0000
,
1100
0100
0110
0011
,
1001
0000
0001
0100
1000
0000
1000
0100
,
0001
0000
0001
0010
1000
0000
0010
0100
,
2000
0010
3001
1001
,
0101
0110
1010
1001
,
0011
0000
1100
0000
1000
0001
0100
0010
,
1000
0000
0100
0000
0010
0000
0001
0000
0011
0000
0000
1100
0000
0000
1001
0000
,
0110
0000
0000
0000
1001
0000
0000
0000
1100
0000
0000
1000
0100
1000
0100
1000
,
0002
0000
0000
0000
0000
0000
0000
0000
0103
0000
0000
0000
0000
0000
0000
0000
0101
0000
0000
0000
0000
0000
0001
0000
0100
0000
0010
1000
0010
0000
1000
0000
,
0200
0000
0000
0000
1300
0000
0000
0000
1001
0000
0000
0001
0100
0010
1000
0100
,
0020
0000
0000
0000
0000
0000
0000
0000
0031
0000
0000
0000
0010
0000
0100
0000
1000
0000
0000
0000
0000
0000
0001
0000
1000
0000
0010
1000
0010
0000
0100
0000
,
0002
0000
2000
0003
3001
0010
0001
1000
,
0001
0000
0100
0010
0110
0000
1010
0000
,
1001
0000
0011
0000
0001
0010
0100
0100
,
1000
0001
0100
0010
1000
0000
1010
0000
,
0101
0000
0000
0000
1001
0000
0000
0000
1000
0000
0000
1000
0000
0000
0100
0000
,
0010
0000
0000
0010
0000
0000
0001
0000
1000
0000
0000
1000
0000
0000
0010
0000
,
0100
0000
0000
0010
0000
0000
1000
0000
0001
0000
0000
0001
0000
0000
0010
0000
,
0100
0000
0000
0100
0000
0000
1000
0000
0010
0000
0000
0010
0000
0000
0100
0000
,
0001
0000
1000
0000
0100
0000
0010
0000
0002
0000
0000
0000
0000
0000
0000
0003
,
1001
0000
0000
1001
0000
0000
1001
0000
1100
0000
0000
0000
1001
0000
0000
0000
,
0101
0000
0000
0100
0010
0000
1000
0000
1010
0000
0000
1000
0001
0000
0010
0000
,
0011
0000
0000
0001
0100
0000
0010
0000
0110
0000
0000
0100
0001
0000
1000
0000
,
1001
0000
0000
0001
0010
0000
0100
0000
0110
0000
0000
0010
0001
0000
1000
0000
,
1001
0000
0110
0000
1001
0001
0100
0010
,
0110
0000
0000
0100
0001
0000
1000
0000
1001
0000
0000
0001
0010
0000
0100
0000
,
0110
0000
0000
0100
1000
0000
0001
0000
1001
0000
0001
0000
0101
0000
0000
0000
,
0110
0000
0000
0010
1000
0000
0001
0000
0010
0000
0000
0001
0100
0000
0010
0000
,
1000
0000
0000
0010
0100
0000
0001
0000
1000
0000
0000
0100
0010
0000
0001
0000
,
1000
0010
0100
0001
0010
0100
1000
0100
,
0020
0000
0032
0000
,
1003
0000
0000
0010
0100
0000
0001
0000
1000
0000
0000
0000
0100
0000
0010
0000
0001
0000
0000
0000
1000
0000
0000
0000
0010
0000
0000
0000
0100
0000
0001
0000
,
0010
0000
0100
0001
0010
0000
0100
0001
,
0010
0000
0100
0001
0020
0000
2030
3000
,
1010
1001
0011
0110
,
1100
0110
0011
1001
,
1000
0010
0100
0001
1000
0100
0010
0001
,
0011
0000
0000
1010
0000
0000
1001
0000
0110
0000
0000
0000
0000
0000
0000
0000
;

//---------------dance-single - Itsugo----------------
#NOTES:
     dance-single:
     Itsugo:
     Easy:
     3:
     0.133,0.176,0.103,0.041,0.000:
0000
0000
0000
0000
,
0000
0000
0000
0000
,
0000
0000
0000
0000
,
0000
0000
0000
0000
,
0000
0000
0001
0000
,
1000
0000
0010
0000
,
1000
0000
0100
0000
,
0010
0000
0001
0000
,
2000
0000
3010
0000
,
0100
0000
0001
0000
,
1000
0000
0100
0000
,
0100
0000
1000
0000
,
1000
0000
0001
0000
,
0100
0000
0010
0000
,
1000
0000
0001
0000
,
0010
0000
0100
0000
,
1000
0000
0100
0000
,
0100
0000
1000
0000
,
1000
0000
0010
0000
,
0010
0000
0100
0000
,
0100
0000
0001
0000
,
0001
0000
0100
0000
,
0100
0000
0001
0000
,
0001
0000
1000
0000
,
1000
0000
0200
0000
,
0310
0000
0001
0000
,
0011
0000
0001
0000
,
1001
0000
1000
0000
,
1010
0000
0010
0000
,
0110
0000
0100
0000
,
0101
0000
0001
0000
,
1001
0000
1000
0000
,
1100
0000
0001
0000
,
0011
0000
1000
0000
,
1010
0000
0001
0000
,
0100
0000
0010
0000
,
2000
0000
0000
0000
,
3001
0000
0010
0000
,
0100
0000
2000
0000
,
3100
0000
1000
0000
,
0010
0000
0100
0000
,
0001
0000
0100
0000
,
0010
0000
0110
0000
;

//---------------dance-single - Itsugo----------------
#NOTES:
     dance-single:
     Itsugo:
     Beginner:
     1:
     0.072,0.110,0.010,0.010,0.000:
0000
0000
0000
0000
,
0000
0000
0000
0000
,
0000
0000
0000
0000
,
0000
0000
0000
0000
,
0000
0000
1000
0000
,
0000
0000
0010
0000
,
0000
0000
0100
0000
,
0000
0000
0001
0000
,
0000
0000
1000
0000
,
0100
0000
1000
0000
,
0001
0000
0100
0000
,
0000
0000
0010
0000
,
0010
0000
1000
0000
,
0000
0000
1000
0000
,
0000
0000
0001
0000
,
0000
0000
0001
0000
,
0000
0000
0010
0000
,
0010
0000
0001
0000
,
0001
0000
1000
0000
,
1000
0000
0010
0000
,
0010
0000
1000
0000
,
0000
0000
0100
0000
,
0000
0000
0010
0000
,
0000
0000
0001
0000
,
0000
0000
1000
0000
,
1001
0000
0000
0000
,
0001
0000
0000
0000
,
0100
0000
0000
0000
,
0010
0000
0000
0000
,
1000
0000
0000
0000
,
0100
0000
0000
0000
,
0010
0000
0000
0000
,
0001
0000
0000
0000
,
1000
0000
0000
0000
,
0010
0000
0000
0000
,
0100
0000
0000
0000
,
0002
0000
0000
0000
,
1003
0000
0000
0000
,
1000
0000
0000
0000
,
0100
0000
0000
0000
,
0100
0000
0000
0000
,
0010
0000
0000
0000
,
0001
0000
1000
0000
;

//---------------dance-single - Itsugo----------------
#NOTES:
     dance-single:
     Itsugo:
     Medium:
     6:
     0.340,0.398,0.186,0.093,0.078:
0000
0000
0000
0000
0000
0000
0000
0000
0000
0000
0000
0000
0000
0000
0000
0000
0000
1000
0000
0000
0000
0000
0000
0000
0000
0000
0000
0000
0000
0000
0000
0000
,
0000
0000
0000
0000
0000
0010
0000
0000
0000
0000
0000
0000
0100
0000
0000
0000
0000
0000
0000
0000
0000
0000
0000
0000
0000
0000
0000
0000
0000
0000
0000
0000
,
0001
0000
0000
0000
0000
0000
0000
1000
0000
0000
0000
0000
0000
0000
0000
0000
0000
0000
0000
0000
0000
0000
0000
0000
0000
0000
0000
0100
0000
0000
0000
0000
,
0000
0000
0000
0000
0010
0000
0000
0000
0000
0000
0000
0000
0001
0000
0000
0000
1000
0000
0000
0000
0000
0010
0000
0000
0000
0000
0000
0000
0000
0000
1000
0000
0000
0000
0001
0000
0000
0000
0000
0010
0000
0000
0000
0000
0000
0000
0000
0000
0000
0000
0000
0200
0000
0000
0000
0000
0000
0000
0000
0000
0000
0000
0000
0000
,
0000
0000
0000
0000
0000
0000
0000
0000
2300
0000
0000
0000
0000
0000
0000
3000
1000
0000
0000
0000
0000
0000
0000
0000
0010
0000
0000
0000
0000
0000
0000
0000
,
0100
0001
1000
0100
,
0010
0000
0001
1000
0010
0000
0010
1000
,
0001
0000
0010
0100
1000
0000
0100
0010
,
0002
1003
1001
1000
,
0010
0100
0001
1000
,
0100
0000
1000
0000
0010
0100
0001
1000
,
0100
0000
0010
0000
0100
0000
1000
0000
0001
0000
0000
0001
0000
0000
0100
0000
,
0010
0000
1000
0000
0001
0000
1000
0100
,
1000
0000
0000
0000
0001
0000
1000
0010
,
0100
0000
0001
0000
1000
0000
0100
0010
,
0001
0000
0000
0000
1000
0000
0010
0100
0010
0000
0000
0000
1000
0000
0001
0000
,
0010
0000
0100
0000
1000
0100
1000
0100
,
0010
0001
0010
0100
,
1000
0000
0001
0000
0100
0001
0100
0000
,
0001
0010
0001
0000
1000
0000
0010
0000
,
0100
0001
0101
0001
,
1001
1000
1100
1000
,
1001
0001
0011
0001
,
1001
1000
1010
0010
,
0110
0100
0102
1003
,
0100
0000
0000
0100
0000
0000
0200
0000
0010
0000
0300
0000
0000
0000
0000
0000
,
0110
0000
0010
0001
1000
0000
0010
0100
,
0001
0000
0010
0100
1000
0000
0100
0010
,
0001
0000
0100
0010
1000
0000
0001
0010
,
0100
0000
1000
0000
1100
0000
1000
0100
,
0010
0000
0001
0100
0010
0000
0010
0100
,
0001
0000
0010
0100
1000
0000
1000
0001
,
0101
0000
0001
1000
1100
0000
0100
0010
,
0011
0000
0001
0100
0110
0000
0010
1000
,
1001
0000
1000
0100
0010
0000
0001
1000
,
0020
0000
0230
0300
,
0002
1000
0010
0100
,
1003
0000
0001
0000
,
1000
0000
0010
0100
,
0110
0100
0001
0010
,
0100
1000
0100
0010
,
0001
1000
0010
0100
0001
1000
0100
0010
,
0001
0000
0000
0001
0000
0000
0001
0000
2000
0000
0000
0000
3000
0000
0000
0000
;
