#TITLE:Dragon Screamer;
#SUBTITLE:キャプテン翼;
#ARTIST:DA PUMP;
#TITLETRANSLIT:Dragon Screamer;
#SUBTITLETRANSLIT:Captain Tsubasa;
#ARTISTTRANSLIT:Da Pump;
#GENRE:Otaku's Dream 3rd Mix (Pad);
#CREDIT:Itsugo15;
#MENUCOLOR:;
#BANNER:Dragon Screamer-bn.png;
#BACKGROUND:Dragon Screamer-bg.jpg;
#LYRICSPATH:Dragon Screamer.lrc;
#CDTITLE:Itsugo15 SimifileS.png;
#MUSIC:dragon screamer.mp3;
#OFFSET:-0.650;
#SAMPLESTART:62.351;
#SAMPLELENGTH:30.000;
#SELECTABLE:YES;
#LISTSORT:;
#BPMS:0.000=124.000;
#STOPS:;
#TICKCOUNT:0.000=6;
#BGCHANGES:31.500=Dragon Screamer VD1.avi=1.000=1=1=0,
175.500=Dragon Screamer VD2.avi=1.000=0=1=0,
252.000=Dragon Screamer VD2.avi=0.000=0=1=0,
99999=-nosongbg-=1.000=0=0=0 // don't automatically add -songbackground-
;
#KEYSOUNDS:;
#ATTACKS:;

//---------------dance-single - Itsugo15----------------
#NOTES:
     dance-single:
     Itsugo15:
     Beginner:
     1:
     0.092,0.122,0.008,0.008,0.000:
0000
0000
0000
0000
,
0000
0000
0000
0000
,
0000
0000
0000
0000
,
0000
0000
0000
0000
,
0000
1000
0000
0000
,
0000
0000
0010
0000
,
0000
0000
0100
0000
,
0000
0000
0001
0000
,
1000
0000
0100
0000
,
0100
0000
0010
0000
,
0010
0000
0001
0000
,
0001
0000
1000
0000
,
1000
0000
0010
0000
,
0010
0000
0100
0000
,
0100
0000
0001
0000
,
0001
0000
1000
0000
,
1000
0000
0000
0000
,
1000
0000
0000
0000
,
0001
0000
0000
0000
,
0010
0000
0000
0000
,
0100
0000
0000
0000
,
1000
0000
0000
0000
,
0100
0000
0000
0000
,
0010
0000
0000
0000
,
0001
0000
0000
0000
,
1000
0000
1000
0000
,
0010
0000
0000
0000
,
0010
0000
0000
0000
,
1000
0000
1000
0000
,
0001
0000
0001
0000
,
0100
0000
0000
0000
,
0100
0000
0000
0000
,
1001
0000
0001
0000
,
0010
0000
0000
0000
,
0100
0000
1000
0000
,
0001
0000
0000
0000
,
0100
0000
0000
0000
,
0010
0000
0000
0000
,
1000
0000
0100
0000
,
0010
0000
0001
0000
,
1000
0000
0000
0000
,
0010
0000
0000
0000
,
0100
0000
0001
0000
,
1000
0000
0000
0000
,
0001
0000
0010
0000
,
0100
0000
0000
0000
,
1000
0000
0010
0000
,
0100
0000
0000
0000
,
0001
0000
0000
0000
,
1000
0000
0000
0000
,
0100
0000
0010
0000
,
0001
0000
1000
0000
,
0010
0000
0000
0000
,
0100
0000
0000
0000
,
0010
0000
1000
0000
,
0001
0000
0010
0000
,
0100
0000
0000
0000
,
0010
0000
0000
0000
,
0001
0000
1000
0000
,
0010
0000
0100
0000
,
0001
0000
0000
1000
,
0000
0000
0000
0000
,
0000
0200
0000
0000
,
0000
0000
0000
0000
,
0300
0000
0000
0000
;

//---------------dance-single - Itsugo15----------------
#NOTES:
     dance-single:
     Itsugo15:
     Easy:
     3:
     0.183,0.243,0.053,0.099,0.000:
0000
0000
0000
0000
,
0000
0000
0000
0000
,
0000
0000
0000
0000
,
0000
0000
0000
0000
,
0000
1000
0000
0010
,
0000
0100
0000
0001
,
0000
1000
0000
0100
,
0010
0000
0001
0000
,
0011
0000
0001
0000
,
1000
0000
0010
0000
,
1000
0000
0001
0000
,
0010
0000
0100
0000
,
0110
0000
0010
0000
,
0001
0000
1000
0000
,
0010
0000
0100
0000
,
0001
0000
1000
0000
,
1001
0000
1000
0000
,
1000
0000
0010
0000
,
1010
0000
0010
0000
,
0010
0000
0100
0000
,
0110
0000
0100
0000
,
0100
0000
0001
0000
,
0101
0000
0001
0000
,
1000
0000
0100
0000
,
0020
0000
0031
0000
,
0002
0000
1003
0000
,
2000
0000
3020
0000
,
0230
0000
0302
0000
,
2003
0000
3100
0000
,
0200
0000
0310
0000
,
0020
0000
0032
0000
,
2003
0000
0002
3003
,
1001
0001
1000
0010
,
0100
0000
0100
0001
,
1000
0100
1000
0001
,
0100
0000
0010
0000
,
1000
0100
0010
0000
,
0010
0001
0100
0000
,
0010
0000
1000
0000
,
0001
0000
0010
0000
,
0100
1000
0001
0000
,
0100
0001
1000
0000
,
0100
0100
0010
0010
,
0001
0001
1000
1000
,
0010
0100
0001
1000
,
0100
0000
0010
0000
,
0001
1000
0010
0100
,
0001
0000
0100
0000
,
0010
1000
0001
0000
,
0010
0001
1000
0000
,
0010
0000
0100
0000
,
0010
0000
1000
0001
,
0010
0010
0100
0000
,
1000
1000
0001
0000
,
0100
0100
0010
0010
,
1000
1000
0001
0010
,
0100
1000
0000
0001
,
0100
0010
0000
1000
,
0001
0001
1000
1000
,
0010
0010
0100
0001
,
1000
0000
0000
0100
0000
0000
0010
0000
,
0000
0001
0000
0000
0000
0000
0000
0000
,
0000
2000
0000
0000
,
0000
0000
0000
0000
,
3000
0000
0000
0000
;

//---------------dance-single - Itsugo15----------------
#NOTES:
     dance-single:
     Itsugo15:
     Medium:
     5:
     0.293,0.340,0.274,0.099,0.000:
0000
0000
0000
0000
,
0000
0000
0000
0000
,
0000
0000
0000
0000
,
0000
0000
0000
0000
,
0000
1000
0010
0000
,
0000
0100
0100
0000
,
0000
0000
0001
0000
,
1000
0000
0100
0000
,
1100
0100
0010
0001
,
1000
0010
0100
0001
,
0100
0010
1000
0001
,
0010
0100
1000
0001
,
1001
1000
0010
0100
,
0010
1000
0001
0010
,
0100
1000
0100
0010
,
0001
0100
0010
1000
,
1010
0010
0010
1000
,
1000
0010
1000
0001
,
1001
1000
1000
0001
,
0001
1000
0100
0010
,
0110
0100
0100
0010
,
0010
0100
0010
0001
,
0011
0010
0010
0001
,
0001
1000
0010
0100
,
0220
0030
0301
1000
,
0100
0000
0100
0000
,
1000
0010
0001
0100
,
1000
0010
1000
0001
,
2002
3000
0013
0100
,
1000
0000
0000
0100
1000
0000
0000
0000
,
0010
0100
0001
1000
,
0200
0000
0020
0330
,
0110
0110
0011
0011
,
2000
3000
0020
0030
,
1010
1010
0110
1001
,
1000
0000
0100
0010
,
0001
0010
0001
1000
0001
0000
0001
0000
,
1000
0010
1000
0001
1000
0000
1000
0000
,
0100
0010
0001
1000
,
0010
0100
0001
0101
,
1001
1000
0100
1100
,
0110
0010
0001
1000
,
0010
0001
0100
1000
,
0010
0001
0010
0100
,
0110
0110
1100
1100
,
0002
0003
0200
0300
,
0101
0101
0110
1001
,
0002
0003
0010
0100
,
1000
0100
1000
0001
1000
0000
1000
0000
,
0001
0100
0001
1000
0001
0000
0001
0000
,
0010
0100
1000
0001
,
0100
0010
1000
1010
,
1001
0001
0010
0011
,
0110
0100
1000
0001
,
0100
1000
0010
0001
,
0100
0010
0100
0001
,
0101
1001
1000
0100
,
1100
0110
0010
0001
,
1000
0010
0001
0100
,
1000
0010
0100
0010
,
1000
0010
1000
0100
1000
0010
0100
0001
,
0010
0002
0000
0000
0000
0000
0000
0000
,
0000
2003
0000
0000
,
0000
0000
0000
0000
,
3000
0000
0000
0000
;

//---------------dance-single - Itsugo15----------------
#NOTES:
     dance-single:
     Itsugo15:
     Hard:
     8:
     0.524,0.632,0.281,0.410,0.182:
0000
0000
0000
0000
,
0000
0000
0000
0000
,
0000
0000
0000
0000
,
0000
0000
0000
0000
,
0000
0000
1000
0010
0200
0000
0001
0000
,
0000
0301
2000
0100
,
0000
3001
0200
0000
,
0320
0000
1000
1030
,
1010
0010
0100
0001
0001
0100
0010
1000
,
0100
0010
0001
1000
1000
0010
0100
0010
,
1000
0001
0010
0100
0100
0010
0001
1000
,
0010
0000
0100
0000
0001
0000
0100
0000
0010
1000
0000
1000
0000
0001
1000
0000
,
1001
0001
0010
0100
0100
1000
0100
0010
,
0001
0100
0010
1000
1000
0001
0010
0100
,
0010
0001
1000
0010
0010
0100
0001
1000
,
0100
0000
1000
0000
0010
0000
0100
0000
0001
1000
0000
0100
0000
0010
0001
0000
,
0014
0000
0000
0000
,
0000
0000
0000
0000
,
4003
0000
0000
0000
,
0000
0000
0000
0000
,
3040
0000
0000
0000
,
0000
0000
0000
0000
,
0430
0000
0000
0000
,
0301
0000
0010
0000
0100
0000
1000
0000
0100
1000
0100
1000
0100
1000
0100
1000
,
0002
0000
0100
0100
0103
0000
0101
0001
,
1000
0000
0000
0100
0000
0000
0010
0000
0001
0000
0001
0000
0010
0000
0100
0000
,
1000
0010
0001
0010
1000
0100
0001
0100
,
1000
0100
1000
0100
0010
0100
0010
0001
0010
0001
1000
0001
1000
0010
0100
0001
,
2000
0000
0100
0100
3100
0000
1100
1000
,
0002
0000
0000
0000
0013
0000
0200
0000
2000
0000
3300
0000
1100
0000
0100
1000
,
0001
0100
1000
0100
0010
1000
0001
0010
,
0001
1000
0000
0010
0100
0000
0001
0000
1000
0001
1000
0000
0010
1000
0100
0010
,
0002
0103
2000
3100
0002
0013
0200
1300
,
1100
1000
0001
1001
0001
0101
0101
0100
,
0020
1030
0002
0013
0200
0301
2000
3010
,
1010
0010
0100
0110
1000
1100
2002
3003
,
0001
0100
0001
0100
0010
0000
1000
0000
0001
0000
0010
0000
0011
0000
0001
0000
,
1000
0010
1000
0100
1000
0000
0001
0000
0101
0000
1000
0000
1100
0000
0100
0000
,
1000
0010
0100
0001
1000
0100
0010
0001
,
0100
0000
0010
0000
1000
0000
0001
0000
0010
0001
0000
1000
0000
0010
0100
0000
,
0110
0010
0100
0001
1000
0100
0010
0001
,
0011
0010
0001
1000
0010
0100
0010
1000
,
2010
3200
0302
0023
,
2030
0000
0000
0000
3002
0000
0000
0000
0013
0001
0000
0001
0000
1000
0001
0000
,
2000
3010
0002
0013
2000
3100
0020
0031
,
0011
0001
1000
1001
1000
1010
1010
0010
,
0200
0301
2000
3100
0020
1030
0002
0103
,
0101
0100
0010
0110
0001
0011
2002
3003
,
1000
0010
1000
0010
0100
0000
0001
0000
1000
0000
0100
0000
1100
0000
1000
0000
,
0001
0100
0001
0010
0001
0000
1000
0000
1010
0000
0001
0000
0011
0000
0010
0000
,
0001
0100
0010
1000
0001
0010
0100
1000
,
0010
0000
0100
0000
0001
0000
1000
0000
0100
1000
0000
0001
0000
0100
0010
0000
,
0110
0100
0010
1000
0001
0010
0100
1000
,
1100
0100
1000
0001
0100
0010
0100
0001
,
0102
0023
2030
3200
,
0302
0000
0000
0000
2003
0000
0000
0000
3100
1000
0000
0001
0000
0100
0010
0000
,
0110
0010
0100
0001
1000
0100
0010
0001
,
0011
0010
0001
1000
0010
0100
0010
1000
,
2010
3002
0023
0230
,
2300
0000
0000
0000
3002
0000
0000
0000
1003
0001
0000
0100
0000
0010
1000
0000
,
0001
0010
0100
1000
0100
0010
0001
1000
,
0020
0200
0000
0000
0000
0000
0000
0000
,
0000
0004
0000
0000
,
0000
0000
0000
0000
,
0333
0000
0000
0000
;

//---------------dance-single - Itsugo15----------------
#NOTES:
     dance-single:
     Itsugo15:
     Challenge:
     10:
     0.739,0.802,0.585,0.501,0.445: // measure 1
0000
0000
0000
0000
,  // measure 2
0000
0000
0000
0000
,  // measure 3
0000
0000
0000
0000
,  // measure 4
0000
0000
0000
0000
,  // measure 5
0000
0000
1000
0010
0200
0000
0001
0000
,  // measure 6
0302
2003
3200
0010
,  // measure 7
0010
0000
0320
0000
0032
0000
1000
1000
,  // measure 8
0203
0000
0000
0000
0320
0000
0000
0000
1030
0010
0100
0010
1000
0001
0010
0100
,  // measure 9
1000
0100
1000
0100
0010
0100
0010
0100
1000
0100
1000
0100
0010
0001
1000
0010
,  // measure 10
0100
0001
0100
0001
1000
0001
1000
0001
0100
0001
0100
0001
0100
0010
1000
0001
,  // measure 11
0010
0100
0010
0001
0100
0010
1000
0100
1000
0010
0100
0001
0010
0100
1000
0100
,  // measure 12
0010
0001
0100
0010
1000
0100
1000
0001
0100
0001
0000
0101
0000
0001
1000
0000
,  // measure 13
0001
0010
0001
0010
0100
0010
0100
0010
0001
0010
0001
0010
0100
1000
0001
0100
,  // measure 14
0010
1000
0010
1000
0001
1000
0001
1000
0010
1000
0010
1000
0010
0100
0001
1000
,  // measure 15
0100
0010
0100
1000
0010
0100
0001
0010
0001
0100
0010
1000
0100
0010
0001
0010
,  // measure 16
0100
1000
0010
0100
0001
0010
0001
1000
0010
1000
0000
1010
0000
1000
0001
0000
,  // measure 17
0011
0001
0010
0100
0001
0100
0010
0001
,  // measure 18
0100
0010
0001
0010
0100
0001
0010
0100
,  // measure 19
1100
1000
0100
0010
1000
0010
0100
1000
,  // measure 20
0010
0100
1000
0100
0010
1000
0100
0010
,  // measure 21
1010
1000
0010
0001
1000
0010
0001
0010
,  // measure 22
1000
0001
0010
1000
0010
0001
1000
0010
,  // measure 23
0101
0001
0100
1000
0100
0010
1000
0100
,  // measure 24
0010
0000
0001
0000
0100
0000
0010
0000
1000
0100
1000
0010
0100
0001
0010
0001
,  // measure 25
0200
0000
0010
0310
0110
0010
1000
0001
,  // measure 26
0020
0000
0000
0230
0000
0000
2300
0000
0002
0000
3003
0000
1001
0000
0001
0000
,  // measure 27
0200
1300
0200
0310
0200
0301
0020
1030
,  // measure 28
0010
0001
1000
0100
0010
0001
1000
0100
0010
0001
0010
0100
1000
0100
0010
0001
,  // measure 29
2000
0000
0001
3001
1001
0001
0010
0100
,  // measure 30
2000
0000
0000
0000
3001
0000
0200
0000
0020
0000
0330
0000
0110
0000
0010
1000
,  // measure 31
0001
0010
1000
0010
0001
1000
0100
0010
,  // measure 32
0001
1000
0000
1000
0001
0100
0010
0000
1000
0010
0000
0100
0001
1000
0100
0000
,  // measure 33
0011
1000
1010
0001
0101
1000
1100
0100
,  // measure 34
0110
0000
0010
0100
0010
0000
0110
0000
0100
0000
1100
0000
1001
0000
0001
0000
,  // measure 35
0101
1000
1100
0001
0011
1000
1010
0010
,  // measure 36
0110
0000
0100
0010
0100
0000
0110
0000
0010
0100
0002
0000
2000
0000
0000
3003
,  // measure 37
1001
0000
0001
0010
0100
0000
1000
0000
0010
0000
1010
0000
1010
0000
0110
0000
,  // measure 38
0100
0001
0100
0010
1000
0000
0001
0000
0020
0000
0031
0000
0011
0000
0001
0000
,  // measure 39
1001
0000
1000
0010
0100
0000
0001
0000
0100
0000
0010
0000
1000
0000
0001
0000
,  // measure 40
1001
0000
0001
0010
0100
0000
1000
0000
0001
0100
0000
0010
0000
1000
0001
0000
,  // measure 41
1001
0001
0101
1000
1100
0100
0010
0001
,  // measure 42
0011
1000
1010
0010
0110
0100
0001
1000
,  // measure 43
0200
0320
0230
2300
3002
0203
0320
2030
,  // measure 44
3002
0000
0023
0000
0230
0000
2300
0000
3100
0010
0000
0011
0000
0001
1000
0000
,  // measure 45
1100
0001
0101
1000
1010
0001
0011
0010
,  // measure 46
0110
0000
0100
0010
0100
0000
0110
0000
0010
0000
0011
0000
1001
0000
1000
0000
,  // measure 47
1010
0001
0011
1000
1100
0001
0101
0100
,  // measure 48
0110
0000
0010
0100
0010
0000
0110
0000
0100
0010
2000
0000
0002
0000
0000
3003
,  // measure 49
1001
0000
1000
0100
0010
0000
0001
0000
0100
0000
0101
0000
0101
0000
0110
0000
,  // measure 50
0010
1000
0010
0100
0001
0000
1000
0000
0200
0000
1300
0000
1100
0000
1000
0000
,  // measure 51
1001
0000
0001
0100
0010
0000
1000
0000
0010
0000
0100
0000
0001
0000
1000
0000
,  // measure 52
1001
0000
1000
0100
0010
0000
0001
0000
1000
0010
0000
0100
0000
0001
1000
0000
,  // measure 53
1001
1000
1010
0001
0011
0010
0100
1000
,  // measure 54
1100
0001
0101
0100
0110
0010
1000
0001
,  // measure 55
0020
0230
0320
0032
2003
3020
0230
0302
,  // measure 56
2003
0000
3200
0000
0320
0000
0032
0000
0013
0100
0000
1100
0000
1000
0001
0000
,  // measure 57
1001
0001
0101
1000
1100
0100
0010
0001
,  // measure 58
0011
1000
1010
0010
0110
0100
0001
1000
,  // measure 59
0200
0320
0230
2300
3002
0203
0320
2030
,  // measure 60
3002
0000
0023
0000
0230
0000
2300
0000
3100
0010
0000
0011
0000
0001
1000
0000
,  // measure 61
1010
0100
0001
0101
0001
0010
0011
1000
,  // measure 62
0100
2200
0000
0000
0000
0000
0000
0000
,  // measure 63
0000
0004
0000
0000
,  // measure 64
0000
0000
0000
0000
,  // measure 65
3303
0000
0000
0000
;
