#TITLE:Y2Z;
#SUBTITLE:;
#ARTIST:Affinity;
#TITLETRANSLIT:;
#SUBTITLETRANSLIT:;
#ARTISTTRANSLIT:;
#GENRE:Hardcore;
#CREDIT:;
#BANNER:Y2Z-bn.png;
#BACKGROUND:Y2Z-bg.png;
#LYRICSPATH:;
#CDTITLE:;
#MUSIC:Y2Z.ogg;
#OFFSET:-0.011;
#SAMPLESTART:29.620;
#SAMPLELENGTH:11.840;
#SELECTABLE:YES;
#BPMS:0.000=162.000;
#STOPS:12.000=1.111
,202.875=0.741;
#BGCHANGES:-0.011=Y2Z_Intro.mpg=1.000=0=0=1=====,
12.500=FX_084_JumpBack_NTSC_DV=1.400=0=0=1=====,
29.000=FX_322_JumpBack_NTSC_DV=1.400=1=0=1===CrossFade==,
41.000=FX_259_JumpBack_NTSC_DV=1.000=0=0=1=====,
45.000=272_JumpBack_NTSC_DV=1.400=0=0=1=====,
53.000=272_JumpBack_NTSC_DV[R]=1.000=0=0=1=====,
61.000=272_JumpBack_NTSC_DV=1.000=0=0=1=====,
65.000=272_JumpBack_NTSC_DV[R]=1.000=0=0=1=====,
69.000=272_JumpBack_NTSC_DV=1.000=0=0=1=====,
70.000=272_JumpBack_NTSC_DV[R]=1.000=0=0=1=====,
77.000=FX_718_JumpBack+639_JumpBack=1.000=0=0=1=====,
93.000=FX2_718_JumpBack+639_JumpBack=1.000=0=0=1=====,
97.000=FX_718_JumpBack+639_JumpBack=1.000=0=0=1=====,
101.000=FX2_718_JumpBack+639_JumpBack=1.000=0=0=1=====,
105.000=SBG_464_JumpBack=1.400=0=0=1=====,
109.000=FX_643_JumpBack=1.000=0=0=1=====,
125.000=SBG_464_JumpBack=1.400=0=0=1=====,
137.000=SBG_751_JumpBack=1.000=0=0=1=====,
141.000=In The Groove 2/751_JumpBack.mpg=1.000=0=0=1=====,
157.000=718_JumpBack.avi=1.000=1=0=1===CrossFade==,
173.000=SBG_446_JumpBack=1.000=0=0=1=====,
189.000=SBG_744_JumpBack=1.400=0=0=1=====,
193.000=SBG_318_JumpBack_NTSC_DV=1.400=0=0=1=====,
197.000=SBG_464_JumpBack=1.400=0=0=1=====,
201.000=SBG_751_JumpBack=1.000=0=0=1=====,
202.875=FX_272_JumpBack_NTSC_DV=1.000=0=0=1=====,
203.000=272_JumpBack_NTSC_DV[R]=1.400=0=0=1=====,
211.000=272_JumpBack_NTSC_DV=1.000=0=0=1=====,
219.000=272_JumpBack_NTSC_DV[R]=1.000=0=0=1=====,
223.000=272_JumpBack_NTSC_DV=1.000=0=0=1=====,
227.000=272_JumpBack_NTSC_DV[R]=1.000=0=0=1=====,
228.000=272_JumpBack_NTSC_DV=1.000=0=0=1=====,
235.000=FX_718_JumpBack+639_JumpBack=1.000=0=0=1=====,
251.000=FX2_718_JumpBack+639_JumpBack=1.000=0=0=1=====,
255.000=FX_718_JumpBack+639_JumpBack=1.000=0=0=1=====,
259.000=FX2_718_JumpBack+639_JumpBack=1.000=0=0=1=====,
263.000=SBG_464_JumpBack=1.400=0=0=1=====,
267.000=259_JumpBack_NTSC_DV.avi=1.000=0=0=1=====,
279.000=259_JumpBack_NTSC_DV.avi=1.000=0=0=1=SongBgWithMovieViz===0^0^1^1=,
279.500=259_JumpBack_NTSC_DV.avi=1.000=0=0=1=SongBgWithMovieViz===0.5^0.5^0.5^1=,
280.500=259_JumpBack_NTSC_DV.avi=1.000=0=0=1=SongBgWithMovieViz===0^1^1^1=,
281.500=259_JumpBack_NTSC_DV.avi=1.000=0=0=1=SongBgWithMovieViz===0^1^0^1=,
283.000=y2z-bg.png=1.000=0=0=1=====,
99999=-nosongbg-=1.000=0=0=0 // don't automatically add -songbackground-;
#BGCHANGES2:12.500=flash=1.000=0=0=1=====,
77.000=flash=1.000=0=0=1=====,
141.000=flash=1.000=0=0=1=====,
189.000=flash=1.300=0=0=1=====,
193.000=flash=1.300=0=0=1=====,
195.500=yellow flash=1.300=0=0=1=====,
197.000=flash=1.300=0=0=1=====,
199.000=yellow flash=1.300=0=0=1=====,
200.500=flash=1.300=0=0=1=====,
201.000=yellow flash=1.300=0=0=1=====,
235.000=flash=1.000=0=0=1=====,
267.000=flash=1.000=0=0=1=====,
283.000=flash=1.000=0=0=1=====,;
#KEYSOUNDS:;

//---------------dance-single - K. Ward----------------
#NOTES:
     dance-single:
     K. Ward:
     Hard:
     9:
     0.668,0.000,0.129,0.176,0.346:
0000
0000
0000
0000
,
0000
0000
0000
0000
,
0001
1000
0100
0000
0001
0100
0010
0000
,
1001
0000
1000
0100
0010
0001
1000
0100
,
0010
0001
0100
0010
0100
1000
0100
0010
,
0100
0001
1000
0100
0010
0001
1000
0100
,
0010
0001
0010
1000
0010
0001
0010
0100
,
0010
0001
1000
0010
0100
1000
0100
0001
,
0100
1000
0100
0010
0100
0001
0010
0100
,
1000
0010
0001
0010
0100
0010
0001
0010
,
0100
0000
0000
0000
0001
1000
0001
0000
1000
0000
0000
0100
0000
0010
0001
0000
,
0100
0000
0010
0000
1000
0000
0001
1000
0000
0000
0100
0000
0010
0000
0100
1000
,
0000
0000
0010
0000
0100
0000
1000
0000
0100
0000
0010
0100
0000
0000
0001
0010
,
0001
0000
0000
0000
1000
0000
0001
1000
0000
0000
0100
0000
0010
0000
0100
1000
,
0000
0000
0010
0000
0100
0000
0010
0000
0001
0000
0010
0100
0000
0000
0001
1000
,
0001
0000
0000
0000
1000
0100
1000
0000
0010
0000
0100
0000
0001
0000
0010
0001
,
0000
0001
0000
0000
0100
0010
0100
0000
0010
0000
1000
0000
0100
0000
0010
0000
,
0000
0100
0000
0000
1000
0000
0000
0000
0100
0000
0000
0000
0001
0000
0000
0000
,
0100
0000
0000
0000
1000
0001
1000
0000
0010
0000
0000
0100
0000
0001
0010
0000
,
0100
0000
0000
0000
1000
0000
1000
0100
0000
0000
0010
0000
0100
0000
0100
1000
,
0000
0000
0010
0000
0100
0000
1000
0000
0100
0000
0010
0100
0000
0000
0001
1000
,
0001
0000
0000
0000
1000
0000
0001
0010
0000
0000
0100
0000
0010
0000
0010
0001
,
0000
0000
0100
0000
0010
0000
0001
0000
0010
0000
0100
0010
0000
0000
1000
0100
,
1000
0000
0000
0000
0001
1000
0001
0000
0100
0000
0010
0000
0100
0000
0011
0000
,
0000
0000
0000
0000
1000
0100
1000
0000
0100
0000
0010
0000
0100
0000
1001
0000
,
0000
0000
0100
0000
0010
0000
0001
0100
,
1000
0000
0000
0000
0001
0010
0001
0000
0100
0000
0000
0010
0000
1000
0100
0000
,
0010
0000
0100
0000
2000
0000
0000
0000
0100
3000
0000
0000
0002
0000
0000
0000
,
0010
0003
0000
0000
0001
0000
0100
0000
1000
0000
0000
0000
1000
0000
0100
0000
,
0001
0000
0000
0000
0000
0000
0000
0000
2000
0000
0000
0000
0000
0000
0000
0000
0200
3000
0000
0000
0000
0000
0000
0000
0002
0300
0000
0000
0000
0000
0000
0000
,
0200
0003
0000
0000
0000
0000
0000
0000
2000
0300
0000
0000
0000
0000
0000
0000
0020
3000
0000
0000
0000
0000
0000
0000
0002
0030
0000
0000
0000
0000
0000
0000
,
0010
0003
0000
0000
0000
0000
0000
0000
2002
0000
0000
0000
0000
0000
0000
0000
0000
0000
0000
0000
0000
0000
0000
0000
0003
0000
0000
0000
0000
0000
0000
0000
,
3001
0000
0000
1000
0200
0000
0000
0000
0000
0000
0000
0000
0301
0000
0100
0000
,
1000
0000
0000
0000
0010
0100
0010
0000
0100
0000
0000
0000
1000
0000
0100
0000
,
0001
0000
0000
0000
1000
0001
1000
0000
0100
0000
0000
0010
0000
0001
1000
0000
,
0010
0100
1000
0100
0001
0100
1000
0100
,
0001
0100
0010
1000
0100
0001
0100
1000
,
0100
0001
0100
1000
0010
1000
0010
0001
,
0010
0001
0010
0100
0010
0100
0001
1000
,
1000
0000
0000
0100
0010
0000
0001
0000
0010
0000
0000
0000
0010
0000
0100
0000
,
2000
0000
0000
0000
0000
0000
0000
0000
0100
3000
0000
0000
0001
0000
0000
0000
0100
0000
0000
0000
1000
0000
0000
0000
0010
0000
0000
0000
0001
0000
0000
0000
,
0020
0000
0000
0000
0000
0000
0000
0000
0100
0030
0000
0000
0001
0000
0000
0000
0010
0000
0000
0000
0000
0000
0000
0000
0100
0000
0000
0000
0010
0000
0000
0000
,
0001
0001
0100
1000
0100
0100
0010
0100
,
0010
2002
0000
3003
,
0000
0020
0000
0030
,
0000
0000
0000
0000
1000
0000
0000
0010
0000
0000
0100
0000
0001
0000
0000
1000
,
0000
0000
0100
0000
0010
0000
0000
0100
0000
0000
0010
0000
0001
0000
0010
0000
,
0100
1001
0100
1100
,
0010
0000
0011
0000
0100
0000
0000
1001
,
0000
0110
0001
1100
,
0010
0000
0000
0000
0100
0000
0000
0000
2002
0000
0000
0000
0000
0000
0000
0000
0000
0000
0000
0000
0000
0000
0000
3003
M001
0000
0000
0000
1000
0000
0001
0000
,
0000
0000
0010
0000
0100
0000
0010
0001
0000
0000
0100
0000
0010
0000
1000
0000
,
0100
0000
0010
0100
0000
0000
1000
0001
1000
0000
0000
M000
0010
0000
0100
0001
,
0000
0000
0100
0000
0010
0000
1000
0100
0000
0000
1000
0000
0100
0000
0010
0000
,
0001
0000
0010
0001
0000
0000
0100
0010
0100
0000
0000
0M00
0001
1000
0001
0000
,
0100
0000
0010
0000
0100
0000
0001
0010
0000
0001
0000
0000
1000
0100
1000
0000
,
0010
0000
0100
0000
1000
0000
0100
0000
0000
0M10
0000
0000
1000
0000
0000
0000
,
0100
0000
0000
0000
0001
0000
0000
0000
0100
0000
0000
0000
1000
0010
1000
0000
,
0100
0000
0000
0001
0000
1000
0001
0000
0010
0000
0000
0000
0001
0000
0100
0010
,
0000
0000
0100
0000
0010
0000
1000
0001
0000
0000
1000
0000
0001
0000
0010
0000
,
0100
0000
0010
0100
0000
0000
1000
0001
1000
0000
0000
M000
0001
0000
0001
0010
,
0000
0000
0001
0000
0100
0000
0010
0100
0000
0000
0001
0000
1000
0000
0001
0000
,
1000
0000
0100
0010
0000
0000
0001
0010
0001
0000
0000
000M
0100
0010
0100
0000
,
0010
0000
0100
0000
0010
0000
1100
0000
0000
0000
0000
0000
1000
0001
1000
0000
,
0100
0010
0100
1001
0000
0000
0010
0100
,
1000
0000
0000
0000
0010
0000
0001
0000
0100
0000
0000
0000
0001
0010
0001
0000
,
0100
0000
0000
0010
0000
1000
0001
0000
0010
0000
0000
00MM
1000
0000
0100
0000
,
0010
0100
1000
0100
0010
0100
1000
0010
,
0001
0010
1000
0010
0001
0010
0100
0001
,
0010
1000
0010
0001
0010
1000
0010
0001
,
0100
0010
0100
0001
0010
0100
1000
0000
;

//---------------dance-single - R. McKanna----------------
#NOTES:
     dance-single:
     R. McKanna:
     Beginner:
     1:
     0.110,0.000,0.018,0.000,0.000:
0000
0000
0000
0000
,
0000
0000
0000
0000
,
0000
0000
0000
0000
,
0000
0100
0000
0000
,
0000
0100
0000
0000
,
0000
0001
0000
0000
,
0000
0001
0000
0000
,
0000
1000
0000
0000
,
0000
1000
0000
0000
,
0000
0010
0000
0000
,
0000
0010
0000
0000
,
0000
1000
0000
1000
,
0000
0001
0000
0000
,
0000
0001
0000
0001
,
0000
1000
0000
0000
,
0000
0100
0000
0000
,
0000
0100
0000
0000
,
0000
0100
0000
0000
,
0000
0000
0000
0000
,
0000
0001
0000
0100
,
0000
1000
0000
0100
,
0000
0001
0000
0100
,
0000
1000
0000
0100
,
0000
0001
0000
0000
,
0000
0001
0000
0000
,
0000
0001
0000
0000
,
0000
0000
0000
0000
,
0000
1000
0000
0000
,
0000
0100
0000
0000
,
0000
0010
0000
0000
,
0000
0001
0000
0000
,
0000
0001
0000
0000
,
0000
0010
0000
0000
,
0000
0100
0000
0000
,
0000
1000
0000
0000
,
0000
1000
0000
1000
,
0000
0001
0000
0001
,
0000
1000
0000
0010
,
0000
0100
0000
0001
,
0000
0001
0000
0001
,
0000
1000
0000
1000
,
0000
0001
0000
0010
,
0000
0100
0000
1000
,
0000
0001
0000
0000
,
0000
1000
0000
0000
,
0000
0010
0000
0000
,
0000
1000
0000
0000
,
0000
1000
0000
0000
,
0000
0001
0000
0000
,
0000
0010
0000
0000
,
0000
0001
0000
1000
,
0000
0000
0000
0001
,
0000
0000
0000
1000
,
0000
0000
0000
0001
,
0000
0000
0000
0010
,
0000
0000
0000
0010
,
0000
0000
0000
0100
,
0000
0000
0000
0000
,
0000
0000
0000
0001
,
0000
0000
0000
1000
,
0000
0000
0000
0001
,
0000
0000
0000
1000
,
0000
0000
0000
0010
,
0000
0000
0000
0100
,
0000
0000
0000
1001
,
0000
0000
0000
0000
,
0000
0000
0000
1000
,
0000
1000
0000
1000
,
0000
0000
0000
0001
,
0000
0001
0000
0001
,
0000
0000
0000
1001
;

//---------------dance-double - M.Lee----------------
#NOTES:
     dance-double:
     M.Lee:
     Hard:
     8:
     0.598,0.000,0.259,0.259,0.328:
00000000
00000000
00000000
00000000
,
00000000
00000000
00000000
00000000
,
00000000
00000000
00000000
00000000
,
00002020
00003030
00000000
00000000
00001000
00000000
00000000
00000000
00001010
00000000
00000000
00000000
00000100
00000000
00001000
00000000
,
00000010
00000000
00000100
00000000
00000101
00000000
00000010
00000001
,
00000100
00000000
00000001
00000100
00001000
00000000
00000100
00001000
,
00010000
00000000
00001000
00010000
00100000
00010000
00001000
00000010
,
00000001
00000000
00000000
00000001
00000100
00000000
00000000
00000000
00001010
00000000
00000000
00000000
00000100
00000000
00001000
00000000
,
00000010
00000000
00010000
00000000
00010100
00000000
00010000
00001000
,
01000000
00000000
00100000
00010000
00001000
00000000
00000010
00000100
,
00001000
00000010
00000100
00000001
00000100
00001000
00010000
01000000
,
10000000
00000000
00000000
00000000
00100000
00000000
00000000
00100000
00000000
00000000
01000000
00000000
00010000
00000000
00000000
00010000
,
00000000
10000000
00100000
10000000
00100000
10000000
00000000
01000000
,
01000000
00000000
01000000
00000000
00100000
00000000
00000000
00100000
00000000
00000000
00001000
00000000
00010000
00000000
00000000
00010000
,
00000000
00000100
00000010
00000100
00000010
00000100
00000000
00000001
,
00000001
00000001
00000100
00000010
00000001
00000010
00000100
00000000
,
00000001
00000100
00001000
00010000
00100000
10000000
10100000
10000000
,
00000000
00010000
00000000
00000000
02000000
00000000
00000000
00000000
00100000
00000000
00000000
00000000
13000000
00000000
00000000
00000000
,
10100000
00000000
00100000
00010000
00001000
00010000
01000000
10000000
,
11000000
00000000
00000000
00000000
00100000
00000000
00000000
00100000
00000000
00000000
10000000
00000000
00010000
00000000
00000000
00010000
,
00000000
01000000
00001000
01000000
00001000
01000000
00000000
00001000
,
00001000
00000000
00001000
00000000
00010000
00000000
00000000
00010000
00000000
00000000
00000010
00000000
00001000
00000000
00000000
00001000
,
00000000
00000001
00001000
00000001
00001000
00000010
00000000
00001000
,
00001000
00000000
00001000
00000000
00000100
00000000
00010000
00000000
00001000
00000000
00100000
00000000
00010000
00000000
00000000
00010000
,
00000000
10000000
01000000
00010000
00001000
00000010
00000001
00000001
,
00000000
00001000
00000000
00000000
00000200
00000000
00000000
00000000
00000001
00000000
00000000
00000000
00000010
00000000
00000000
00000000
,
00001300
00000000
00000001
00000010
00001000
00010000
00011000
00000000
,
00000100
00010000
00000100
00010000
00000200
00000000
00000000
00000000
0000M000
000000M0
00000000
0000M000
00000000
00000000
00000000
00000000
,
00000320
00000000
00000000
00000000
00000000
00000000
00000000
00000000
000M0000
00000000
00000000
00000000
00002030
00000000
00000000
00000000
0000000M
00000000
00000000
00000000
00000000
00000000
00000000
00000000
00000M00
00000000
00000000
00000000
00000000
00000000
00000000
00000000
00000000
00000000
00000000
00000000
000M0000
00000000
00000M00
00000000
00000000
00000000
00000000
00000000
00000000
00003000
00000000
00000000
,
01000000
00000000
M0000000
00001000
00000000
00000000
01000M00
00000000
000M0000
00001000
00000000
00000000
02M00000
00000000
00000000
00000000
00000000
00000000
00000000
00000000
00000000
00000000
00M00000
00000000
00000000
00000000
000M0000
00000000
00000000
00000000
00000000
00000000
00000000
00000000
00000000
00000000
03M20000
00000000
M000M000
00000000
00000000
00000000
00000000
00000000
0M000000
00000000
00000000
00000000
,
20030000
00000000
00000000
00000000
00000000
00000000
00000000
00000000
00M00000
00000000
00000000
00000000
32000000
00000000
00000000
00000000
00000000
00000000
00000000
00000000
00000000
00000000
00000000
00000000
M0000000
00000000
00000000
00000000
00000000
00000000
00M00000
00000000
00000000
03000000
00000000
00000000
00200000
00000000
M00M0000
00000000
00000000
00000000
00000000
00000000
00000000
00000000
0M000000
00000000
,
00310000
00000000
00000000
00100000
00000000
00000000
00001000
00000000
00000000
00100000
0M000000
00000000
00002000
00000000
00000000
00000000
00000000
00000000
00000000
00000000
00000000
00000000
00000000
00000000
00000000
00000000
00000000
00000000
00M00000
00000000
00000000
00000000
00000000
00000000
00000000
00000000
00000M00
00000000
00000000
00000000
00000000
00000000
0000000M
00000000
00000000
00000000
00000000
00000000
,
00003020
00000000
00000000
00000000
00000000
00000000
00000032
00000M00
00000000
00000000
00000000
00000000
00000000
00000000
00000000
00000000
00000M00
00000000
000000M0
00000000
00000000
00000000
0000M000
00000000
,
00000203
00000000
00000000
00000000
00000000
00000000
00000000
00000000
00000000
00000310
00000000
00000000
00002000
00000000
000M0000
00000000
00000000
00000000
000000M0
00000000
00000000
00000000
00000000
00000000
00000000
00000000
00000M00
00000000
00000000
00000000
00000000
00000000
00000000
00000000
00000000
00000000
00003200
00000000
00000000
00000000
000000M0
00000000
000M0000
00000000
00000000
00000000
00000000
00000000
,
00000320
0000M000
00000000
00000000
00000000
00000000
00M02030
00000000
00000000
00000000
00000000
00000M00
00023000
0M000000
00000000
00000000
00000000
00000000
02030000
00000000
00000000
00000000
00M00000
00000000
,
13000000
00000000
10000000
00000000
10200000
00000000
01300000
00010000
,
00100000
00000000
00001000
00000000
00010200
00000000
00010300
00001000
,
00000010
00000000
00000001
00000000
00000201
00000000
00000301
00000010
,
00001000
00000000
00010000
00100000
10000000
00000000
00100000
00010000
,
00001000
00000000
00000100
00000000
00000001
00000000
00000000
00000000
00000011
00000000
00000000
00000001
00001000
00000000
00000100
00000000
,
00010000
00000000
00000000
00000000
00001000
00000000
00000000
00000000
01001000
00000000
00000000
00001000
00010000
00000000
01000000
00000000
,
10000000
00000000
00000000
10000000
01000000
00000000
00100000
00000000
00001000
00000000
00000000
00010000
00100000
00000000
00010000
00000000
,
00001000
00000000
00000000
00001000
00000010
00000000
00001000
00000000
00010000
00000000
00000000
00001000
00010000
00000000
01000000
00000000
,
10000000
01000000
10000000
01000000
10000000
00000000
00000000
00000000
00000000
00000000
00000000
00000000
00100000
00000000
00010000
00100000
,
00010000
00000000
00000000
00000000
00000000
00000000
00000000
00000000
00000000
00000000
00000000
00000000
00001000
00000000
00010000
00000010
,
00010000
00000000
00000000
00000000
00000000
00000000
00000000
00000000
00000000
00000000
00000000
00000000
00001000
00000000
00001000
00000100
,
00001000
00000000
00000000
00000000
00000000
00000000
00000000
00000000
00000000
00000000
00000000
00000000
00000100
00000000
00000100
00010000
,
00000100
00000000
00011000
00000000
00000000
00000000
00001000
00010000
,
00100000
00000000
10010000
00000000
01000000
00001000
00010000
00010100
,
00000000
00001001
00000010
00010100
,
00001000
00000000
01000000
00000000
02010000
00000000
00000000
00000000
00000000
00000000
00000000
03000000
00100000
00000000
00000000
00100000
,
00000000
00000000
10000000
00000000
00010000
00000000
00000000
00010000
00000000
00000000
01000000
00000000
00001000
00000000
00010000
00000000
,
00000100
00000000
00001000
00000000
00000000
00000000
00000100
00000000
00000100
00000000
00000100
00000000
00000010
00000000
00000000
00000010
,
00000000
00000000
00000001
00000000
00000100
00000000
00000000
00000100
00000000
00000000
00000010
00000000
00010000
00000000
00001000
00000000
,
00100000
00010000
00000000
01000000
01000000
01000000
00100000
10000000
,
00010000
01000000
01000000
00000000
00100000
00010000
00001000
00000010
,
00000001
00000000
00000100
00000000
00000101
00000000
00000010
00000000
00000000
00001000
00000000
00000000
00000100
00000000
00000000
00000000
,
00010100
00000000
00000000
00001000
01000000
00000000
00000000
00000000
01010000
00000000
00000000
10000000
00010000
00000000
00100000
00000000
,
01000000
00000000
00010000
00000000
00001000
00000000
00000010
00000000
00000110
00000000
00000000
00000000
00000001
00000000
00000000
00000001
,
00000000
00000000
00001000
00000000
00000100
00000000
00000000
00000100
00000000
00000000
00010000
00000000
00001000
00000000
00100000
00000000
,
00001000
00000000
01000000
00000000
00000000
00000000
00010000
00000000
00010000
00000000
00010000
00000000
00100000
00000000
00000000
00100000
,
00000000
00000000
01000000
00000000
00010000
00000000
00000000
00010000
00000000
00000000
00001000
00000000
00010000
00000000
00000100
00000000
,
00001000
00000010
00000000
00001000
00001000
00001000
00000100
00000010
,
00000001
00000100
00001000
00000000
00000100
00001000
00010000
00100000
,
10000000
00000000
01000000
00000000
11000000
00000000
00010000
00000000
00000000
01000000
00000000
00000000
01000000
00000000
00000000
00000000
,
01100000
00000000
00000000
10000000
00010000
00000000
00000000
00000000
00010000
00000000
00000000
00010000
00100000
00000000
00001000
00000000
,
00010000
00000100
00001000
00000001
00001001
00000000
00000001
00000000
,
00000100
00000001
00000010
00000000
00000001
00000010
00001000
00000000
,
00000010
00001000
00010000
00000000
00001000
00010000
01000000
00000000
,
00010000
00001000
00000100
00000000
00000010
00001000
00010000
00000000
,
01000000
00001000
00010000
00100000
10000000
00000000
22000000
00000000
,
00000000
00000000
00000000
33000000
00000000
00000000
00000000
00000000
;

//---------------dance-double - M.Lee----------------
#NOTES:
     dance-double:
     M.Lee:
     Easy:
     3:
     0.223,0.000,0.120,0.009,0.000:
00000000
00000000
00000000
00000000
,
00000000
00000000
00000000
00000000
,
00000000
00000000
00000000
00000000
,
20000000
30000000
00100000
00000000
00000000
00000000
01000000
00000000
,
00000000
00010000
00000000
00100000
,
00000000
00001000
00000000
00010000
,
00000000
00000100
00000000
00000100
,
00000100
00000010
00000000
00000001
,
00000000
00001000
00000000
00000100
,
00000000
00001000
00000000
00010000
,
00000000
00001000
00010000
00001000
,
00010000
00001000
00000000
00100000
,
00000000
00001000
00100000
00100000
,
00000000
00010000
00000000
01000000
,
00000000
00010000
01000000
01000000
,
00000000
00100000
00000000
10000000
,
00000000
00010000
00000000
00100000
,
00000000
00001000
00000000
00011000
,
00000000
00001000
00001000
00001000
,
00001000
00010000
00000000
00001000
,
00000000
00010000
00001000
00001000
,
00000000
00010000
00000000
00000100
,
00000000
00001000
00000100
00000100
,
00000000
00000010
00000000
00000001
,
00000000
00000100
00000000
00000010
,
00000000
00001000
00000000
00001001
,
00000000
00000100
00001000
00000100
,
00001000
00001000
00000000
00000000
,
00000000
00000100
00000000
00000000
,
00000000
00010000
00000000
00001000
,
00010000
00010000
00000000
00000000
,
00000000
00001000
00000000
00000000
,
00000000
01000000
00000000
00000000
,
00000000
00010000
00000000
00000000
,
00000000
10000000
00100000
00100000
,
00000000
10000000
00000000
10010000
,
00000000
00010000
00000000
10010000
,
00000000
01000000
00000000
01010000
,
00000000
00010000
00000000
01010000
,
00000000
00001000
00000000
00011000
,
00000000
00010000
00000000
00011000
,
00000000
00010000
00000000
00000100
,
00000000
00001000
00000100
00000100
,
00000100
00000010
00000000
00000001
,
00000000
00000001
00000000
00000100
,
00000000
00000100
00000000
00000010
,
00000000
00000010
00000000
00001000
,
00000000
00001000
00000000
00001100
,
00000000
00010000
00000000
00011000
,
00010000
00010000
00000000
00001000
,
00000000
01001000
00000000
00010000
,
00000000
01000000
00000000
00010000
,
01000000
01000000
00000000
00100000
,
00000000
10000000
00000000
00100000
,
10000000
10000000
00000000
01000000
,
00000000
00100000
00000000
00001000
,
00000000
00010000
00000000
00001100
,
00000000
00000100
00000000
00000010
,
00000010
00000010
00000010
00000001
,
00000000
00000100
00000000
00000100
,
00000001
00000100
00000000
00000010
,
00000000
00001000
00000000
00001000
,
00000010
00001000
00000000
00000100
,
00000000
00010000
00000000
00000100
,
00000000
00001000
00000000
00001100
,
00000000
00000010
00000000
00010000
,
00001000
00010000
00001000
00010000
,
00000000
00001000
00000000
00100000
,
00000000
00010000
00000000
10000000
,
00000000
01000000
00000000
00100000
,
00000000
00010000
00000000
01000000
;

//---------------dance-double - M.Lee----------------
#NOTES:
     dance-double:
     M.Lee:
     Medium:
     5:
     0.377,0.000,0.166,0.037,0.000:
00000000
00000000
00000000
00000000
,
00000000
00000000
00000000
00000000
,
00000000
00000000
00000000
00000000
,
00020000
00030000
00100000
00000000
00010000
00000000
10000000
00000000
,
00000000
00100000
01000000
00010000
,
00000000
00100000
01000000
10000000
,
00000000
01000000
00010000
00001000
,
00001000
00001000
00000100
00000001
,
00000000
00000010
00000100
00001000
,
00000000
00010100
00001000
00000010
,
00010000
00000000
00001000
00000000
01000000
00000000
00010000
01000000
,
00010000
10000000
01000000
00010000
,
00000000
00000000
00001000
00000000
00010000
00001000
00000000
00000000
,
00000000
00010000
00000010
00001000
,
00000000
00000000
00000001
00000000
00000100
00000001
00000000
00000000
,
00000000
00000010
00000100
00001000
,
00000100
00010000
00001000
01000000
,
00010000
10000000
00000000
00000000
,
00000000
00100000
01000000
00010000
,
10000000
01000000
10000000
00100000
,
00010000
00000000
00001000
00000000
00010000
00000100
00000000
00000000
,
00000000
00001000
00000010
00000001
,
00000100
00000000
00001000
00000000
00000010
00010000
00000000
00000000
,
00000000
00001000
00100000
00010000
,
01000000
00100000
01000000
10000000
,
01000000
00001000
00010000
00000100
,
00001000
00000010
00000000
00000000
,
00000000
00000000
00000010
00000001
00000010
00000000
00000011
00000000
,
00000000
00000000
00001000
00000100
00001000
00000000
00001100
00000000
,
00000000
00000000
00010000
00001000
00010000
00000000
00011000
00000000
,
00000000
00000000
00001000
00100000
00001000
00000000
01000000
00010000
,
01000000
00000000
00010000
10000000
00010000
00000000
10010000
00000000
,
00000000
00000000
00100000
01000000
00100000
00000000
01100000
00000000
,
00000000
00000000
00010000
10000000
00010000
00000000
01000000
00001000
,
01000000
00000000
00001000
00010000
00001000
00010000
00000100
00001000
,
00000100
00001000
00000100
00000000
00000010
00000000
00000001
00000000
,
00000100
00000010
00001000
00000100
,
00010000
00001000
00010000
00100000
,
10000000
01000000
00010000
01000000
,
10000000
00100000
01000000
10000000
,
01000000
00001000
00010000
00000100
,
00000010
00000000
00000001
00000010
00000001
00000000
00000010
00000100
,
00000010
00000000
00000100
00010000
00000100
00010000
00001000
01000000
,
00001000
01000000
00001000
00000000
00000000
00000000
00100000
00000000
,
00100000
00110000
00000000
01000000
,
01000000
11000000
00000000
10000000
,
01000000
00110000
00000000
00100000
,
00001000
00010100
00000000
00001000
,
00000100
00000000
00000011
00000000
00000000
00000000
00000000
00001001
,
00000000
00001010
00010000
00011000
,
01000000
00000000
02020000
00000000
00000000
03030000
00100000
00000000
,
01000000
00010000
00000000
01000000
,
00001000
00010000
00000000
00000000
00001000
00000000
00000010
00000000
,
00000001
00000100
00001000
00010000
,
00001000
01000000
00000000
00000000
01000000
00000000
00010000
00000000
,
00100000
00100000
00000000
00001000
,
00010000
00000100
00000000
00000001
,
00001000
00000100
00000010
00000001
,
00001000
00000000
00000001
00001000
00000100
00000000
00001000
00000000
,
00000100
00010000
00010000
00001000
,
00100000
00010000
00000000
00000000
01000000
00000000
00100000
00000000
,
10000000
01000000
00010000
01000000
,
10000000
00010000
00000000
00000000
01000000
00000000
00010000
00000000
,
00100000
00000000
00001000
00010000
00001000
00000000
00010000
00000000
,
00000100
00000000
00000010
00000001
00000010
00000000
00000001
00000000
,
00000001
00000000
00001000
00000000
00001000
00000000
00000100
00010000
,
00000100
00010000
00001000
00010000
00001000
00100000
00010000
00000000
,
01000000
01010000
00000000
00100000
,
00001000
00101000
00000000
00010000
,
00000100
00001100
00010000
00001000
,
01000000
10000000
10000000
20000000
,
00000000
30000000
00000000
00000000
00000000
00000000
00000000
00000000
;

//---------------dance-double - J.Casarino----------------
#NOTES:
     dance-double:
     J.Casarino:
     Challenge:
     10:
     0.806,0.000,0.305,0.268,0.605:
00000000
00000000
00000000
00000000
,
00000000
00000000
00000000
00000000
,
00001000
00000000
00100000
00001000
00000000
00000000
00000000
00000000
00010000
00000000
00000010
00010000
00000000
00000000
00000000
00000000
,
00044000
00033000
00000000
00000000
00011000
00000000
00001000
00000000
00010000
00000000
00100000
00000000
00010000
00000000
00001000
00000000
,
00200000
00010000
00001000
00310000
00000010
00001000
00000100
00000010
,
00000200
00000000
00000001
00000000
00000010
00000300
00000001
00000000
00000100
00000000
00001000
00000000
00010000
00000000
00001000
00000000
,
00000200
00000000
00000010
00000000
00001000
00000300
00010000
00000000
01000000
00000000
00010000
00000000
00001000
00000000
01000000
00000000
,
00200000
00000000
10000000
00000000
01000000
00300000
00010000
00000000
10000000
00000000
00100000
00000000
10000000
00000000
01000000
00000000
,
00200000
00000000
00010000
00000000
01000000
00300000
00010000
00000000
00001000
00000000
00100000
00000000
00010000
00000000
10000000
00000000
,
00200000
00000000
01000000
00000000
00010000
00300000
00001000
00000000
00100000
00000000
01000000
00000000
00100000
00000000
00001000
00000000
,
00010000
00000000
00000100
00000000
00001000
00000010
00001000
00000000
00000010
00000000
00000100
00000001
00000000
00000001
00000100
00000000
,
00000010
00001000
00000010
00010000
00001000
00000000
00001000
01000000
00000000
00000000
00010000
00000000
01000000
00000000
01000000
00010000
,
00000000
00000000
10000000
00000000
00100000
00000000
01000000
00000000
00010000
00000000
01000000
00100000
00000000
00000000
10000000
01000000
,
10000000
00000000
00000000
00000000
00010000
00000000
00010000
00100000
00000000
00000000
00001000
00000000
00010000
00000000
00010000
00000100
,
00000000
00000000
00001000
00000000
00000100
00000000
00000010
00000000
00000001
00000000
00000010
00000100
00000000
00000000
00001000
00000001
,
00001000
00000000
00000000
00000000
00000001
00000100
00000001
00000000
00001000
00000010
00001000
00000000
00000100
00000000
00010000
00001000
,
00000000
00001000
00000000
00000000
01000000
00001000
01000000
00000000
00000100
00010000
00000100
00000000
00001000
00000000
00000010
00000000
,
00010000
00001000
00000000
00000000
00001100
00000000
00000000
00000000
00010100
00000000
00000000
00000000
01001000
00000000
00000000
00000000
,
00110000
00000000
00000000
00000000
01000000
00001000
01000000
00000000
00100000
00000000
01000000
00010000
00000000
00010000
00100000
00000000
,
01000000
10000000
00010000
10000000
00100000
00000000
00100000
10000000
00000000
00000000
01000000
00000000
00100000
00000000
00100000
00001000
,
00000000
00000000
00100000
00000000
00010000
00000000
01000000
00000000
00001000
00000000
00010000
00000010
00000000
00000000
00001000
00000001
,
00001000
00000000
00000000
00000000
00000010
00000000
00000010
00010000
00000000
00000000
00000001
00000000
00001000
00000000
00001000
00000010
,
00000000
00000000
00000100
00000000
00000001
00000000
00000010
00000000
00000100
00000000
00010000
00001000
00000000
00000000
01000000
00100000
,
01000000
00000000
00000000
00000000
00100000
10000000
00100000
00000000
01000000
00010000
01000000
00000000
00001000
00000000
00010000
00000100
,
00000000
00001000
00000000
00000000
00001000
00000010
00000100
00000000
00000001
00000100
00000010
00000000
00010000
00000000
00000100
00000000
,
00000000
00001100
00000000
00000000
00010010
00000000
00000000
00000000
00001100
00000000
00000000
00000000
00110000
00000000
00000000
00000000
,
01001000
00000000
00000000
00000000
00001000
00010000
00001000
00000000
00010000
00000000
00000010
00001000
00000000
00001000
00000100
00000000
,
00000010
00000001
00000100
00000001
00000020
00000000
00000000
00000000
00000200
00000000
00000030
00000000
02000000
00000000
00000300
00000000
,
00001000
03000000
00020000
00000000
00000020
00030000
00000200
00000030
,
00000310
00001000
00000001
00000200
00000020
00000000
00000300
00000000
00010000
00000000
00000030
00000000
00200000
00000000
00000000
00000000
,
20000000
00300000
00020000
30000000
02000000
00030000
03002000
00000000
,
00103000
00010000
10000000
02000000
00200000
00000000
03000000
00000000
00002000
00000000
00300000
00000000
00000200
00000000
00003000
00000000
,
00001000
00000300
00010000
00000000
00000200
00000000
00000020
00000300
,
00001030
00020000
10000000
02030000
,
00001000
00000000
03000000
00000000
00100000
01000000
00100000
00000000
01000000
00000000
00100000
00010000
00000000
00010000
01000000
00000000
,
00010000
00100000
00001000
00010000
00001000
00000000
00010000
00000000
00011000
00000000
00001000
00000000
01000000
00000000
00100000
00000000
,
10100000
10000000
00010000
01000000
01001000
00001000
00010000
00000100
,
00001100
00001000
00000010
00000100
00000101
00000001
00000010
00000100
,
00001100
00000100
00010000
00001000
01001000
01000000
00001000
00010000
,
00101000
00000000
00000000
00010000
00001000
00000000
00010000
00000000
01000000
00000000
00010000
00000000
00001000
00000000
01000000
00000000
,
00001000
00010000
00001000
01000000
00100000
10000000
01000000
00100000
,
00001000
01000000
00001000
00010000
00000100
00000010
00000001
00000100
,
00000010
00000000
00001000
00000000
00010000
00000000
01000000
00000000
00100000
00000000
00000000
10000000
00000000
01000000
00100000
00000000
,
00010000
00100000
00001000
00010000
00001000
00000000
00000000
00M1MM00
00000000
00000000
00000000
00000000
M00M1M00
00000000
00000000
1M00M000
,
00000000
00000000
00000000
00000000
00M00M1M
00000000
00000000
0M1M00M0
00000000
00000000
00000000
00000000
0M00M1M0
00000000
00000000
M1M00M00
,
00000000
00000000
00000000
00000000
000M00M1
00000000
00000000
00M1M00M
00000000
00000000
00000000
00000000
0M000M1M
00000000
00000000
M1M000M0
,
00000000
00000000
00000000
00000000
00M0M1M0
00000000
00000000
0M1M0M00
00000000
00000000
00000000
00000000
000M1M00
00000000
00000000
00M1M000
,
00000000
00000000
00000000
00000000
00000001
00000100
00000001
00000000
00000100
00000010
00000100
00000000
00000010
00010000
00000010
00000000
,
00010000
00001000
00010000
00000000
00001000
01000000
00001000
00000000
01000000
00010000
01000000
00000000
00100000
10000000
00100000
00000000
,
01000000
00001000
01000000
00000000
00001000
00010000
00000010
00000000
00010000
00001000
01000000
00000000
00100000
10000000
00010000
00000000
,
01000000
00100000
10000000
00000000
40040000
00000000
00000000
00000000
00000000
00000000
00000000
30030000
MM1M0000
00000000
01000000
00001000
,
00000000
00000000
00010000
00000000
00100000
00000000
01000000
00010000
00000000
00000000
01000000
00000000
00100000
00000000
01000000
00000000
,
00010000
00000000
00100000
00001000
00000000
00000000
00010000
00000010
00010000
00000000
000M00M0
00000000
00010000
00000000
00001000
01000000
,
00000000
00000000
00010000
00000000
00001000
00000000
00010000
00000010
00000000
00000000
00001000
00000000
00000100
00000000
00010000
00000000
,
00001000
00000000
00100000
00010000
00000000
00000000
00100000
00001000
00100000
00M0M000
00000000
00000000
00100000
10000000
00010000
00000000
,
01000000
00100000
10000000
00000000
01000000
00000000
00100000
00001000
00000000
00001000
00000000
00000000
01000000
00001000
01000000
00000000
,
00000100
00010000
00000100
00000000
00001000
00000000
00000010
00000000
00000000
00001100
00000000
00000000
00010010
00000000
00000000
00000000
,
00001100
00000000
00000000
00000000
01001000
00000000
00000000
00000000
00110000
00000000
00000000
00000000
00100000
10000000
01000000
00000000
,
01000000
00000000
00100000
00001000
00000000
00001000
00010000
00000000
00010000
00000100
00001000
00000010
00001000
00000000
00000010
00001000
,
00000000
00000000
00000001
00000000
00000100
00000000
00000010
00001000
00000000
00000000
00000010
00000000
00000100
00000000
00000001
00000000
,
00001000
00000000
00000010
00010000
00000000
00000000
00001000
01000000
00001000
00000000
0M00M000
00000000
00010000
00000000
00100000
01000000
,
00000000
00000000
00010000
00000000
00100000
00000000
01000000
10000000
00000000
00000000
01000000
00000000
00100000
00000000
00001000
00000000
,
00010000
00000000
00000100
00010000
00000000
00000000
00001000
00010000
00001000
00000000
00000000
00000000
00010000
00000010
00001000
00000000
,
00000010
00001000
00000010
00000000
00010000
00000000
00001000
01000000
00000000
00010000
00000000
00000000
10000000
01000000
00100000
00000000
,
01000000
10000000
00100000
00000000
01000000
00000000
00010000
00100000
00000000
00001000
00000000
00000000
00011000
00000000
00000000
00000000
,
00100010
00000000
00000000
00000000
00011000
00000000
00000000
00000000
01000100
00000000
00000000
00000000
01000000
00001000
01000000
00000000
,
00010000
00000000
00001000
00010000
00000000
00000100
00010000
00000000
00010000
00001000
00100000
00001000
00010000
00000000
00000010
00000000
,
00001000
00000100
00001000
00000000
00000001
00000000
00000010
00000000
00000100
00001000
00000100
00000000
00001000
00000000
00000010
00000000
,
00010000
00001000
00010000
00000000
00001000
00000000
00100000
00000000
00010000
10000000
00010000
00000000
00100000
00000000
01000000
00000000
,
00100000
00001000
00010000
00000000
00001000
00000000
00010000
00000000
00000100
00010000
00001000
00000000
00010000
00000000
01001000
00000000
,
00000000
00000000
01100000
00000000
00000000
00000000
10010000
00000000
00010000
00100000
00010000
10000000
22000000
00000000
00000000
00000000
,
00000000
00000000
00000000
33000000
00000000
00000000
00000000
00000000
;

//---------------dance-single - K. Ward----------------
#NOTES:
     dance-single:
     K. Ward:
     Easy:
     4:
     0.248,0.000,0.203,0.092,0.000:
0000
0000
0000
0000
,
0000
0000
0000
0000
,
0000
0000
0000
0000
,
0010
0001
0000
1000
,
0000
0001
0000
1000
,
0000
0001
0000
1000
,
0000
0100
0000
1000
,
1000
0010
0000
0100
,
0000
0010
0000
0100
,
0000
0001
0001
1000
,
1000
0200
0000
0300
,
0000
1001
0000
0100
,
0000
0100
0010
0100
,
0000
1001
0000
0010
,
0000
0100
0010
0100
,
0000
1000
1000
1000
,
0000
0001
0001
0001
,
0000
0100
0010
0100
,
0010
0200
0000
0300
,
0000
1001
0000
0010
,
0000
1001
0000
0100
,
0000
1001
0000
0010
,
0000
1001
0000
0100
,
0000
0001
0001
0001
,
0000
1000
1000
1000
,
0000
0100
0100
0010
,
0000
2002
0000
3003
,
0000
0000
1000
0000
0000
1000
0000
0000
,
0000
0000
0001
0000
0000
0001
0000
0000
,
0000
0100
0100
0100
,
0000
0020
0000
0030
,
0000
0000
1000
0000
0000
0100
0000
0000
,
0000
0000
0001
0000
0000
0010
0000
0000
,
0000
0100
0010
0100
,
0010
0100
0000
1001
,
0000
0010
0001
0100
,
1000
0010
0001
0100
,
1000
1001
0000
0110
,
0000
2002
0000
3003
,
0000
0100
0001
0010
,
1000
0100
0001
0010
,
1000
1001
0000
0110
,
0000
0000
1001
0000
0000
0010
0000
0000
,
0000
0200
0000
0000
,
0000
0300
0000
0000
,
0000
0000
0000
0000
,
0000
0000
0000
0000
,
0000
0001
1000
0001
,
1000
0000
0001
0000
0000
0000
0000
1000
,
0000
0100
0100
0010
,
0000
1001
0000
0110
,
0000
1000
0000
1000
,
0001
1000
0000
0110
,
0000
0001
0000
1000
,
0001
1000
0000
0100
,
0100
0100
0000
0010
,
0010
0010
0000
0001
,
0000
1000
0000
0002
,
0000
0003
0000
0110
,
0000
0001
0000
0110
,
0000
1000
0000
0110
,
0000
0001
0000
0110
,
0000
1000
0000
0100
,
0100
0100
0000
0010
,
0010
0010
0000
0001
,
0000
1000
0000
0002
,
0000
0003
0000
0100
,
0100
0000
0000
0010
,
0010
0000
0000
1000
,
1000
0000
0000
0100
,
0100
0010
0000
0000
0000
0000
1001
0000
;

//---------------dance-single - K. Ward----------------
#NOTES:
     dance-single:
     K. Ward:
     Medium:
     6:
     0.321,0.000,0.074,0.102,0.065:
0000
0000
0000
0000
,
0000
0000
0000
0000
,
0000
0000
0000
0000
,
0010
0000
1000
0000
1000
0000
0000
0001
,
0001
0000
0100
0000
0100
0000
0000
0010
,
0010
0000
1000
0000
1000
0000
0000
0100
,
0100
0000
0010
0000
0010
0000
0000
0100
,
0010
0000
0001
0000
0001
0000
0000
0100
,
0000
0000
1000
0000
1000
0000
0000
0100
,
0000
0000
0001
0000
0001
0000
0000
0100
,
0000
1001
0000
0000
,
0000
0000
0000
0000
0010
0000
0000
0010
0000
0000
0000
0000
0100
0000
0000
0100
,
0000
0001
1000
0001
,
0000
0000
0000
0000
1000
0000
0000
1000
0000
0000
0000
0000
0100
0000
0000
0100
,
0000
0001
1000
0001
,
0000
0100
0100
0010
,
0000
1000
1000
0100
,
0000
1000
0001
0100
,
1000
0100
0000
0000
,
0000
0000
0000
0000
0001
0000
0000
0001
0000
0000
0000
0000
1000
0000
0000
1000
,
0000
0100
0100
0100
,
0000
0000
0000
0000
1000
0000
0000
1000
0000
0000
0000
0000
0001
0000
0000
0001
,
0000
0100
0100
0100
,
0000
0000
1000
0000
0100
0000
0001
1000
,
0000
0000
0001
0000
1000
0000
0100
0010
,
0000
0000
0001
0000
1000
0000
0001
1000
,
0001
0100
0000
2002
,
0000
3003
0000
0000
,
0010
0200
0000
0300
,
0000
0001
1000
0100
,
0010
0200
0000
1300
,
0000
0002
0000
0000
,
0103
0020
0000
0000
,
0030
1000
1000
0001
,
0001
1001
0110
1001
,
0000
0100
0010
0100
,
0010
2000
0000
3000
,
0000
0100
0010
0001
,
0100
0010
1000
0100
,
1000
0002
0000
0003
,
1000
2000
0000
3000
,
0000
0000
0100
1000
0100
0000
0001
0010
,
0001
0000
1000
0001
1000
0001
1000
0000
,
0100
1001
0000
0000
,
0000
0000
0000
0000
,
0000
0001
0000
0000
,
0000
0100
0100
0100
,
0000
1000
0000
0000
,
0000
0000
0001
0000
0000
0000
0000
0100
,
0000
1000
0100
0010
,
0100
2002
0000
3003
,
0000
0000
0000
0000
0010
0000
0000
0010
0000
0000
0000
0000
1000
0000
0001
0000
,
1000
0001
1000
0000
0000
0000
0010
0000
,
0000
0000
0000
0000
0100
0000
0000
0100
0000
0000
0000
0000
0001
0000
1000
0000
,
0001
1000
0001
0000
0000
0000
0001
1000
,
0100
0010
0001
0000
0000
0000
0100
0010
,
0100
0010
0100
0000
0000
0000
0001
0000
,
0100
1000
0100
1001
,
0000
0000
0000
0000
0000
0000
0000
0000
0000
0000
0000
0000
1000
0000
0000
1000
,
0000
0000
0000
0000
0001
0000
0000
0001
0000
0000
0000
0000
0100
0000
0010
0000
,
0100
0000
0010
0000
0100
0000
0000
0000
0000
0000
0000
0000
0001
0000
0000
0001
,
0000
0000
0000
0000
1000
0000
0000
1000
0000
0000
0000
0000
0100
0000
0010
0000
,
0100
0010
0100
0000
0000
0000
1000
0000
,
1000
0000
1000
0100
0000
0000
0001
0000
,
0001
0000
0001
0010
0000
0000
0001
0000
,
0100
1000
0100
0001
,
1000
0000
0100
0010
0001
0000
0000
0100
,
0100
0000
0000
0001
0001
0000
0000
1000
,
1000
0000
0000
0100
0100
0000
0000
1000
,
1000
0000
0000
0001
0001
0000
0100
0000
,
0010
0000
1000
0100
0010
0001
1000
0000
;

//---------------dance-single - ----------------
#NOTES:
     dance-single:
     :
     Edit:
     11:
     0.945,0.033,0.203,0.333,0.919: // measure 1
0000
0000
0000
0000
,  // measure 2
0000
0000
0000
0000
0000
0000
0000
0010
,  // measure 3
1MM1
M1M1
11MM
1MM1
,  // measure 4
M22M
0330
0000
0000
0000
0000
0000
0000
0010
0000
1000
0000
0100
0000
0000
0000
0010
0000
0000
0000
0001
0000
0000
0000
0200
0000
0000
0000
1000
0000
0000
0000
,  // measure 5
0010
0000
0301
0000
0010
0100
1000
0000
0001
0000
0100
0000
0020
0000
0001
0000
,  // measure 6
0100
0000
1030
0000
0001
1000
0100
0000
0010
0000
0001
0000
2000
0000
0001
0000
,  // measure 7
0100
0000
3010
0000
0100
0001
0010
0000
0100
0000
1000
0000
0002
0000
0010
0000
,  // measure 8
2000
3003
0000
0010
1000
0000
0100
0000
1000
0000
0100
0000
0010
0000
0100
0000
,  // measure 9
0010
0100
0001
0100
0001
0100
0010
0100
,  // measure 10
0010
0001
1000
0001
1000
0001
0100
0001
,  // measure 11
0100
0000
0010
0000
0100
0001
0010
0000
0M10
0000
0010
0100
0000
0100
0010
0000
,  // measure 12
0210
0000
00M0
0000
1300
0000
0100
0001
0000
0000
0100
0000
1000
0000
0010
0001
,  // measure 13
0000
0000
0010
0000
1000
0000
0100
0000
0001
0000
0100
1000
0000
0000
0001
0100
,  // measure 14
0010
0000
0000
0000
0100
0000
0010
0001
0000
0000
0010
0000
1000
0000
0100
0001
,  // measure 15
0000
0000
0100
0000
1000
0000
0001
0000
0010
0000
0100
0001
0000
0000
0100
0010
,  // measure 16
0001
0000
0100
0000
0001
0100
0001
0000
1000
0100
0000
0000
0001
0000
0100
1000
,  // measure 17
0000
1000
0000
0000
0010
0100
0010
0000
1000
0000
0100
0000
1000
0000
0100
0000
,  // measure 18
0010
0000
0001
0000
2MM2
3003
0000
0000
1MM1
0000
0000
0000
M11M
0000
0000
0000
,  // measure 19
M11M
0000
0000
0000
0010
1000
0100
0000
01M0
0000
0010
0100
0000
0100
0010
0000
,  // measure 20
0120
0000
0M00
0000
0031
0000
0100
1000
0000
0000
0100
0000
0001
0000
0010
1000
,  // measure 21
0000
0000
0010
0000
0001
0000
1000
0000
0001
0000
0100
1000
0000
0000
0100
0001
,  // measure 22
0010
0000
0000
0000
0100
0000
0010
1000
0000
0000
0010
0000
0001
0000
0100
1000
,  // measure 23
0000
0000
0100
0000
0001
0000
1000
0000
0100
0000
0001
0100
0000
0000
1000
0001
,  // measure 24
0100
0000
0000
0000
0001
0100
0001
0000
1000
0100
0000
0000
0001
0000
0100
1000
,  // measure 25
0000
0000
1000
0000
0000
0000
0000
0000
0001
0000
0100
0000
0001
0000
0000
0000
0100
0000
0000
0000
0010
0000
0000
0000
0100
0000
0000
0000
0020
0030
0000
0000
,  // measure 26
1000
0000
0000
0000
0020
0030
0000
0000
2000
0000
0000
0000
0000
0000
0000
0000
0001
0000
0000
0000
0000
0000
0000
0000
0100
0000
0000
0000
0000
0000
0000
0000
,  // measure 27
3010
0000
0000
0000
1000
0100
0010
0000
0M10
0000
0100
0010
0000
0010
0100
0000
,  // measure 28
0010
0001
1000
0100
0010
0100
0010
0000
0001
0010
0001
0000
1000
0001
1000
0000
,  // measure 29
0020
0000
0000
0030
0100
0001
0100
0000
0010
0100
0010
0000
1000
0001
1000
0000
,  // measure 30
0001
0010
0100
1000
0001
0100
0001
0000
0100
0010
0100
0000
M02M
0000
0000
0000
,  // measure 31
2M3M
0000
0000
0000
3001
0100
0001
0000
1000
0100
1000
0000
02MM
0000
0000
0300
,  // measure 32
0010
0001
0010
0100
1000
0001
0100
0000
0010
1000
0100
0000
0010
0001
1000
0000
,  // measure 33
M0M2
0000
0000
0003
1000
0001
0010
0000
0100
0010
0001
0000
0100
0010
1000
0000
,  // measure 34
2M1M
0000
0000
3001
0010
0100
1000
0000
0010
0100
0001
0000
M2M0
0000
0000
0000
,  // measure 35
M3M2
0000
0000
0000
0013
0100
1000
0000
10M0
0000
0001
1000
0000
1000
0001
0000
,  // measure 36
0100
0001
1000
0010
0100
0001
0100
0001
0100
0010
0100
0010
1000
0010
1000
0001
,  // measure 37
0010
0100
1000
0001
0100
0010
0100
0010
1000
0010
1000
0010
0100
0010
0100
0001
,  // measure 38
1000
0010
0100
0001
1000
0100
1000
0100
1000
0001
1000
0001
1000
0010
1000
0010
,  // measure 39
0100
0001
0010
0100
0010
0001
0010
0001
0100
0001
0100
0001
0100
0010
0100
0010
,  // measure 40
0100
0001
1000
0100
0010
0001
0010
0001
0010
0100
0010
0100
0010
0001
0010
0001
,  // measure 41
0010
0001
0100
0010
1000
0001
1000
0001
1000
0100
1000
0100
0010
0100
0010
0100
,  // measure 42
1000
0001
0100
0010
2000
0000
3020
0000
0000
0000
0032
0000
0023
0000
0000
0000
,  // measure 43
0000
0000
2030
3200
0302
0203
0000
0320
,  // measure 44
0032
0000
0000
0003
1000
0000
0100
0001
0000
0000
0100
0000
0001
0000
0100
1000
,  // measure 45
0000
0000
0010
0000
0001
0000
0010
1000
0000
0000
0010
0000
1000
0000
0010
0001
,  // measure 46
0000
0000
0010
0000
1000
0000
0100
0001
0000
0000
0100
0000
1000
0000
0010
0001
,  // measure 47
0000
0000
0010
0000
1000
0100
1000
0000
0001
0100
0001
0000
1000
0100
0010
0000
,  // measure 48
0001
0100
0010
0000
1001
0000
0001
0100
0010
0000
1000
0001
0100
0000
0010
1000
,  // measure 49
0100
0000
0000
0000
1100
0000
0100
0010
0001
0000
1000
0001
0010
0000
0011
0000
,  // measure 50
0000
0000
0000
0000
0101
0000
0001
1000
0100
0000
0000
0000
1001
0000
1000
0001
,  // measure 51
0100
0000
0101
0000
M04M
0400
0000
0000
0000
0000
0000
0000
1330
0000
0100
0001
,  // measure 52
0000
0000
0100
0000
0001
0000
0100
1000
0000
0000
0010
0000
0001
0000
0010
0000
,  // measure 53
1000
0000
0100
0001
0000
0000
0001
0100
1000
0000
0010
0000
0001
0000
0010
1000
,  // measure 54
0000
0000
0001
0000
0010
0000
1000
0010
0000
0000
0001
0000
0100
0000
0010
0000
,  // measure 55
1000
0000
0010
0001
0000
0000
0001
0010
1000
0000
0010
0000
0010
1000
0010
0000
,  // measure 56
0100
0001
0000
0000
1000
0000
0100
0001
0000
0001
0000
0000
0100
1000
0001
0000
,  // measure 57
0100
0001
0000
0000
0100
0000
0010
0000
0100
0000
0010
0000
0100
0000
0001
0000
,  // measure 58
0100
0000
0001
0000
1000
0000
0001
0000
1000
0000
0001
0000
1000
0010
0100
0000
,  // measure 59
01M0
0000
0010
1000
0000
0001
0100
0000
0001
0100
0001
1000
0100
0000
0010
1000
,  // measure 60
0000
0000
0010
0000
0001
0000
0100
1000
0000
0000
0100
0000
0001
0000
0010
0000
,  // measure 61
1000
0000
0010
0001
0000
0000
1000
0001
0100
0000
0010
0000
0100
0000
0010
0001
,  // measure 62
0000
0000
0010
0000
1000
0000
0100
0001
0000
0000
0100
0000
1000
0000
0001
0000
,  // measure 63
0100
0000
0010
0001
0000
0000
0010
1000
0100
0000
0010
0000
0001
0100
0010
0000
,  // measure 64
0100
0001
0000
0000
0100
0000
0010
0001
0000
0001
0000
0000
0010
1000
0100
0000
,  // measure 65
0010
0000
0001
0000
0000
0000
0000
0000
0100
0000
0000
0000
0002
0003
0000
0000
1000
0000
0000
0000
0020
0030
0000
0000
0100
0000
0000
0000
0001
0000
0000
0000
,  // measure 66
0100
0000
0001
0000
1000
0000
0010
0000
1000
0000
0010
0000
0100
0001
1000
0000
,  // measure 67
1000
0000
0001
0100
0000
0010
1000
0000
0001
1000
0100
0010
0001
1000
0010
0100
,  // measure 68
0001
0010
0100
1000
0100
0010
0100
0010
0001
1000
0010
0100
0001
0100
0001
1000
,  // measure 69
0010
0100
0010
1000
0100
0010
0001
0010
0001
0100
0001
1000
0010
0100
0001
0010
,  // measure 70
0100
1000
0100
1000
0001
0100
0001
0010
0001
1000
0010
1000
0001
0000
M1M1
0000
,  // measure 71
0000
0000
1MM1
0000
0000
0000
MM11
0000
0000
0000
1000
0001
2MM2
0000
0000
0000
,  // measure 72
0000
0000
0000
3003
;

//---------------dance-single - D. Renzetti----------------
#NOTES:
     dance-single:
     D. Renzetti:
     Challenge:
     10:
     -1.000,-1.000,-1.000,-1.000,-1.000:
// measure 1
0000
0000
0000
0000
,  // measure 2
0000
0000
0000
0000
,  // measure 3
0001
0000
0100
0010
0000
0000
0000
0000
1000
0000
0010
0100
0000
0000
0000
0000
,  // measure 4
2002
3003
1MM1
0001
0100
0010
1000
0010
,  // measure 5
0100
0001
0000
0000
0010
0000
0001
0000
0100
0000
0010
0000
1000
0000
0010
0000
,  // measure 6
0100
0001
0100
0010
1000
0001
0010
0100
,  // measure 7
1000
0001
0000
0000
1000
0010
1000
0000
0001
0100
0001
0000
1000
0000
0010
0100
,  // measure 8
0010
0000
0000
1000
0001
0000
0100
0000
0001
0000
0010
0000
0100
0000
1000
0000
,  // measure 9
0010
0100
0010
1000
0001
0100
0010
1000
,  // measure 10
0001
0010
0001
0010
0001
0000
0000
0000
1000
0100
1000
0100
1000
0000
0000
0000
,  // measure 11
0010
0000
0100
0000
0001
0100
0001
0000
1000
0000
0010
0100
0000
0100
0001
0000
,  // measure 12
0100
0010
1000
0010
0100
0000
0001
1000
0000
0000
0011
0000
01MM
0000
0001
1000
,  // measure 13
0000
0000
0011
0000
01MM
0000
0010
0000
1000
0000
0010
0100
0000
0001
0010
0100
,  // measure 14
1000
0000
0000
0000
0010
0000
0100
0001
0000
0000
1100
0000
MM10
0000
0100
0001
,  // measure 15
0000
0000
1100
0000
MM10
0000
0100
0000
0001
0000
0100
0010
0000
1000
0100
0010
,  // measure 16
0001
0000
0000
0000
1000
0010
1000
0000
0001
0100
0001
0000
0100
0000
0010
1000
,  // measure 17
0000
1000
0000
0000
0001
0010
0100
0000
0010
0100
1000
0000
0010
0000
0100
0000
,  // measure 18
0000
0011
0000
0000
1100
0000
0000
0000
1001
0000
0000
0000
0101
0000
0000
0000
,  // measure 19
1010
0000
0000
0000
0010
1000
0001
0000
0100
0000
0001
1000
0000
1000
0010
0000
,  // measure 20
0100
0010
1000
0010
0100
0000
0001
0100
0000
0000
1010
0000
M1M0
0000
0001
0100
,  // measure 21
0000
0000
1010
0000
M1M0
0000
0001
0000
0010
0000
0001
0100
0000
0001
0010
0100
,  // measure 22
1000
0000
0000
0000
0010
0000
1000
0010
0000
0000
0101
0000
0M1M
0000
1000
0010
,  // measure 23
0000
0000
0101
0000
0M1M
0000
1000
0000
0010
0000
0100
0010
0000
1000
0100
0010
,  // measure 24
0001
0000
0000
0000
1000
0010
1000
0000
0001
0100
0001
0000
1000
0000
0010
0100
,  // measure 25
0000
0100
0000
0000
0001
0010
0100
0000
0010
0100
1000
0000
0001
0000
0100
0000
,  // measure 26
0010
1000
0000
0000
1100
0000
0000
0000
0110
0000
0000
0000
0011
0000
0000
0000
,  // measure 27
1001
0000
0000
0000
0001
0100
0001
0000
0010
0000
0001
1000
0000
1000
0010
0000
,  // measure 28
0100
0001
0100
0010
2000
0000
0000
0000
0200
0000
3000
0000
M002
0000
0300
0000
,  // measure 29
2M00
0003
002M
3000
M002
0030
02M0
0003
,  // measure 30
031M
1000
0001
0200
0020
0000
0300
0000
0200
0000
0030
0000
20M0
0000
0300
0000
,  // measure 31
0M02
3000
M020
0003
200M
0030
02M0
3000
,  // measure 32
M310
0001
1000
0200
0020
0000
0300
0000
2M00
0000
0030
0000
00M2
0000
3000
0000
,  // measure 33
M200
0000
0003
2300
002M
0000
3000
0000
M200
0000
0030
0000
00M2
0000
0300
0000
,  // measure 34
2M00
0000
0003
3020
020M
M000
0030
0000
0002
0000
0300
0000
0M20
0000
0003
0000
,  // measure 35
200M
0000
0030
0000
3010
0001
M100
0000
0010
0000
1000
0010
0000
0010
0100
0000
,  // measure 36
0001
0100
0010
1000
0001
0100
0001
0100
0001
0100
0001
0000
1000
0010
1000
0010
,  // measure 37
1000
0010
1000
0000
0001
0100
0001
0000
1000
0010
1000
0000
0010
0100
0010
0000
,  // measure 38
0100
0001
0010
0100
1000
0100
1000
0100
1000
0100
1000
0000
0001
0010
0001
0010
,  // measure 39
0001
0010
0001
0000
1000
0100
1000
0000
0001
0010
0001
0000
0010
0100
0010
0000
,  // measure 40
0001
1000
0100
0010
0001
1000
0001
1000
0001
1000
0001
0000
0100
0010
0100
0010
,  // measure 41
0100
0010
0100
0000
0001
1000
0001
0000
0100
0010
0100
0000
0001
0010
0001
0000
,  // measure 42
1000
0000
0000
0010
0100
0000
1000
0000
0100
0000
0001
0000
0100
0000
0000
0000
,  // measure 43
0010
0000
0001
0000
0010
0000
1000
0000
0100
0000
0000
0010
0000
0001
0100
0000
,  // measure 44
0010
0000
1000
0010
0100
0000
0001
1000
0M00
0000
000M
0000
M010
0000
0100
0001
,  // measure 45
00M0
0000
0M00
0000
100M
0000
0100
0010
0000
0000
0M00
0000
00M1
0000
M010
0100
,  // measure 46
0000
0000
000M
0000
1M00
0000
0010
0100
0000
0000
M0M0
0000
0M01
0000
0100
0010
,  // measure 47
M000
0000
0M00
0000
10M0
0000
0001
0010
M000
0000
0M00
0000
00M1
0000
1000
0100
,  // measure 48
0000
0010
0001
0100
0010
1000
0010
0000
0100
0010
0100
0000
0001
0100
0001
0000
,  // measure 49
0100
0010
0100
0000
0001
0010
0100
0000
1000
0100
0010
0000
0001
0100
0010
0000
,  // measure 50
1000
0010
0100
0000
0001
0100
0001
0000
0010
0100
1000
0000
0010
1000
0010
0000
,  // measure 51
1000
0100
0010
0000
0004
4000
0000
0000
0000
0000
0000
3003
MMM1
0000
0100
0010
,  // measure 52
0000
0000
1100
0000
MM01
0000
0100
0010
0000
0000
1100
0000
MM01
0000
0100
0000
,  // measure 53
0010
0000
1000
0001
0000
1000
0010
0100
0001
0000
0000
0000
1000
0000
0010
0100
,  // measure 54
0000
0000
0011
0000
10MM
0000
0010
0100
0000
0000
0011
0000
10MM
0000
0010
0000
,  // measure 55
0100
0000
0001
1000
0000
0001
0100
0010
1000
0000
0000
0000
0001
0010
0001
0000
,  // measure 56
1000
0100
1000
0000
0001
0000
0100
0010
0000
0010
0000
0000
1000
0100
0010
0000
,  // measure 57
0100
0010
0001
0000
1000
0000
0010
0000
0000
1100
0000
0000
0011
0000
0000
0000
,  // measure 58
0101
0000
0000
0000
1010
0000
0000
0000
0110
0000
0000
0000
0010
0100
0001
0000
,  // measure 59
0100
0000
0010
1000
0000
1000
0001
0000
0100
0010
1000
0100
0010
0000
0001
0100
,  // measure 60
0000
0000
1001
0000
M01M
0000
0001
0100
0000
0000
1001
0000
M01M
0000
0001
0000
,  // measure 61
0100
0000
0010
1000
0000
0001
0100
0010
1000
0000
0000
0000
0100
0000
1000
0010
,  // measure 62
0000
0000
1001
0000
M10M
0000
1000
0010
0000
0000
1001
0000
M10M
0000
1000
0000
,  // measure 63
0010
0000
0100
0010
0000
1000
0100
0010
0001
0000
0000
0000
1000
0100
1000
0000
,  // measure 64
0010
0100
0001
0000
0100
0000
0010
1000
0000
1000
0000
0000
0001
0010
0100
0000
,  // measure 65
0010
0100
1000
0000
0001
0000
0100
0000
0000
0011
0000
0000
1000
0000
0010
0100
,  // measure 66
0000
0000
0001
0000
0100
0000
0001
0010
0000
0000
0100
0000
1000
0010
0100
0000
,  // measure 67
0010
0000
0100
0001
0000
0001
0100
0000
0010
1000
0010
0100
0001
0000
0100
0000
,  // measure 68
0001
0010
0100
0000
1000
0000
0010
0000
0100
0001
0010
0000
0001
0000
0100
0000
,  // measure 69
0010
1000
0100
0000
0010
0001
0100
0000
0010
1000
0010
0000
0100
0000
0001
0000
,  // measure 70
1000
0010
0100
0000
0001
0000
0100
0000
0010
1000
0100
0000
0010
0000
0001
0000
,  // measure 71
0000
0000
01M1
0000
00M0
0000
0010
0000
1000
0100
1000
0100
22MM
0000
0000
0000
,  // measure 72
0000
0000
0000
3300
0000
0000
0000
0000
;
