#TITLE:Wham Bam Boogie;
#SUBTITLE:;
#ARTIST:Bambee;
#TITLETRANSLIT:;
#SUBTITLETRANSLIT:;
#ARTISTTRANSLIT:;
#GENRE:Silly Bubblegum Pop;
#CREDIT:;
#BANNER:Wham Bam Boogie-bn.png;
#BACKGROUND:Wham Bam Boogie-bg.png;
#LYRICSPATH:;
#CDTITLE:;
#MUSIC:Wham Bam Boogie.ogg;
#OFFSET:0.005;
#SAMPLESTART:35.520;
#SAMPLELENGTH:11.820;
#SELECTABLE:YES;
#BPMS:0.000=140.010;
#STOPS:;
#BGCHANGES:0.101=Wham Bam Boogie.mpg=1.000=1=0=0=StretchNoLoop==CrossFade==,
99999=-nosongbg-=1.000=0=0=0 // don't automatically add -songbackground-;
#KEYSOUNDS:;

//---------------dance-single - J. Frederick----------------
#NOTES:
     dance-single:
     J. Frederick:
     Easy:
     2:
     0.210,0.227,0.252,0.102,0.000,120.000,27.000,11.000,0.000,0.000,0.000,0.210,0.227,0.252,0.102,0.000,120.000,27.000,11.000,0.000,0.000,0.000:
0000
0000
0000
0000
,
0000
0000
0000
0000
,
0000
0000
0000
0000
,
0000
0000
0000
0000
,
0220
0000
0000
0330
,
1000
0000
0001
0000
,
0010
0100
1000
0100
,
1000
0000
0001
0000
,
0110
0000
0000
0000
,
1000
0000
0001
0000
,
0010
0100
1000
0100
,
0010
0000
0001
0000
,
0100
0000
0000
0000
,
0010
0000
1000
0000
,
0002
0000
0000
0003
,
0010
0000
0100
0000
,
2000
0000
0000
3000
,
0010
0000
0100
0000
,
0020
0000
0000
0030
,
1001
2002
0000
3003
,
0220
0000
0000
0330
,
1000
0000
0001
0000
,
0010
0000
0100
0000
,
1000
0000
0001
0000
,
1001
1001
1001
0000
,
0100
0000
0010
0000
,
1000
0000
0100
0000
,
0001
0000
0010
0000
,
0110
0110
0110
0000
,
1000
0000
1000
0000
,
0001
0000
0001
0000
,
0010
0000
0100
0000
,
0220
0000
0000
0330
,
1000
0000
0001
0000
,
0100
0010
1000
0000
,
0001
0000
0100
0000
,
0001
0010
0001
0000
,
0010
0000
0100
0000
,
1000
0100
1000
0000
,
0010
0000
0100
0000
,
1001
0000
0110
0000
,
1000
0000
0001
0000
,
0100
0000
0010
0000
,
1000
0000
0001
0000
,
0011
0011
0011
0000
,
0100
0000
1000
0000
,
0010
0000
0100
0000
,
0001
0000
0010
0000
,
0110
0110
0110
0000
,
1000
0000
0001
0000
,
0100
0000
0010
0000
,
1000
0000
0010
0000
,
0101
0101
0101
0000
,
0001
0000
0010
0000
,
0100
0000
1000
0000
,
0100
0000
0010
0000
,
1100
1100
1100
0000
,
1000
0000
0010
0000
,
0100
0000
0001
0000
,
0010
0000
0100
0000
,
1000
0000
0001
0000
,
1001
0000
0000
0000
;

//---------------dance-single - K. Ward----------------
#NOTES:
     dance-single:
     K. Ward:
     Hard:
     7:
     0.391,0.398,0.252,0.186,0.089,247.000,27.000,20.000,0.000,0.000,0.000,0.391,0.398,0.252,0.186,0.089,247.000,27.000,20.000,0.000,0.000,0.000:
0000
0000
0000
0000
,
0000
0000
0000
0000
,
0000
0000
0000
0000
,
0000
0000
0000
0000
,
1001
0000
0000
0000
0010
0000
0000
0020
0000
0000
0000
0000
0000
0000
0000
0000
,
0130
0000
0001
0000
,
1000
0000
0000
0000
0100
0000
0000
0100
0010
0000
0001
0000
0010
0000
0000
0000
,
0001
0000
0000
0100
0000
0000
0011
0000
0000
0000
0000
0000
0000
0000
0000
0000
,
0100
0000
0000
0010
0000
0000
1100
0000
0000
0000
0000
0000
0000
0000
0000
0000
,
0010
0100
1000
0100
,
0001
0000
0000
0000
1000
0000
0000
1000
0001
0000
0010
0000
0100
0000
0000
0000
,
0010
0000
0000
0010
0000
0000
0010
0000
0000
0000
0000
0000
0000
0000
0000
0000
,
0100
0000
0000
0010
0000
0000
0101
0000
0000
0000
0000
0000
0000
0000
0000
0000
,
2002
0000
0000
3000
0020
0000
0000
0003
,
0200
0000
0000
0000
0330
0001
1000
0001
,
0200
0000
0020
0300
,
0031
0000
0010
0000
0100
0001
0010
0000
,
2002
0000
0000
0003
0200
0000
0000
3000
,
0020
0000
0330
0100
,
0020
0100
1000
0130
,
1001
0000
0000
0000
0000
0000
1000
0001
,
1000
0000
0000
0000
0010
0000
0000
0100
0010
0000
0000
0000
0001
0000
0000
0000
,
0010
0000
0000
0000
0100
0000
0000
0100
0010
0000
0000
0000
1000
0000
0000
0000
,
1100
0000
0000
0000
0010
0000
0000
0010
0100
0000
0000
0000
0010
0000
0000
0000
,
0001
1000
0001
1000
,
1001
0000
0000
0000
0010
0000
0000
0010
0100
0000
0000
0000
1000
0000
0000
0000
,
0100
0000
0000
0000
0010
0000
0000
0010
0100
0000
0000
0000
0001
0000
0000
0000
,
0010
0000
0000
0000
0100
0000
0000
0100
0010
0000
0000
0000
0001
0000
0000
0000
,
1000
0001
1000
0001
,
0200
0000
0020
0300
,
2000
0000
3030
0000
,
0100
0000
0100
0000
0100
0010
0100
0000
,
1001
0000
0000
1001
,
1000
0100
0001
0100
1000
0100
0000
0100
,
0010
0100
0010
0001
0010
0001
0000
0001
,
0100
1000
0100
0010
0100
0010
0000
0010
,
0100
1000
0100
0000
0001
1000
0001
0000
,
1001
0000
1000
0100
1000
0100
0000
0100
,
0010
0100
1000
0100
0010
0001
0000
0001
,
0010
0100
1000
0100
0010
0100
0000
0100
,
0010
0100
0010
0100
,
1001
0000
0000
0000
0010
0000
0000
0010
0100
0000
0000
0000
0010
0000
0000
0000
,
0011
0000
0000
0000
0001
0000
0000
0001
0010
0000
0000
0000
0100
0000
0000
0000
,
1010
0000
0000
0000
0100
0000
0000
0100
0010
0000
0000
0000
0100
0000
0000
0000
,
0001
1000
0001
1000
,
1100
0000
0000
0000
0100
0000
0000
0100
0010
0000
0000
0000
0100
0000
0000
0000
,
0011
0000
0000
0000
0010
0000
0000
0010
0100
0000
0000
0000
0010
0000
0000
0000
,
0101
0000
0000
0000
0010
0000
0000
0010
0100
0000
0000
0000
1000
0000
0000
0000
,
0100
0010
0100
0001
,
0010
0000
1100
0000
0010
0001
0010
0100
,
0010
0000
1001
0000
0100
0010
0100
1000
,
0100
0000
1010
0000
0100
0010
0001
0010
,
0100
0010
0100
0001
,
0010
0000
1001
0000
0100
0010
0100
1000
,
0100
0000
1010
0000
0100
0010
0001
0010
,
0100
0000
0011
0000
0100
0010
0100
1000
,
0100
0011
0100
1001
,
2002
0000
0000
3003
,
0200
0000
0320
0000
,
2030
0000
0000
0000
,
3001
1000
0100
0010
,
0100
0000
0000
0000
;

//---------------dance-double - M.Emirzian----------------
#NOTES:
     dance-double:
     M.Emirzian:
     Easy:
     3:
     0.178,0.199,0.140,0.037,0.000,115.000,15.000,4.000,0.000,0.000,0.000,0.178,0.199,0.140,0.037,0.000,115.000,15.000,4.000,0.000,0.000,0.000:
00000000
00000000
00000000
00000000
,
00000000
00000000
00000000
00000000
,
00000000
00000000
00000000
00000000
,
00000000
00000000
00000000
00000000
,
20020000
00000000
00000000
30030000
,
10000000
00000000
00010000
00000000
,
10000000
00000000
00000000
00000000
,
00001000
00000000
00000000
00000000
,
00010000
00010000
00010000
00000000
,
00000001
00000000
00001000
00000000
,
00000001
00000000
00000000
00000000
,
00010000
00000000
00000000
00000000
,
00001000
00001000
00001000
00000000
,
01000000
00000000
00000000
00000000
,
00100000
00000000
10000000
00000000
,
01000000
00000000
00000000
00000000
,
00100000
00000000
00010000
00000000
,
00000000
00000000
00000000
00000000
,
01000000
00000000
00100000
00000000
,
00001000
00000000
00010000
00000000
,
00022000
00000000
00000000
00033000
,
00000100
00000000
00000000
00000001
,
00001000
00000000
00000000
00000010
,
00000100
00000000
00000010
00010000
,
00001000
00011000
00011000
00000000
,
01000000
00000000
00000000
10000000
,
01000000
00000000
00000000
00100000
,
00010000
00000000
01000000
00010000
,
00100000
00101000
00101000
00000000
,
00010000
00000000
00000000
00000000
,
00001000
00000000
00000000
00000000
,
00010000
00000000
00000000
00000000
,
00000100
00000000
00000000
00000010
,
00000001
00000000
00000100
00000000
,
00000010
00001000
00000010
00000000
,
00000100
00000000
00000001
00000000
,
00001000
00000100
00010000
00000000
,
00001000
00000000
01000000
00000000
,
00010000
01000000
00010000
00000000
,
10000000
00000000
00100000
00000000
,
01000000
00010000
01000000
00001000
,
00010000
00000000
00000000
00001000
,
00010000
00000000
00000000
00000100
,
00001000
00000000
00000010
00000100
,
00000001
00001001
00001001
00000000
,
00000010
00000000
00000000
00001000
,
00000100
00000000
00000000
00010000
,
00001000
00000000
01000000
00010000
,
00100000
01100000
01100000
00000000
,
10000000
00000000
00000000
00100000
,
10000000
00000000
00000000
01000000
,
00100000
00000000
00001000
00010000
,
00000100
00010100
00010100
00000000
,
00001000
00000000
00000000
00000010
,
00000100
00000000
00000000
00000001
,
00001000
00000000
00000010
00000100
,
00000001
00000101
00000101
00000000
,
00011000
00000000
00000000
00000000
,
00000000
00000000
00000000
00000000
,
00010000
00000000
00000000
00000000
,
00000000
00000000
00000000
00000000
,
10000000
00000000
00000000
00000000
;

//---------------dance-double - M.Emirzian----------------
#NOTES:
     dance-double:
     M.Emirzian:
     Medium:
     6:
     0.339,0.341,0.196,0.037,0.000,230.000,21.000,4.000,0.000,0.000,0.000,0.339,0.341,0.196,0.037,0.000,230.000,21.000,4.000,0.000,0.000,0.000:
00000000
00000000
00000000
00000000
,
00000000
00000000
00000000
00000000
,
00000000
00000000
00000000
00000000
,
00000000
00000000
00000000
00000000
,
02200000
00000000
00000000
03300000
,
00010000
00000000
10000000
00000000
,
01000000
00000000
00100000
00000000
00001000
00000000
00010000
00000100
,
00000000
00001000
00000100
00000010
,
00000001
00001000
00000010
00000000
,
00000100
00000000
00000001
00000000
,
00000100
00000000
00000010
00000000
00010000
00000000
00001000
01000000
,
00000000
00010000
01000000
00100000
,
10000000
00010000
00100000
00000000
,
01000000
10000000
00010000
00000000
,
01000000
00001000
00010000
00000000
,
00001000
00010000
00000100
00000000
,
00001000
00000100
00000010
00000000
,
00000001
00000000
00001000
00000000
,
00000010
00000001
00000100
00000000
00000010
00000000
00001000
00000000
,
00000100
00000010
00000001
00000000
00000100
00000000
00000010
00000000
,
00002020
00000000
00000000
00003030
,
00000010
00000000
00010000
00000000
00001000
01000000
00010000
00000000
,
01000000
00000000
00100000
00000000
10000000
01000000
00100000
01000000
,
10000000
00000000
00010000
00000000
01000000
00100000
10000000
00000000
,
10100000
11000000
00110000
00100000
,
00001000
00000000
00010000
00000000
00000100
00001000
00000001
00000000
,
00000010
00000000
00000100
00000000
00001000
00000001
00000100
00000001
,
00001000
00000000
00000010
00000000
00000100
00000001
00000010
00000000
,
00001100
00001010
00000101
00000010
,
00001000
00000000
00000100
00000000
,
00010000
00001000
01000000
00000000
,
00001000
00000000
01000000
00000000
,
00010000
01000000
00100000
10000000
,
01000000
00100000
00010000
00000000
00100000
01000000
00000000
00000000
,
00100000
00001000
00010000
00000000
00001000
01000000
00000000
00000000
,
00001000
00010000
00000010
00000000
00001000
00000010
00000000
00000000
,
00000100
00000001
00000010
00000000
00000100
00001000
00000001
00000000
,
00000100
00000010
00001000
00000000
00000010
00000100
00000000
00000000
,
00000001
00000100
00000010
00000000
00000100
00000001
00000000
00000000
,
00000010
00000100
00001000
00000000
00000100
00010000
00000000
00000000
,
00001000
01000000
00001000
00000000
01000000
00010000
10000000
00000000
,
01000000
00000000
00100000
00000000
00010000
10000000
00100000
00000000
,
01000000
00000000
00010000
00000000
00100000
01000000
00100000
00010000
,
00100000
00000000
01000000
00000000
10000000
00010000
01000000
00000000
,
00110000
01010000
10100000
00010000
,
00100000
00000000
00001000
00000000
00010000
00000100
00001000
00000000
,
00000010
00000000
00000100
00000000
00000001
00001000
00000100
00001000
,
00000001
00000000
00000100
00000000
00000010
00001000
00000001
00000000
,
00000011
00000101
00001010
00000100
,
00010000
00000000
00001000
00000000
01000000
00010000
10000000
00000000
,
01000000
00000000
00100000
00000000
00010000
01000000
00100000
01000000
,
00010000
00000000
10000000
00000000
01000000
00100000
00010000
00000000
,
01010000
00110000
11000000
00010000
,
01000000
00000000
00001000
00000000
00010000
00000100
00001000
00000000
,
00000010
00000000
00000100
00000000
00000001
00001000
00000001
00000100
,
00000010
00000000
00001000
00000000
00000100
00000010
00000001
00000000
,
00001001
00000110
00001001
00000100
,
00010000
00000000
00000000
00000000
,
00001000
00000000
00000000
00000000
,
01000000
00000000
00000000
00000000
,
00100000
00000000
00000000
00000000
,
10010000
00000000
00000000
00000000
;

//---------------dance-double - M.Emirzian----------------
#NOTES:
     dance-double:
     M.Emirzian:
     Hard:
     7:
     0.475,0.455,0.280,0.093,0.019,317.000,30.000,10.000,0.000,0.000,0.000,0.475,0.455,0.280,0.093,0.019,317.000,30.000,10.000,0.000,0.000,0.000:
00000000
00000000
00000000
00000000
,
00000000
00000000
00000000
00000000
,
00000000
00000000
00000000
00000000
10000000
00100000
00000000
01000000
,
00010000
00000000
00100000
00000000
00001000
00000000
00010000
00000000
00000010
00000000
00000000
00001000
00000100
00000000
00010000
00000000
,
00022000
00000000
00000000
00033000
,
00100000
00000000
00010000
00000000
01000000
00100000
00000000
00100000
,
10000000
00000000
01000000
00000000
00100000
00010000
10000000
00010000
,
00100000
00000000
01000000
00000000
00010000
00001000
00000000
00001000
,
00000100
00000000
00000001
00000000
00001000
00000100
00000010
00000100
,
00001000
00000000
00000001
00000000
00000100
00000010
00000000
00000010
,
00001000
00000000
00000100
00000000
00010000
00001000
00000100
00001000
,
00010000
00000000
01000000
00000000
10000000
00100000
00000000
00100000
,
01000000
00000000
00000000
00000000
00010000
00000000
00000000
00000000
10000000
00000000
00000000
01000000
00100000
00000000
00010000
00000000
,
20010000
00100000
00010000
31000000
,
00210000
10000000
01000000
00301000
,
00012000
01000000
00010000
00003100
,
00001010
00000000
00000000
00001001
00000000
00000011
00000000
00001000
,
00000120
00010000
00001000
00000031
,
00001200
00000010
00010000
00001300
,
00012000
00000100
00010000
01003000
,
20020000
00000000
00000000
30030000
,
00100000
00000000
10000000
01000000
00000000
00100000
00010000
00100000
,
01000000
00000000
10000000
00010000
00000000
01000000
00001000
00010000
,
00001000
00000000
00100000
00010000
00000000
01000000
00100000
10000000
,
10010000
00000000
00011000
00000000
00001001
00000001
00000010
00000100
,
00001000
00000000
00000001
00000100
00000000
00000010
00001000
00000010
,
00000100
00000000
00000001
00001000
00000000
00000100
00010000
00001000
,
00010000
00000000
00000010
00001000
00000000
00000100
00000010
00000001
,
00001001
00000000
00011000
00000000
10010000
00010000
10000000
00000000
,
00010000
00000000
01000000
00000000
,
00100000
10000000
01000000
00000000
,
00100000
00000000
00010000
01000000
,
00100000
00000000
00000000
00000000
10000000
00000000
00000000
00000000
01000000
00000000
00000000
00100000
00010000
00000000
00100000
00000000
,
00010000
00100000
00010000
00100000
01000000
10000000
01000000
10000000
,
00010000
01000000
00010000
01000000
00001000
00010000
00001000
00010000
,
00000100
00001000
00000100
00001000
00000001
00000100
00000001
00000100
,
00000010
00001000
00000010
00001000
00000001
00000010
00000001
00000010
,
00001000
00000010
00001000
00010000
00001000
00010000
00100000
00010000
,
00100000
10000000
00100000
10000000
01000000
10000000
01000000
00100000
,
00010000
00100000
00010000
01000000
00001000
01000000
00001000
00010000
,
00001000
00010000
00000010
00001000
00000010
00001000
00000100
00000010
,
00000001
00000000
00001000
00000001
00000000
00000100
00000001
00001000
,
00000001
00000000
00000010
00000100
00000000
00010000
00001000
00010000
,
00000010
00000000
00000100
00000010
00000000
00001000
00000001
00000100
,
00001001
00000000
00011000
00000000
10010000
00010000
01000000
00100000
,
10000000
00000000
01000000
00100000
00000000
00010000
01000000
00001000
,
00010000
00000000
00001000
01000000
00000000
00010000
10000000
01000000
,
00100000
00000000
00010000
01000000
00000000
00100000
10000000
00010000
,
01100000
00000000
00011000
00000000
00000110
00000100
00000010
00000001
,
00001000
00000000
00000010
00000100
00000000
00000001
00000100
00000010
,
00001000
00000000
00000100
00000010
00000000
00000001
00000100
00001000
,
00010000
00000000
00000010
00001000
00000000
00000100
00000010
00000100
,
00000110
00000000
00011000
00000000
01100000
01000000
00010000
10000000
,
01000000
00000000
00100000
00010000
00000000
00100000
01000000
10000000
,
01000000
00000000
00010000
01000000
00000000
10000000
00010000
01000000
,
00100000
00000000
10000000
01000000
00000000
00100000
00010000
10000000
,
10010000
00000000
00000000
00000000
00011000
00000000
00000000
00000000
00001001
00000000
00000000
00001000
00000001
00000000
00000100
00000000
,
00000001
00000000
00000010
00000100
,
00001000
00000000
00000001
00000100
,
00001000
00000000
00010000
00000000
,
01000000
00000000
10000000
00000000
,
10010000
00000000
00000000
00000000
;

//---------------dance-double - J.Casarino & MJ----------------
#NOTES:
     dance-double:
     J.Casarino & MJ:
     Challenge:
     9:
     0.655,0.597,0.270,0.000,0.266,463.000,29.000,0.000,0.000,0.000,6.000,0.655,0.597,0.270,0.000,0.266,463.000,29.000,0.000,0.000,0.000,6.000:
00000000
00000000
00000000
00000000
,
00000000
00000000
00000000
00000000
,
10000000
00010000
10000000
01000000
10000000
00010000
01000000
00001000
,
00010000
00000100
00001000
00000100
00010000
00001000
00000010
00000001
,
00004000
00000004
00000000
00000000
00000000
00000000
00000000
00000000
00000000
00000000
00000000
00000000
00003003
00000000
00000000
00000000
,
00000001
00000000
00001000
00000100
00000010
00000000
00000001
00000010
00000001
00000000
00000100
00000010
00001000
00000000
00000010
00000000
,
00000100
00000010
00001000
00000100
00010000
00001000
00010000
00100000
,
01000000
00000000
00010000
10000000
00010000
00000000
10000000
00100000
10000000
00000000
01000000
00100000
00010000
00000000
00100000
00000000
,
00001000
00000000
01000000
00001000
00000000
00001000
01000000
00000000
00001000
00000000
00010000
00000100
00000000
00000100
00010000
00000000
,
00001000
00000000
01000000
00010000
01000000
00000000
00100000
01000000
00100000
00000000
10000000
00010000
10000000
00000000
01000000
00000000
,
00100000
00010000
00100000
00001000
00010000
00000100
00001000
00000100
,
00000010
00000000
00000001
00000100
00000001
00000000
00001000
00000001
00001000
00000000
00000010
00000100
00000010
00000000
00001000
00000000
,
00000100
00000000
00010000
00001000
00000000
00001000
00010000
00000000
00000010
00000000
00010000
00001000
00000000
00001000
00010000
00000000
,
00100000
00000000
01000000
00010000
01000000
00000000
00001000
00000000
00010000
00000000
00000100
00000000
00010000
00000000
00001000
00000000
,
00000010
00001000
00000010
00000001
00000100
00000001
00000010
00000100
,
00001000
00000000
00001000
00000010
00000100
00000010
00010000
00001000
,
00010000
00000010
00010000
00000100
00010000
00001000
00010000
00100000
,
10000000
00000000
01000000
00100000
01000000
00000000
00100000
00000000
00001000
00000000
01000000
00000000
00001000
00000000
00100000
00000000
,
01000000
10000000
00010000
10000000
01000000
00100000
00001000
01000000
,
00001000
00000000
00010000
00000010
00010000
00000000
00000100
00000000
00010000
00000000
00000010
00000000
00001000
00000000
00000100
00000000
,
00040000
00000400
00000000
00000000
00000000
00000000
00030000
00000000
00010300
00000100
00001000
00000100
00010000
00000000
00000000
00000000
,
00010100
00000000
00000000
00001010
00000000
00000000
00000100
00000000
00000010
00000000
00001000
00000000
00000100
00000000
00001000
00000000
,
00000010
00000000
00000000
00010010
00000000
00000000
00010000
00000000
00000100
00000000
00010000
00000000
00001000
00000000
00010000
00000000
,
00100000
00000000
00000000
10010000
00000000
00000000
10000000
00000000
01000000
00000000
00010000
00000000
01000000
00000000
10000000
00000000
,
10100000
00000000
01001000
00000000
00010010
00000010
00000100
00000001
,
00000010
00000000
00000100
00001000
00000000
00001000
00000010
00000000
00010000
00000000
00001000
00000000
01000000
00000000
00010000
00000000
,
00100000
00000000
00001000
00010000
00000000
00010000
00001000
00000000
00010000
00000000
00000010
00000000
00010000
00000000
00000100
00000000
,
00001000
00000000
00000010
00000100
00000000
00000100
00001000
00000000
00010000
00000000
00100000
00000000
10000000
00000000
01000000
00000000
,
10010000
00011000
00001001
00011000
,
00001000
00010000
00010000
00001000
00000100
00001000
00010000
00000100
,
00010000
00000010
00000010
00000100
00001000
00000100
00000001
00001000
,
00000100
00000010
00000010
00001000
00010000
00100000
01000000
00010000
,
40000000
00040000
00000000
00000000
00000000
00000000
00000000
00000000
30030000
00000000
00000000
00010000
00100000
00000000
01000000
00000000
,
00100000
00010000
10000000
00100000
01000000
00010000
01000000
00001000
,
00100000
00001000
00010000
00000010
00010000
00000100
00001000
00000010
,
00000100
00000010
00001000
00000100
00000010
00000100
00001000
00000001
,
00000100
00000001
00000100
00001000
00010000
00100000
00010000
00100000
,
10000000
00010000
01000000
00001000
00100000
00001000
01000000
00001000
,
00010000
00000010
00010000
00000100
00001000
00000001
00000010
00001000
,
00000010
00000001
00000100
00000010
00000100
00000001
00000010
00000100
,
00010000
00000000
00001000
00000000
01000000
00000000
00100000
00000000
10000000
00000000
00000000
10000000
01000000
00000000
00100000
00000000
,
00010000
00000000
00100000
00010000
00000000
01000000
00010000
00000000
00100000
00000000
01000000
00000000
10000000
00000000
00010000
00000000
,
01000000
00000000
00001000
00010000
00000000
00010000
00000100
00000000
00000010
00000000
00000001
00000000
00001000
00000000
00000010
00000000
,
00000100
00000000
00000001
00000010
00000000
00000010
00000100
00000000
00010000
00000000
00001000
00000000
00010000
00000000
00000100
00000000
,
00010100
00000000
00101000
00000000
00010100
00001000
00010000
00001000
,
01000000
00000000
00000000
00011000
00000000
00000000
00000100
00000000
00001000
00000000
00000001
00000000
00000100
00000000
00000010
00000000
,
00010000
00000000
00000000
00011000
00000000
00000000
00100000
00000000
00010000
00000000
01000000
00000000
00100000
00000000
10000000
00000000
,
00010000
00000000
00000000
10010000
00000000
00000000
01000000
00000000
00100000
00000000
00001000
00000000
00010000
00000000
00000010
00000000
,
00010010
00000000
01001000
00000000
00100000
00010000
00001000
01000000
,
00001000
00000000
00010000
00001000
00000000
00001000
00100000
00000000
00010000
00000000
01000000
00000000
00100000
00000000
10000000
00000000
,
00010000
00000000
01000000
00001000
00000000
00001000
00010000
00000000
00001000
00000000
00010000
00000000
00000100
00000000
00010000
00000000
,
00000010
00000000
00001000
00000010
00000000
00000010
00010000
00000000
00001000
00000000
00100000
00000000
01000000
00000000
10000000
00000000
,
10010000
00000000
00011000
00000000
00001001
00001000
00000100
00000010
,
00000001
00000000
00000000
00001001
00000000
00000000
00000100
00000000
00000010
00000000
00000001
00000000
00001000
00000000
00000100
00000000
,
00010000
00000000
00000000
00001010
00000000
00000000
00000010
00000000
00010000
00000000
00001000
00000000
01000000
00000000
00001000
00000000
,
00010000
00000000
00000000
00010100
00000000
00000000
00100000
00000000
00010000
00000000
00001000
00000000
00010000
00000000
00000100
00000000
,
00001001
00000000
00011000
00000000
10010000
10000000
01000000
00100000
,
00001000
00010000
00010000
00001000
01000000
00001000
00010000
00000100
,
00010000
00000010
00000010
00000100
00000001
00000100
00000010
00010000
,
00001000
00001000
01000000
01000000
,
00100000
10000000
10000000
00100000
01000000
00010000
10000000
01000000
,
00110000
00000000
00000000
00000000
;

//---------------dance-single - R.Boyle----------------
#NOTES:
     dance-single:
     R.Boyle:
     Challenge:
     9:
     0.857,1.000,0.186,1.000,0.438,490.000,20.000,134.000,1.000,4.000,0.000,0.857,1.000,0.186,1.000,0.438,490.000,20.000,134.000,1.000,4.000,0.000: // measure 1
0000
0000
0000
0000
,  // measure 2
0000
0000
0000
0000
,  // measure 3
0000
0000
0000
0000
,  // measure 4
0000
0000
0000
0000
,  // measure 5
1001
0000
0000
0000
0101
0000
0010
1000
0000
1000
0010
0000
0100
0001
0010
0000
,  // measure 6
0010
0000
0100
1000
0100
0000
1000
0100
0010
0000
0001
0100
0010
0000
1000
0010
,  // measure 7
0100
0000
0010
0100
0001
0000
0010
0100
0010
0000
0100
1000
0100
0000
1000
0100
,  // measure 8
0010
0000
0010
0001
0000
0001
0100
0000
0000
0000
0100
0000
0010
0000
1000
0010
,  // measure 9
0100
0000
0010
0100
0000
0000
0101
0000
0000
0000
0010
0000
0100
0000
1000
0100
,  // measure 10
1000
0000
0000
0100
0010
0000
0001
0000
0100
0000
0000
0100
0010
0000
1000
0000
,  // measure 11
0010
0000
0000
0100
0010
0000
0100
0000
0001
0000
0010
0000
0100
0000
1000
0000
,  // measure 12
1001
0000
0000
1100
0000
0000
0110
0000
0000
0000
0010
0001
0010
0000
0001
0000
,  // measure 13
0100
0000
0010
1000
0000
0010
0100
0000
0000
0000
0010
0000
0100
0000
0001
0010
,  // measure 14
0200
0000
0000
0000
1000
0000
0300
1000
0100
0000
0010
0000
0001
0000
0100
0000
,  // measure 15
0010
1000
0010
0200
0000
0301
0010
0200
,  // measure 16
1000
0000
0300
0000
1000
0000
0000
0100
0010
0000
0001
0000
0100
0000
0010
0000
,  // measure 17
1000
0000
0020
0000
0000
0000
0230
0000
0000
0000
0302
0000
0000
0000
0003
0010
,  // measure 18
0100
0000
1000
0000
0100
0000
0000
0010
0001
0000
0100
0000
0010
0000
1000
0000
,  // measure 19
0001
0010
0100
0020
0000
0032
0100
0013
,  // measure 20
1000
0000
0000
0100
0010
0000
0001
0000
0100
0000
0000
0010
1000
0000
0010
0000
,  // measure 21
0100
0000
0010
0100
0000
0001
0010
0100
,  // measure 22
1000
0000
1000
0100
0000
0100
0010
0000
0010
0000
0001
0000
0100
0000
0010
0000
,  // measure 23
1000
0000
0010
0100
0000
0100
0010
0000
0100
0000
0001
0000
0010
0000
0100
0000
,  // measure 24
1000
0000
0100
1000
0000
0100
0010
0000
0100
0000
0010
0000
0001
0000
0100
0000
,  // measure 25
0010
0000
1010
0000
0110
0010
0100
0001
,  // measure 26
0010
0000
0010
0100
0000
0100
1000
0000
1000
0000
0100
0000
0010
0000
0001
0000
,  // measure 27
0100
0000
0100
0010
0000
0010
1000
0000
1000
0000
0010
0000
0100
0000
0001
0000
,  // measure 28
0010
0000
0010
0100
0000
0100
1000
0000
1000
0000
0100
0000
0010
0000
0001
0000
,  // measure 29
0202
0303
2020
3030
1001
0100
1000
0100
,  // measure 30
0010
0000
0001
0010
0001
0000
0001
0000
0010
0000
0100
0000
1000
0000
0100
0000
,  // measure 31
1000
0000
0010
0100
0010
0000
0010
0000
0100
0000
0001
0000
0010
0000
0100
0000
,  // measure 32
0010
0000
0100
1000
0100
0000
1000
0000
0100
0000
0010
0000
0001
0000
0100
0000
,  // measure 33
1001
0000
1100
0000
1001
0011
0000
0000
,  // measure 34
0002
0023
0230
2300
3200
2300
3200
0320
,  // measure 35
0032
0000
0203
0302
0203
0000
0320
0000
2030
0000
3020
0000
0230
0000
0302
0000
,  // measure 36
0023
0000
0032
0023
0230
0000
0320
0000
0230
0000
2300
0000
3020
0000
0230
0320
,  // measure 37
0230
0000
0302
0023
0032
0000
0023
0230
2300
0000
3200
2300
3200
0000
0320
0000
,  // measure 38
0032
0000
0203
0320
0230
0000
0320
0000
2030
0000
3020
0000
0230
0000
0302
0000
,  // measure 39
0023
0000
0230
0320
0230
0000
2300
0000
3200
0000
0320
0000
0032
0000
0203
0000
,  // measure 40
0320
0000
2030
3020
2030
0000
3002
0000
0023
0000
0032
0000
0203
0000
0320
2030
,  // measure 41
3002
0000
2003
3200
0320
0000
0032
0203
0320
0000
2030
3002
2003
0000
3200
0300
,  // measure 42
0010
0000
0001
0100
0000
0100
0001
0000
0100
0000
0010
0000
1000
0000
0010
0000
,  // measure 43
0100
0000
0001
0010
0000
0010
0001
0000
0010
0000
0100
0000
1000
0000
0100
0000
,  // measure 44
0010
0000
0001
0010
0000
0100
0010
0000
0001
0000
0100
0000
0010
0000
1000
0000
,  // measure 45
0220
0000
0330
0000
2002
0000
3003
0000
2200
3300
0100
0000
0010
0000
0001
0000
,  // measure 46
0100
0000
0010
1000
0000
1000
0010
0000
0100
0000
0010
0000
0100
0000
0001
0000
,  // measure 47
0010
0000
0100
0010
0000
0001
0100
0000
1000
0000
0100
0000
0010
0000
1000
0000
,  // measure 48
0001
0000
0010
0100
0000
1000
0100
0000
0010
0000
0001
0000
0100
0000
0010
0000
,  // measure 49
1000
0000
0010
0100
0000
0010
0100
0000
0001
0000
0010
0000
0100
0000
1000
0000
,  // measure 50
0100
0000
0010
0001
0000
0001
0100
0000
0010
0000
1000
0000
0010
0000
0100
0000
,  // measure 51
0001
0000
0010
0100
0000
0100
1000
0000
0100
0000
0010
0000
0001
0000
0100
0000
,  // measure 52
0010
0000
1000
0010
0000
0100
0001
0000
0100
0000
0010
0000
1000
0000
0100
0000
,  // measure 53
0010
0000
0001
0100
0000
0010
1000
0000
0010
0000
0100
0001
0000
0010
0100
0000
,  // measure 54
1000
0000
0100
0010
0000
0001
0100
0000
0010
0000
1000
0000
0010
0000
0100
0000
,  // measure 55
0001
0000
0010
0100
0000
1000
0100
0000
0010
0000
0001
0000
0100
0000
0010
0000
,  // measure 56
1000
0000
0010
0100
0000
0001
0100
0000
0010
0000
1000
0000
0010
0000
0100
0000
,  // measure 57
0001
0000
0010
0100
0000
0100
0010
0000
0001
0000
1000
0000
0100
0000
0010
0000
,  // measure 58
0002
0000
0023
0000
0230
0000
2300
3200
0320
0000
0230
0000
0320
0000
0032
0000
,  // measure 59
0203
0000
0320
2030
3020
0000
2030
0000
3020
0000
0230
0000
0302
0000
0023
0000
,  // measure 60
0230
0000
2300
0200
3020
0300
0032
0000
0023
0000
0032
0203
0302
0000
0203
0000
,  // measure 61
0302
0023
0230
2302
3023
023M
2300
3200
,  // measure 62
2302
0000
3003
0000
;

//---------------dance-single - J. Frederick----------------
#NOTES:
     dance-single:
     J. Frederick:
     Beginner:
     1:
     0.085,0.114,0.065,0.000,0.000,57.000,7.000,0.000,0.000,0.000,0.000,0.085,0.114,0.065,0.000,0.000,57.000,7.000,0.000,0.000,0.000,0.000:
0000
0000
0000
0000
,
0000
0000
0000
0000
,
0000
0000
0000
0000
,
0000
0000
0000
0000
,
1001
0000
0000
0000
,
1000
0000
0000
0000
,
0001
0000
0000
0000
,
0010
0000
0000
0000
,
0100
0000
0000
0000
,
0001
0000
0000
0000
,
1000
0000
0000
0000
,
0010
0000
0000
0000
,
0100
0000
0000
0000
,
0001
0000
0000
0000
,
1000
0000
0000
0000
,
0100
0000
0000
0000
,
0010
0000
0000
0000
,
1000
0000
0000
0000
,
0001
0000
0000
0000
,
0010
0000
0000
0000
,
0110
0000
0000
0000
,
1001
0000
0000
0000
,
0001
0000
0000
0000
,
1000
0000
0000
0000
,
0001
0000
0000
0000
,
0010
0000
0000
0000
,
0100
0000
0000
0000
,
1000
0000
0000
0000
,
0001
0000
0000
0000
,
0100
0000
0000
0000
,
0000
0000
0000
0000
,
0010
0000
0000
0000
,
1001
0000
0000
0000
,
0110
0000
0000
0000
,
0100
0000
0000
0000
,
0001
0000
0000
0000
,
1000
0000
0000
0000
,
0010
0000
0000
0000
,
0100
0000
0000
0000
,
0001
0000
0000
0000
,
1000
0000
0000
0000
,
0110
0000
0000
0000
,
1000
0000
0000
0000
,
0001
0000
0000
0000
,
0010
0000
0000
0000
,
0100
0000
0000
0000
,
0001
0000
0000
0000
,
1000
0000
0000
0000
,
0010
0000
0000
0000
,
0100
0000
0000
0000
,
0001
0000
0000
0000
,
1000
0000
0000
0000
,
0010
0000
0000
0000
,
0100
0000
0000
0000
,
0001
0000
0000
0000
,
1000
0000
0000
0000
,
0010
0000
0000
0000
,
0100
0000
0000
0000
,
0001
0000
0000
0000
,
1000
0000
0000
0000
,
0001
0000
0000
0000
,
0110
0000
0000
0000
;

//---------------dance-single - J. Frederick----------------
#NOTES:
     dance-single:
     J. Frederick:
     Medium:
     5:
     0.386,0.398,0.289,0.307,0.000,226.000,31.000,33.000,0.000,0.000,0.000,0.386,0.398,0.289,0.307,0.000,226.000,31.000,33.000,0.000,0.000,0.000:
0000
0000
0000
0000
,
0000
0000
0000
0000
,
0000
0000
0000
0000
,
0000
0000
0000
0000
,
0220
0000
0000
0000
0000
0000
0000
0330
,
1000
0010
0100
0001
,
0010
0000
0100
0000
1000
0100
1000
0000
,
0010
0100
0010
0100
,
0001
0010
0001
1000
,
0100
0010
0001
0100
,
0010
0000
1000
0000
0010
0100
0001
0000
,
0010
0001
1000
0010
,
0100
0001
0010
0100
,
2000
3001
0020
0130
,
0020
1030
0100
0010
,
0002
0103
0020
1030
,
0200
0310
0001
0100
,
0020
1030
0002
0013
,
0200
1300
1000
0010
,
0110
0000
0220
0000
0000
0000
0030
0300
,
2002
0000
0000
3003
,
0010
0000
0100
0000
1000
0100
1000
0000
,
0010
0000
0100
0000
0001
0100
0001
0000
,
0010
0000
0100
0000
0010
0100
0010
0000
,
1001
0110
1001
0000
,
0010
0000
0100
0000
1000
0100
0010
0000
,
0001
0000
0100
0000
0010
1000
0001
0000
,
0010
0000
0100
0000
1000
0100
0010
0000
,
0011
1100
0110
0110
,
2000
0000
0000
3000
0010
0000
0100
0000
,
0002
0000
0000
0003
0010
0000
0100
0000
,
2000
0000
0000
3000
0010
0000
0100
0000
,
0220
0000
0000
0330
,
1000
0000
0010
0000
0100
0001
0010
0000
,
0001
1000
0100
0010
,
0001
0000
0100
0000
0010
1000
0010
0000
,
0100
0001
0010
0100
,
0110
0000
1000
0000
0010
0100
0001
0000
,
0010
0001
1000
0010
,
0001
0000
0010
0000
1000
0100
0010
0000
,
0011
1000
1100
0110
,
2000
0000
3010
0000
0100
0001
0010
0000
,
0200
0000
1300
0000
0010
0100
0001
0000
,
0020
0000
0031
0000
0100
0010
1000
0000
,
1010
0101
0022
0033
,
2000
0000
3010
0000
0100
0001
0010
0000
,
0002
0000
0103
0000
0010
1000
0010
0000
,
0200
0000
0301
0000
0010
0100
0010
0000
,
0110
1001
0110
0110
,
1000
0000
0010
0000
0100
0001
0010
0000
,
0100
0000
1000
0000
0100
0010
0001
0000
,
0100
0000
0001
0000
1000
0001
1000
0000
,
1010
0110
0101
0010
,
0100
0000
1000
0000
0100
0010
0001
0000
,
0100
0000
0010
0000
1000
0010
0001
0000
,
0010
0000
1000
0000
0100
0010
0001
0000
,
0011
1100
0110
1001
,
2000
0000
0000
0000
0000
0000
0000
3000
,
0020
0000
0000
0000
0000
0000
0000
0030
,
0200
0000
0000
0000
0000
0000
0000
0300
,
0002
0000
0000
0003
0020
0000
0000
0030
,
1001
0000
0000
0000
;

//---------------dance-single - jelly bean----------------
#NOTES:
     dance-single:
     S. Hanson:
     Edit:
     10:
     0.787,0.824,0.606,0.391,0.424:
0000
0000
0000
0000
,
0000
0000
0000
0000
,
0000
0000
0000
0000
,
0001
0001
0010
0010
0100
0100
1000
1000
,
0001
0010
0100
1000
0001
0010
0100
1000
0100
0010
0001
1000
0100
0010
0001
1000
,
0001
0000
0100
0010
0100
0000
0010
1000
0001
0000
0010
0100
1000
0000
0001
0100
,
0010
0000
1000
0100
1000
0000
0010
0100
0001
0000
1000
0010
0100
0001
0100
0010
,
2000
0000
0000
3100
0010
0000
0010
0001
0010
0000
0010
0100
0010
0000
0010
0001
,
1000
0000
1000
0010
1000
0000
1000
0001
0010
0000
0010
0001
0010
0100
1000
0001
,
0100
0000
0001
1000
0100
0000
0010
0100
1000
0000
0001
1000
0010
0000
0100
0010
,
1000
0000
0100
0010
0100
0000
1000
0001
0100
0000
0010
1000
0001
0100
0001
1000
,
0020
0000
0000
1030
0100
0000
0100
0010
0100
0000
0100
1000
0100
0000
0100
0010
,
0001
0000
0001
1000
0001
0000
0001
0100
0001
0000
0001
1000
0010
1000
0010
0100
,
0002
0000
0000
0000
0200
0000
0000
0010
,
1000
0010
1000
1000
0303
0001
0100
0001
,
2002
0000
0000
0000
0100
0000
0000
3003
,
0101
1001
0000
0220
0000
0001
0000
0330
,
2000
0000
0000
0000
0200
0000
0000
0010
,
0001
0010
0001
0001
3300
1000
0100
1000
,
1100
0000
0000
0000
0011
0000
0000
0000
0001
1000
0001
1000
0001
1000
0001
1000
,
0020
0000
1030
0002
0000
0013
0100
1000
,
1001
0000
0001
0100
0001
0000
1020
0000
0000
0000
0031
0000
0010
0000
1000
0000
,
1001
0000
1000
0100
1000
0000
0021
0000
0000
0000
1030
0000
0010
0000
0001
0000
,
1001
0010
0000
0102
0000
1003
0100
0010
,
0022
0000
1000
0033
0011
0011
0001
0100
,
0110
0000
1000
0001
1000
0000
0201
0000
0000
0000
1300
0000
0100
0000
0001
0000
,
1001
0000
0010
1000
0010
0000
1200
0000
0000
0000
0301
0000
0100
0000
1000
0000
,
1001
0100
0000
2010
0000
3001
0010
0100
,
2002
0000
0010
3003
1001
1001
0000
0000
,
1M1M
0000
1000
0010
1M0M
0000
0010
0000
1M1M
0000
0010
0000
1M0M
0000
0010
0000
,
M1M1
0000
0001
0100
M0M1
0000
0100
0000
M1M1
0000
0001
0000
M1M0
0000
0001
0000
,
0100
0010
1000
0010
0100
0001
0100
0010
1000
0010
0100
0001
0100
0010
1000
0100
,
0020
0000
0000
0000
0000
0000
0000
0000
0000
0000
0000
0100
0100
0000
0130
0000
,
0110
0010
1000
0010
0001
0200
0000
1300
,
0100
0010
0001
0010
1000
0002
0000
1003
,
0100
0001
1000
0010
0100
0010
1000
0001
,
0100
0010
0001
0100
1000
0100
0001
1000
,
1010
0010
0001
0010
1000
0200
0000
1300
,
0010
0001
1000
0100
0001
0010
1000
0010
,
1000
0001
0100
1000
0010
0001
0010
0100
,
1000
0001
0010
1000
0001
0010
0100
1000
,
1001
0000
0100
0010
0100
0000
0012
0000
0000
0000
1003
0000
0100
0000
0001
0000
,
0101
0000
0100
0010
0100
0000
2001
0000
0000
0000
3010
0000
0100
0000
1000
0000
,
1100
0010
0000
0210
0000
0301
0100
0010
,
2020
0000
0001
3030
1010
1010
0100
0001
,
0011
0000
1000
0010
1000
0000
0201
0000
0000
0000
0310
0000
0001
0000
0010
0000
,
1010
0000
0001
0010
0001
0000
1200
0000
0000
0000
0301
0000
0100
0000
0010
0000
,
0011
1000
0000
0201
0000
0310
1000
0100
,
0220
0000
0000
0000
0001
0000
0330
0000
0110
0000
0110
0000
0100
1000
0100
1000
,
0001
0000
0100
0010
1000
0000
2010
0000
0000
0000
3001
0000
0010
0001
1000
0001
,
0100
0000
0010
0100
0001
0000
0210
0000
0000
0000
0301
0000
0010
0000
0100
0000
,
1010
0001
0000
0102
0000
0013
0100
1000
,
0001
0010
0001
0010
0100
1000
0100
1000
0001
0000
0001
0000
1000
0100
0010
0001
,
1000
0000
0010
0100
0001
0000
1020
0000
0000
0000
0130
0000
0001
0010
0100
0010
,
0001
0000
0100
0010
1000
0000
0201
0000
0000
0000
0310
0000
0001
0000
0010
0000
,
0110
0001
0000
0102
0000
0013
0100
1000
,
0010
1000
0010
1000
0001
0100
0001
0100
0010
0000
0010
0000
0000
0000
0000
0000
,
MM11
0000
0001
0010
MM01
0000
0010
0000
MM11
0000
0010
0000
MM01
0000
0010
0000
,
11MM
0000
0100
1000
01MM
0000
1000
0000
11MM
0000
1000
0000
01MM
0000
1000
0000
,
M1M1
0000
0100
0001
M1M0
0000
0001
0000
M1M1
0000
0001
0000
M1M0
0000
0001
0000
,
1M1M
0000
1000
0010
1M0M
0000
0010
0000
1M1M
0000
1000
0000
0M1M
0000
1000
0000
,
1MM1
0000
0000
0000
;
