#TITLE:VerTex^3;
#SUBTITLE:;
#ARTIST:ZiGZaG;
#TITLETRANSLIT:;
#SUBTITLETRANSLIT:;
#ARTISTTRANSLIT:;
#GENRE:Hardcore;
#CREDIT:;
#BANNER:VerTex^3-bn.png;
#BACKGROUND:VerTex^3-bg.png;
#LYRICSPATH:;
#CDTITLE:;
#MUSIC:VerTex^3.ogg;
#OFFSET:0.000;
#SAMPLESTART:60.060;
#SAMPLELENGTH:17.980;
#SELECTABLE:YES;
#BPMS:0.000=78.500,14.000=314.000,79.000=144.840,87.000=72.420,91.000=157.000,123.000=340.000,189.000=98.850,193.000=135.000,225.000=67.500,228.000=340.000,245.021=370.000,261.000=388.000,277.000=400.000,285.000=200.000,289.000=562.500,329.000=602.525,369.000=154.690;
#STOPS:14.000=1.338
,123.000=2.691
,228.000=0.686;
#BGCHANGES:-0.550=introvideo=1.000=0=0=1=====,
15.500=In The Groove 2/763_JumpBack.mpg=1.100=0=0=1=====,
47.000=098_JumpBack_NTSC_DV.avi=1.000=0=0=1===FadeLeft==,
79.000=052_JumpBack_NTSC_DV.avi=1.000=0=0=1=====,
87.250=purplevidbg=0.900=1=0=1===CrossFade==,
89.500=cyanvid=0.600=1=0=1===CrossFade==,
91.000=319_JumpBack_NTSC_DV.avi=1.000=0=0=1=====,
107.000=1028_JumpBack.avi=1.000=0=0=1===SlideUp==,
123.000=bg=1.000=0=0=1=====,
125.000=701_JumpBack.avi=1.400=0=0=1=====,
141.000=701_JumpBack.avi=0.350=1=0=1=Kaleidoscope2x2==CrossFade==,
156.900=701_JumpBack.avi=1.000=1=0=1=Kaleidoscope2x2==CrossFade==,
157.000=640_JumpBack.avi=1.000=0=0=1===FadeUp==,
181.000=640_JumpBack.avi=1.000=0=0=1====0^1^0^1=,
181.500=640_JumpBack.avi=1.000=0=0=1=====,
182.000=640_JumpBack.avi=1.000=0=0=1====0^0^1^1=,
182.500=640_JumpBack.avi=1.000=0=0=1=====,
183.000=640_JumpBack.avi=1.000=0=0=1====1^0^0^1=,
185.000=640_JumpBack.avi=1.000=0=0=1=====,
185.500=640_JumpBack.avi=1.000=0=0=1====1^1^0^1=,
186.000=640_JumpBack.avi=1.000=0=0=1=====,
186.500=640_JumpBack.avi=1.000=0=0=1====1^0^1^1=,
187.000=640_JumpBack.avi=1.000=1=0=1===CrossFade==,
189.000=cubething=0.600=1=0=1===CrossFade==,
192.833=bg=1.000=0=0=1=====,
193.000=In The Groove 2/973_JumpBack.mpg=0.700=0=0=1====1^0^1^1=,
209.000=In The Groove 2/955_JumpBack.mpg=0.200=1=0=1=Kaleidoscope2x2==CrossFade==,
225.000=In The Groove 2/955_JumpBack.mpg=0.120=0=0=1=Kaleidoscope2x2====,
226.000=In The Groove 2/955_JumpBack.mpg=0.050=0=0=1=Kaleidoscope2x2====,
227.000=bg=1.000=0=0=1=====,
227.396=1028_JumpBack.avi=1.000=0=0=1=====,
227.729=bg=1.000=0=0=1====1^1^0^1=,
227.958=bg=2.000=1=0=1===CrossFade=0^0^0^1=,
227.979=bg=1.000=0=0=1====0^0^0^1=,
228.000=logonotcentered=0.800=0=0=1====0^0^0^1=,
229.000=In The Groove 2/982_JumpBack.mpg=1.000=0=0=1=====,
245.000=In The Groove 2/982_JumpBack.mpg=1.200=1=0=1===CrossFade==,
261.000=In The Groove 2/956_JumpBack.mpg=1.200=1=0=1===CrossFade==,
277.000=In The Groove 2/956_JumpBack.mpg=1.600=1=0=1===CrossFade==,
285.000=bluetunnel=0.700=1=0=1===CrossFade==,
289.000=In The Groove 2/763_JumpBack.mpg=1.200=0=0=1=====,
329.000=707_JumpBack.avi=1.400=1=0=1===CrossFade==,
370.000=bg=0.800=0=0=1=====,
392.000=Vertex3-bg.png=0.100=1=0=1===CrossFade=0^0^0^1=,
99999=-nosongbg-=1.000=0=0=0 // don't automatically add -songbackground-;
#BGCHANGES2:15.000=flash=1.000=0=0=1=====,
79.000=flash=1.000=0=0=1====1^0^1^1=,
91.000=flash=1.000=0=0=1=====,
123.000=flash=1.000=0=0=1====1^0^1^1=,
125.000=flash=1.000=0=0=1====1^0^0^1=,
155.000=quicklogo=1.000=0=0=1=====,
155.333=off=1.000=0=0=1=====,
155.667=quicklogo=1.000=0=0=1=====,
156.000=off=1.000=0=0=1=====,
156.333=quicklogo=1.000=0=0=1=====,
156.667=off=1.000=0=0=1=====,
157.000=flash=1.000=0=0=1=====,
193.000=flash=1.000=0=0=1====1^0^0^1=,
197.000=flash=1.000=0=0=1====1^0^0^1=,
198.500=logoflashred=1.000=0=0=1=====,
205.000=flash=1.000=0=0=1=====,
206.500=logoflashwhite=1.000=0=0=1=====,
213.000=flash=1.000=0=0=1====1^0^1^1=,
214.500=logoflashpurple=1.000=0=0=1=====,
221.000=flash=1.000=0=0=1====0^1^1^1=,
222.500=logoflashcyan=1.000=0=0=1=====,
227.000=flash=1.500=0=0=1====0^1^1^1=,
228.000=flash=2.800=0=0=1====0^1^1^1=,
229.000=flash=2.800=0=0=1====1^1^0^1=,
289.000=flash=1.000=0=0=1====1^1^1^1=,
354.833=whitein=1.000=0=0=1=====,;
#KEYSOUNDS:;

//---------------dance-single - M.J. Quigley----------------
#NOTES:
     dance-single:
     M.J. Quigley:
     Hard:
     11:
     0.823,1.000,0.377,0.423,0.648,526.000,41.000,46.000,132.000,11.000,0.000:
0000
0000
0000
0000
,
0000
0000
0000
0000
,
0000
0000
0000
0000
0000
0000
0000
0010
,
2002
0000
0000
0000
0000
0000
0000
0000
0000
3003
0000
0000
1000
0000
0000
0000
,
0001
0010
0001
0000
0100
0000
0010
0000
,
1000
0000
1001
0000
0010
0100
0010
0000
,
1000
0001
1000
0000
0001
0000
0010
0100
,
1000
0000
1100
0000
0100
0000
0010
0001
,
0010
0000
0100
0000
1000
0100
1000
0000
,
0001
0100
0010
0100
,
0001
0010
0001
0000
1000
0000
0010
0100
,
0010
0100
0010
0100
0010
0000
1010
0000
,
1000
0100
0010
0000
0001
0010
0100
0000
,
1000
0000
0010
0100
0001
0000
1000
0100
,
0001
0000
0100
1000
0010
0000
0100
0010
,
0100
0001
0100
0010
0100
1000
0100
0000
,
0001
0000
0010
0100
1000
0000
0001
0100
,
0010
0100
0001
0000
0010
0000
0100
1000
,
0010
0100
0010
1000
0100
0010
0100
0001
,
0100
0010
0100
1000
0010
0000
1001
1000
,
0100
0010
0100
0010
0001
0100
0010
0100
,
0001
0010
0100
1000
0100
1000
0200
0000
,
0020
0000
0000
0000
0001
0000
0000
0000
0330
0000
0000
0000
0010
0100
0010
0001
,
0100
0000
0010
0000
1000
0000
0000
0000
1110
0000
0000
0000
0001
0000
0100
0010
,
1000
0000
0100
0000
0110
0000
0010
0000
0011
0000
0000
0000
0100
0010
0100
0010
,
1000
0001
0100
0000
0111
0000
0100
0010
,
1000
0100
1000
0000
0001
0100
0001
0000
1000
0000
0010
0000
0100
0010
0100
0001
,
1000
0000
0100
0000
0110
0000
0010
0000
0011
0000
0000
0000
1000
0010
1000
0000
,
0010
0000
1000
0000
0100
0000
0001
0000
0100
0000
1000
0000
0001
0010
0100
1000
,
0001
0000
0010
0100
0001
0000
0100
0000
1000
0000
0000
0000
0010
0000
0100
0000
,
1001
0000
0100
0000
0010
0000
0100
0000
1001
0000
0100
0000
2002
3003
0000
0000
,
0000
0000
1000
0100
1000
0100
1000
0100
,
1000
0000
0001
0000
0100
0010
0100
0000
,
0001
0000
1000
0010
0100
0010
1000
0000
,
0100
1001
1000
1001
,
1000
0000
0001
0100
0001
1000
0001
0100
,
0001
0010
0110
0010
,
0011
0000
0001
1000
0001
0000
0010
0100
,
0010
0000
0001
0000
0010
0100
1000
0100
,
0001
0000
0100
1000
0010
0100
0010
0000
,
0100
0001
0100
0000
0010
0000
1010
0000
,
1000
0000
0100
1000
0010
0100
0001
0000
,
0100
0220
0330
2020
,
3030
0000
0100
0010
1000
0100
0010
0000
,
0100
0000
0010
0000
0001
1000
0001
0000
,
0100
0000
0001
0010
0100
1000
0001
0000
,
0001
0000
1000
0100
0010
0001
1000
0000
,
1000
0000
0000
0000
0000
0000
0000
0000
2MM2
0MM0
00M0
00M0
0MM0
0M00
0M00
0M00
0MM0
0MM0
0MM0
0MM0
0M00
0M00
0M00
00M0
00M0
00M0
0M00
0M00
0M00
00M0
00M0
00M0
,
0MM0
0MM0
0MM0
0MM0
3MM3
0000
0000
0000
0001
0000
0100
0000
0010
0000
0100
0000
0010
0000
0100
0000
0001
0000
0000
0000
1000
0000
0000
0000
0100
0000
0000
0000
,
1000
0000
2222
3333
0000
2222
3333
0000
,
0100
0000
0100
0000
0010
1000
0100
1000
0001
1000
0010
0000
0100
0000
0001
0000
,
1000
0000
2220
3330
0001
0222
0333
0000
,
0010
0100
0010
0000
1000
0100
0001
0100
1000
0100
0001
0100
1000
0000
0001
0000
,
0100
0000
2222
3333
0000
2222
3333
0000
,
0110
0000
0000
0000
0001
0010
0100
0010
0001
0100
0010
0100
0001
0000
0000
0000
,
1000
0000
2022
3033
0100
2220
3330
0000
,
0000
0000
0000
0000
0000
0000
0000
0000
0100
0010
0100
0010
0100
0000
0100
0000
0001
1000
0001
1000
0001
0000
0000
0000
1001
0000
0000
0000
0010
0000
0220
0000
,
0000
0330
0000
0000
1000
0000
0100
0000
1000
0000
0100
0000
1000
0000
0100
0000
,
1000
0000
0001
0100
0001
0100
0001
0100
,
0001
0101
0000
0010
,
1010
0000
0000
0000
0000
0000
0000
0000
0000
000M
0000
0000
MM00
0000
0000
00M0
0M00
0000
0000
0000
00MM
0000
0000
0000
0M00
0000
0000
0000
00M0
0000
M000
0000
000M
0000
0000
0000
00M0
0000
0000
0000
M000
0000
0M00
0000
0000
0000
0000
0000
,
0M0M
0000
0010
0100
0010
0100
0010
0100
,
0010
0000
1000
0001
1000
0001
1000
0001
,
1000
1100
0000
0110
,
0000
0011
0000
0101
,
0000
0000
0001
0100
0001
0010
0001
0100
,
0001
0000
1000
0100
1000
0001
1000
0100
,
1000
0100
0010
0100
,
1000
0001
0100
0010
,
0100
0000
0100
0001
0100
0010
0100
0001
,
0100
0000
0010
1000
0010
0100
0010
1000
,
0010
0000
1000
0100
1000
0001
0100
0010
,
0100
0000
0010
0000
1000
0000
0000
0000
0000
0100
0000
0000
0000
0000
1000
0000
,
0000
0000
0000
0010
0000
0000
0000
0000
0100
0000
0000
0000
0000
0010
0000
0000
,
0000
0000
0100
0000
0000
0000
0000
0001
0000
0000
0000
0000
0010
0000
0000
0000
,
0000
0100
0000
0000
0000
0000
1000
0000
0000
0000
0000
0100
0000
0000
0000
0000
,
0010
0000
0000
0000
0000
0001
0000
0000
0000
0000
1000
0000
0000
0000
0000
0010
,
0000
0000
0000
0000
0100
0000
0000
0000
0000
0010
0000
0000
0000
0000
0100
0000
,
0000
0000
0000
0001
0000
0000
0000
0000
0010
0000
0000
0000
0000
0100
0000
0000
,
0000
0000
0010
0000
0000
0000
0000
0001
0000
0000
0000
0000
0100
0000
0000
0000
,
0000
0010
0000
0000
0000
0000
0100
0000
0000
0000
0000
0001
0000
0000
0000
0000
,
0100
0000
0000
0000
0000
0010
0000
0000
0000
0000
0100
0000
0000
0000
0000
0010
,
0000
0000
0000
0000
1000
0000
0000
0000
0000
0001
0000
0000
0000
0000
1000
0000
,
0000
0000
0000
0010
0000
0000
0000
0000
1000
0000
0000
0000
0000
0100
0000
0000
,
0000
0000
0010
0000
0000
0000
0000
1000
0000
0000
0000
0000
0010
0000
0000
0000
,
0000
0100
0000
0000
0000
0000
0010
0000
0000
0000
0000
0100
0000
0000
0000
0000
,
1000
0000
0000
0000
0000
0100
0000
0000
0000
0000
1000
0000
0000
0000
0000
0100
,
0000
0000
0000
0000
0010
0000
0000
0000
0000
0001
0000
0000
0000
0000
0100
0000
,
0000
0000
0000
0001
0000
0000
0000
0000
0100
0000
0000
0000
0000
0010
0000
0000
,
0000
0000
0100
0000
0000
0000
0000
0001
0000
0000
0000
0000
0010
0000
0000
0000
,
0000
1000
0000
0000
0000
0000
0010
0000
0000
0000
0000
0001
0000
0000
0000
0000
,
0100
0000
0000
0000
0000
1000
0000
0000
0000
0000
0100
0000
0000
0000
0000
0000
,
0000
2002
0000
0000
,
0000
0000
0000
3003
0000
0000
0010
0000
0100
0000
0010
0000
0100
0000
0001
0000
0100
0000
0010
0000
1000
0000
0010
0000
,
1000
0000
1000
0100
0010
0100
0010
0001
0010
0001
0010
0100
,
0010
0000
0000
0000
0001
0000
1000
0000
0000
0001
0000
0000
0100
0000
0000
0010
0000
0000
0100
0000
0000
0010
0000
0000
,
1000
0100
1000
0001
0100
0001
0010
0100
,
0010
0000
0000
0000
0100
0000
0000
0000
2MM2
00M0
0000
0M00
0M00
00M0
00M0
0M00
00M0
00M0
0000
0000
0M00
0000
00M0
0000
0000
0M00
0000
00M0
0000
0M00
0000
0000
,
00M0
0000
0M00
0000
0000
0MM0
0000
0000
0000
0M00
0MM0
00M0
00M0
0M00
0000
00M0
00M0
0M00
0000
0000
0000
0MM0
00M0
0M00
0000
00M0
00M0
0M00
0000
0000
00M0
0000
,
3M03
0000
0000
0000
0000
0000
0000
0000
MMMM
MMMM
MMMM
MMMM
MMMM
MMMM
MMMM
MMMM
0000
0000
0000
0000
0000
0000
0000
0000
0MM0
0000
0000
0000
0000
0000
0000
0000
MMMM
0000
0000
0000
0000
0000
0000
0000
0000
0000
0000
0000
0000
0000
0000
0000
0000
0000
0000
0000
0000
0000
0000
0000
0000
0000
0000
0000
0000
0000
0000
0000
;

//---------------dance-single - Blank----------------
#NOTES:
     dance-single:
     Blank:
     Beginner:
     1:
     0.155,0.268,0.018,0.000,0.000,116.000,2.000,0.000,0.000,0.000,0.000:
0000
0000
0000
0000
,
0000
0000
0000
0000
,
0000
0000
0000
0000
,
1000
0000
0100
0000
,
0000
0000
0000
1000
,
0000
0000
0000
0010
,
0000
0000
0000
0100
,
0000
0000
0000
0100
,
0000
0000
0000
0010
,
0000
0000
0000
1000
,
0000
0000
0000
0000
,
0000
0000
0000
1000
,
0000
0000
0000
0001
,
0000
0000
0000
0100
,
0000
0000
0000
0100
,
0000
0000
0000
0010
,
0000
0000
0000
0010
,
0000
0000
0000
1000
,
0000
1000
0000
1000
,
0000
0000
0000
0100
,
0000
0100
0000
0010
,
0000
0001
0000
0001
,
0100
0100
0100
1000
,
0000
0000
0000
0010
,
0000
0000
0000
0001
,
0000
0000
0000
0010
,
0000
0000
0000
1000
,
0000
0100
0000
0100
,
0000
0100
0000
1000
,
0000
0010
0000
0010
,
0000
0010
0000
0100
,
0000
1000
0000
0001
,
0000
0000
0000
0000
,
0000
0001
0000
0100
,
0000
0000
0000
0000
,
0000
0100
0000
0100
,
0000
0000
0000
0000
,
0000
0010
0000
0010
,
0000
0000
0000
0000
,
0000
1000
0000
0100
,
0000
0000
0000
0000
,
0000
0010
0000
0001
,
0000
0000
0000
0000
,
0000
1000
0000
1000
,
0000
0000
0000
0000
,
0000
0100
0000
0100
,
0000
0000
0000
0000
,
0000
0010
0000
0000
,
0000
0001
0000
1000
,
0000
0010
0000
0010
,
0000
1000
1000
1000
,
0000
0001
0001
0001
,
0000
0100
0000
0010
,
0000
1000
0000
1000
,
0000
0100
0000
0010
,
0000
0110
0000
1000
,
0000
0001
0000
0100
,
0010
1000
0000
0000
,
0000
0000
0000
0000
,
0000
0100
0000
0000
,
0000
0010
0000
0000
,
0000
0001
0000
0000
,
0000
0000
0000
0000
,
0000
1000
0000
0000
,
0000
1000
0000
0000
,
0000
0100
0000
0000
,
0000
0100
0000
0000
,
0000
0010
0000
0000
,
0000
0010
0000
0000
,
0000
0001
0000
0000
,
0000
0001
0000
0000
,
0000
0100
0000
0000
,
0000
0100
0000
0000
,
0000
0000
0100
0000
,
0000
0000
0000
0010
,
0000
0000
0000
0000
,
0010
0000
0000
0000
,
0000
1000
0000
0000
,
0000
0000
1000
0000
,
0000
0000
0000
0100
,
0000
0000
0000
0000
,
0100
0000
0000
0000
,
0000
0000
1000
0000
0000
0000
0000
0010
,
0000
0000
0100
0000
,
0000
0000
0000
0100
,
0000
0000
0000
0010
0000
0000
0000
0000
,
1000
0000
0000
0000
,
0000
1000
0000
0000
,
0000
0000
0010
0000
,
0000
0000
0000
0010
,
0000
0000
0000
0000
,
1000
0000
0000
0000
,
0000
0001
0000
0000
,
0000
0100
0000
0000
,
0000
0010
0000
1000
,
0000
0001
0000
0100
,
0000
0001
0000
1000
,
0000
1001
0000
0000
;

//---------------dance-single - M.J. Quigley----------------
#NOTES:
     dance-single:
     M.J. Quigley:
     Easy:
     6:
     0.434,0.630,0.064,0.083,0.032,315.000,7.000,9.000,0.000,0.000,0.000:
0000
0000
0000
0000
,
0000
0000
0000
0000
,
0000
0000
0000
0000
,
0000
0000
0000
0000
0220
0330
1000
0000
,
0000
1000
0100
0010
,
0000
0010
0100
1000
,
0000
1000
0000
0100
,
0000
0100
0000
0010
,
0001
0100
0000
0100
,
0010
1000
0000
1000
,
0000
0100
0000
0100
,
0000
0010
0000
0010
,
0100
1000
0000
1000
,
0010
0100
0000
0001
,
0000
0001
0100
0010
,
0000
0010
0000
1000
,
0100
0010
0000
0010
,
0100
1000
0000
1000
,
0000
0010
0000
0010
,
0000
0100
0000
0010
,
1000
0100
0010
0010
,
0100
0100
1000
0020
,
0100
0000
0100
0000
0030
0000
1000
0100
,
1000
0000
0010
1000
0010
0000
0010
0100
,
0001
0100
0001
0000
0001
0000
0100
0010
,
1000
0000
1000
0010
0100
0000
0100
0001
,
0100
0001
0100
0000
0001
0000
0001
0010
,
0100
0000
0100
0010
0001
0000
0001
0100
,
0010
0100
0010
0000
0110
0000
0010
1000
,
0100
0000
0100
0010
0100
0000
0100
0010
,
0100
0010
0100
0000
1100
0000
1010
0000
,
0000
0010
0100
0010
,
0100
0010
0000
1000
,
0000
1000
0001
0010
,
0100
0010
0000
0010
,
0000
0100
1000
0010
,
1000
0010
0000
0010
,
0000
0010
0100
0001
,
0100
0010
0100
0001
,
0000
0001
0100
0010
,
0100
0010
0000
0010
,
0000
0010
1000
0100
,
1000
0100
0000
0100
,
0000
0100
0010
0001
,
0000
0001
0010
0100
,
0000
0100
1000
0010
,
0100
0010
0100
0010
,
0000
2002
0000
0000
,
3003
0000
1000
0010
1000
0010
0100
0100
,
0100
0000
0010
1000
0100
0010
0100
0100
,
0100
0000
0100
1000
0010
0100
0001
0001
,
0001
0000
0001
0010
0100
1000
0100
0100
,
0100
0000
0100
0010
0100
0010
0001
0001
,
0001
0000
0010
0100
0010
1000
0010
1000
,
0100
0000
0100
0010
0100
0000
0100
1000
,
0100
0000
1000
0010
0100
0010
0100
0001
,
0100
0000
0001
0000
1000
0000
0010
0010
,
1000
1000
0100
0010
,
0000
0010
0100
1000
,
0000
1000
0010
0100
,
0000
0100
0010
1000
,
0000
1000
0100
0010
,
0000
0010
0100
1000
,
0000
1000
0010
0100
,
0001
0100
0010
0100
,
0000
1000
0010
1000
,
0000
1000
0100
1000
,
0000
1000
0010
0100
,
0010
0100
0010
0100
,
0000
0001
0100
0001
,
0000
0001
0010
0100
,
0000
0000
0100
0010
0100
1000
0100
0000
,
0000
0000
1000
0000
0000
0000
0000
0010
,
0000
0000
1000
0000
,
0000
0100
0000
0000
0000
0000
1000
0000
,
0000
0100
0000
0000
0000
0000
1000
0000
0000
0000
0000
0000
0000
0000
0000
0000
,
0001
0000
0000
0000
0000
0010
0000
0000
0000
0000
0001
0000
0000
0000
0000
0000
,
0000
0000
0010
0000
0000
0000
0000
0100
,
0000
0000
0000
0000
0000
0000
0000
0000
0100
0000
0000
0000
0000
0010
0000
0000
,
0000
0100
0000
0000
0000
0000
0100
0000
,
0000
0000
0000
0010
0000
0000
0000
0000
,
0001
0000
0000
0000
0000
0100
0000
0000
0000
0000
0001
0000
0000
0000
0000
0000
,
0000
0000
0000
0000
1000
0000
0000
0000
0000
0010
0000
0000
0000
0000
1000
0000
,
0000
0000
0010
0000
,
0000
0100
0000
0000
0000
0000
0001
0000
,
0000
0000
0000
1000
0000
0000
0000
0000
,
0100
0000
0000
0000
0000
0010
0000
0000
,
0000
0000
0000
0000
0100
0000
0000
0000
0000
1000
0000
0000
0000
0000
0100
0000
,
0000
0000
0000
0000
0000
0000
0000
0000
0010
0000
0000
0000
0000
0100
0000
0000
,
0000
0010
0000
0000
0000
0000
0001
0000
,
0000
0000
0000
1000
0000
0000
0000
0000
,
0010
0000
0000
0000
0000
0100
0000
0000
,
0000
2002
0000
0000
,
0000
0000
0000
0000
,
3003
1000
1000
0010
,
0010
0100
0100
0001
,
0001
0010
0010
0100
,
0100
2002
0000
0000
,
3003
0000
0000
0000
;

//---------------dance-single - M.J. Quigley----------------
#NOTES:
     dance-single:
     M.J. Quigley:
     Medium:
     10:
     0.640,0.993,0.220,0.349,0.253,426.000,24.000,38.000,24.000,3.000,0.000:
0000
0000
0000
0000
,
0000
0000
0000
0000
,
0000
0000
0000
1000
,
2002
0000
3003
0001
,
0100
0001
0100
0001
,
0001
0000
0001
0000
0000
0000
0010
0100
,
0010
0100
1000
0100
,
0100
0100
0000
1000
,
0010
0100
0010
1000
,
1000
0000
1000
0000
0000
0000
0001
0010
,
0001
0000
0100
0000
0001
0000
1000
0001
,
1000
0000
1000
0000
0000
0000
1000
0100
,
1000
0000
0010
0000
0100
0000
0010
1000
,
0010
0000
0100
0000
0100
0010
0100
0000
,
0010
1000
0010
0000
0200
0000
0001
0000
,
0001
0001
0300
0010
,
1000
0100
0010
0001
,
0001
0001
1000
0010
,
0100
0010
1000
0100
,
0010
0100
0010
0002
,
0100
0100
0000
0000
,
1000
1000
0003
2002
,
0000
0000
0010
0000
3003
0000
1000
0100
,
1000
0100
0010
0001
0010
0001
0100
0010
,
0100
0000
0010
0000
1000
0001
1000
0000
0001
0000
0000
0000
1000
0000
0010
0000
,
1000
0010
0100
0001
0100
0001
0010
0001
,
0010
0000
0001
0000
0001
1000
0001
0000
1000
0000
0000
0000
1000
0010
1000
0000
,
0001
0010
0001
0000
0010
0100
0010
0000
0100
1000
0100
0000
1000
0001
1000
0000
,
0001
0010
0001
0000
1000
0000
1000
0000
1000
0000
0000
0000
1100
0000
0100
0000
,
0010
0000
0100
0010
0001
0100
0010
0100
,
0010
0000
1000
0000
0100
1000
0100
0000
1000
0000
0010
0000
0200
0300
0000
0000
,
0000
0000
0010
0000
0100
0001
0100
0000
,
0001
0010
0100
1000
,
0100
0000
1000
0001
1000
0000
0010
0000
,
0100
0000
0001
0100
0001
0000
0010
0000
,
0000
0000
0100
1000
0100
0000
1000
0000
,
0001
0100
0010
0100
,
0010
0000
1000
0100
1000
0000
0100
0000
,
0010
0000
0001
0010
0001
0000
0100
0000
,
0010
0000
0100
0010
0100
0000
0010
1000
,
0010
0000
1000
0001
1000
0000
0010
0000
,
0010
0000
1000
0001
1000
0000
0010
0100
,
0010
0100
0001
0100
,
0010
0000
1000
0010
1000
0000
0100
0000
,
1000
0000
0001
0010
0001
0010
0001
0000
,
0100
0010
0100
0010
,
1000
0000
0100
1000
0100
0000
0010
0000
,
0001
2002
0000
0000
,
3003
0000
0000
0000
1000
0100
1000
0100
0000
0100
1000
0000
0100
0000
0010
0000
,
0001
0000
2002
3003
0000
2002
3003
0000
,
2002
3003
0000
0000
0010
0100
0010
0100
0000
0100
0010
0000
2000
0000
0100
0000
,
3100
0000
0220
0330
0000
0220
0330
0000
,
0220
0000
0330
0000
0001
0010
0100
1000
0000
1000
0100
0000
0010
0001
0010
0000
,
0001
0000
0202
0303
0000
0202
0303
0000
,
0202
0000
0303
0000
0010
1000
0010
1000
0000
0001
0100
0000
0010
0000
0010
0000
,
0010
0000
2002
0000
0000
0110
0000
0000
,
3113
0000
0000
0000
1000
0100
1000
0000
0001
0010
0001
0000
0100
0010
0100
0001
,
1000
0000
0100
0010
0100
0010
0100
0000
,
1000
0001
0100
0010
,
1000
0000
0100
1000
0100
1000
0100
0000
,
0010
0001
0100
0100
,
0000
0000
0010
1000
0010
1000
0010
0000
,
0100
0001
0010
0001
,
0100
0000
0010
0100
0010
0000
1000
0000
,
0010
0100
0010
1000
,
0000
0000
0001
0100
0001
0000
0100
0000
,
0010
1010
1000
0100
,
0010
0000
0001
1000
0001
0000
0100
0000
,
0010
0110
0100
0001
,
0000
0000
0100
0001
0100
0000
0100
0000
,
0000
0000
0010
1000
0010
0000
0010
0000
,
0000
1001
1001
0110
,
0110
0000
2000
0000
0000
0000
0000
0010
,
3000
0000
0000
0000
0000
0000
0000
0000
0100
0000
0000
0000
0000
0001
0000
0000
,
0000
0000
0100
0000
0000
0000
0000
0001
0000
0000
0000
0000
0200
0000
0000
0000
,
0000
0000
0000
0001
0300
0000
0000
0000
,
0010
0000
0000
0000
0000
0100
0000
0000
0000
0000
0010
0000
0000
0000
0000
0100
,
0000
0000
0020
0000
0000
0000
0000
0001
,
0030
0000
0000
0000
0000
0000
0000
0000
1000
0000
0000
0000
0000
0100
0000
0000
,
0000
0000
1000
0000
0000
0000
0000
0100
0000
0000
0000
0000
2000
0000
0000
0000
,
0000
0000
0000
0001
3000
0000
0000
0000
,
0001
0000
0000
0000
0000
1000
0000
0000
0000
0000
0001
0000
0000
0000
0000
1000
,
0000
0000
0000
0000
0001
0000
0000
0000
0000
0010
0000
0000
0000
0000
0001
0000
,
0000
0000
0000
0000
0000
0000
0000
0000
1000
0000
0000
0000
0000
0010
0000
0000
,
0000
1000
0000
0000
0000
0000
0100
0000
,
0000
1000
0000
0000
0000
0000
0100
0000
0000
0000
0000
0000
0000
0000
0000
0000
,
0010
0000
0000
0000
0000
0001
0000
0000
0000
0000
0010
0000
0000
0000
0000
0001
,
0000
0000
0000
0000
0100
0000
0000
0000
0000
0010
0000
0000
0000
0000
0100
0000
,
0000
0000
0000
0000
0000
0000
0000
0000
0001
0000
0000
0000
0000
1000
0000
0000
,
0000
0000
0001
0000
0000
0000
0000
0100
0000
0000
0000
0000
0010
0000
0000
0000
,
0000
0100
0000
0000
0000
0000
0010
0000
0000
0000
0000
0001
0000
0000
0000
0000
,
0010
0000
0000
0000
0000
0100
0000
0000
0000
0000
1000
0000
0000
0000
0000
0000
,
0000
0000
0000
0000
220M
000M
000M
000M
000M
000M
000M
000M
0000
0000
0000
000M
,
330M
0000
0000
0000
1000
0100
0010
0000
,
0001
0010
0100
0000
1000
0010
1000
0000
,
0001
0100
0001
0000
0010
0100
0010
0000
,
1000
0001
1000
0000
0001
0100
0010
0100
,
0010
0000
0000
0000
2M02
00M0
0000
0M00
0000
00M0
0000
0MM0
00M0
0000
0M00
0000
,
3003
0000
M00M
M00M
M00M
0000
0000
0000
0000
0000
0000
0000
0000
0000
0000
0000
;

//---------------dance-single - David Seltzer----------------
#NOTES:
     dance-single:
     David Seltzer:
     Challenge:
     13:
     0.976,1.000,0.818,0.349,1.000,613.000,89.000,38.000,232.000,15.000,11.000: // measure 1
0000
0000
0000
0000
,  // measure 2
0000
0000
0000
0000
,  // measure 3
0001
0000
0100
0001
0010
0000
0001
0000
0101
0000
0000
0000
0M0M
0000
0000
0000
1000
0000
0010
0100
0001
0000
0100
0000
1010
0000
0000
0000
M0MM
0000
0100
0000
,  // measure 4
4004
0000
0000
0000
0000
0000
0000
0000
3003
M00M
M00M
M00M
0010
0000
1000
0000
,  // measure 5
010M
0000
M011
0M00
1001
0000
0001
M100
,  // measure 6
0010
0000
1M10
0000
0110
0000
0010
0100
,  // measure 7
011M
0000
0100
M001
0010
0100
M010
0100
,  // measure 8
1001
0000
0011
0M00
1000
0001
1001
0000
,  // measure 9
1000
000M
0110
0000
0001
0100
M010
0000
,  // measure 10
1000
0000
0000
000M
0000
0000
1100
0000
0000
0000
0000
0000
0110
0000
0000
0000
0000
0000
0001
0000
0100
0000
0001
0000
,  // measure 11
0000
0000
0MM0
0000
0000
0000
0001
0000
0010
0000
0001
0000
0000
0000
0000
0000
0000
0000
1000
0000
0000
0100
0000
0000
,  // measure 12
0010
0000
0000
0000
0000
0000
0M01
0000
0000
10M0
0001
0000
1M00
0000
0001
00M0
1000
0000
0MM1
0000
0000
0000
0000
0000
,  // measure 13
0100
0000
01M1
0000
0010
1000
0100
0000
,  // measure 14
M010
0100
1000
0001
0010
0000
100M
0100
,  // measure 15
1100
0000
M011
0000
M11M
0000
1000
0010
,  // measure 16
0100
M010
1M01
0000
M011
0000
0001
1000
,  // measure 17
1001
0000
1100
0000
M010
0001
1000
0100
,  // measure 18
001M
0000
0110
0000
0100
1000
0001
M000
,  // measure 19
0001
1000
0100
0000
0100
1000
0100
0010
,  // measure 20
0001
0000
0100
0000
0010
0000
0100
0000
0001
M000
0000
0000
0202
0000
0000
0000
,  // measure 21
0000
0000
0010
1000
0010
0000
0000
0303
0000
0000
M00M
0000
0220
0000
0000
0000
,  // measure 22
0000
0000
1000
0001
1000
0000
0000
0000
0330
0000
0MM0
0000
M200
032M
M030
M00M
,  // measure 23
0000
0MM2
0003
M000
00MM
0M00
2000
3200
0302
0203
2300
3002
1003
0100
0010
0001
,  // measure 24
0100
0010
0100
0000
1MM1
0000
0010
0000
110M
0000
M010
0000
MM11
0000
0000
0000
,  // measure 25
0001
0000
0100
0000
0001
0000
0100
0000
0000
0000
0000
0000
M010
0000
0000
0000
0000
0000
0M10
0000
0000
0000
0000
0000
001M
0000
0000
0000
0000
0000
0010
0000
0000
0000
0000
0000
0010
0000
0000
1000
0000
0000
0001
0000
0000
0100
0000
0000
,  // measure 26
0010
0100
0002
0000
0013
0000
0200
0000
100M
0000
1000
0000
0310
0000
0000
0000
,  // measure 27
11MM
0000
0000
0000
0000
0000
M00M
0000
0000
0000
0000
0000
1MM1
0000
0000
0000
0000
0000
0000
0000
0000
0000
0000
0000
1000
0000
0100
0000
1000
0000
0100
0000
0000
0000
0000
0000
1000
0000
0000
0001
0000
0000
0100
0000
0000
0010
0000
0000
,  // measure 28
1000
0000
0000
0010
0000
0000
0200
0000
0000
0000
0000
0000
0010
0000
0000
0000
0000
0000
1300
0000
0000
0000
0000
0000
0110
0000
0000
0000
0000
0000
0010
0000
0100
0000
0010
0000
0100
0000
0000
0000
0000
0000
0001
0000
0000
0000
0000
0000
,  // measure 29
M1M1
0000
0000
0000
0000
0000
M00M
0000
0000
0000
0000
0000
M1M1
0000
0000
0000
0000
0000
0000
0000
0000
0000
0000
0000
1000
0000
0010
0000
1000
0000
0010
0000
0000
0000
0000
0000
0100
0000
0000
0001
0000
0000
0100
0000
0000
0010
0000
0000
,  // measure 30
1000
0010
0200
0000
00M1
M000
00M1
0000
031M
0000
0000
0000
0101
0000
0M01
0000
,  // measure 31
1001
0000
0000
0000
0000
0000
100M
0000
0000
0000
0000
0000
1100
0000
0000
0000
0000
0000
0000
0000
0000
0000
0000
0000
1000
0000
0001
0000
1000
0000
0001
0000
0000
0000
0000
0000
0400
0000
0000
0300
0000
0000
0000
0000
0000
0000
0000
0000
,  // measure 32
0MM0
0000
100M
1000
0000
0020
M001
0030
,  // measure 33
0100
0000
0110
M000
0101
0000
10M1
0000
,  // measure 34
1100
00M0
0001
1000
0200
0000
M301
0100
,  // measure 35
1000
M001
010M
1M10
,  // measure 36
MMMM
0000
0000
0000
0010
0000
0010
0000
0000
0000
0200
0000
1000
0300
0000
0000
,  // measure 37
M010
0000
1001
0M00
0011
0000
110M
0000
,  // measure 38
01M1
0000
0110
M000
0100
0001
0020
0000
,  // measure 39
103M
0000
0000
0000
0000
0000
0010
0000
0000
0000
0000
0000
M001
0000
0000
0000
0000
0000
0000
0000
0000
0000
0000
0000
010M
0000
0000
0000
0000
0000
0000
0000
0000
0000
0000
0000
0M10
0000
0000
000M
1000
0000
0M00
0000
0010
000M
0000
0000
,  // measure 40
1M00
0000
0000
000M
0010
0000
0M00
0000
1000
000M
0000
0000
0020
0000
0000
0000
0000
0000
0000
0000
0000
M000
0000
0000
0000
0000
0000
0000
0000
0000
0100
0000
0000
0000
0000
0000
1000
0000
0000
0000
0000
0000
0M30
0000
0000
0000
0000
0000
,  // measure 41
0001
M000
0101
000M
0110
0M00
1010
000M
,  // measure 42
1100
0000
0000
0000
0010
0000
0100
0000
2000
000M
0000
0000
3M01
0000
0100
0000
,  // measure 43
1000
0000
0000
0000
M010
0000
0000
0000
01M0
0000
0000
0000
1M01
0000
0000
MMMM
,  // measure 44
0000
0000
1000
200M
0000
00M1
3001
0000
,  // measure 45
0010
0000
0000
0000
0110
0000
0000
0M00
1001
0000
0000
00M0
1100
0000
0000
0000
,  // measure 46
M011
0000
0001
0100
0001
0100
0011
0000
,  // measure 47
MMMM
0000
1000
0100
1000
0100
1010
0000
,  // measure 48
0110
2002
00M0
0M00
,  // measure 49
3MM3
0000
M00M
0000
0001
0010
0100
1000
0010
0400
0010
0000
0001
0000
0010
0000
,  // measure 50
1300
0000
0M00
0000
0111
0000
0000
0M00
00M1
0M00
0000
0000
100M
0000
10M0
0000
,  // measure 51
100M
0000
10M0
0000
1000
0100
0010
0001
1000
0400
0001
0000
0010
0000
1000
0000
,  // measure 52
0310
0000
0M00
0000
1011
0000
0000
0000
0100
0000
00MM
0000
1010
0M0M
1010
0M0M
,  // measure 53
1010
0M0M
0000
0000
0100
0010
1000
0100
1000
0040
1000
0000
0001
0000
0100
0000
,  // measure 54
0031
0000
00M0
0000
1110
0000
0000
0000
0001
0000
MM00
0000
0110
M00M
0110
M00M
,  // measure 55
0110
M00M
0000
0000
0001
0010
0100
1000
0100
0040
0001
0000
1000
0000
0100
0000
,  // measure 56
0031
0000
000M
0000
1101
0000
0000
0000
0010
0000
00MM
0000
1001
0MM0
1001
0MM0
,  // measure 57
1001
0000
0MM0
0000
0000
0000
0000
0000
0400
4000
0000
0000
0000
0000
0300
0000
3004
0040
0000
0000
0000
0033
0000
0000
1000
0010
0000
0010
1000
0000
0100
0010
,  // measure 58
1001
0000
1100
1000
0100
0010
0100
1000
,  // measure 59
0001
0000
1001
1000
0010
0100
0010
1000
,  // measure 60
0001
0000
1000
0100
0000
0100
1000
0000
,  // measure 61
00M1
0000
0202
0000
0000
0000
1000
00M0
,  // measure 62
0303
0000
0101
0100
M001
0010
0001
1000
,  // measure 63
00M1
0000
1100
01M0
1000
0001
1000
001M
,  // measure 64
1000
0000
0010
0100
M00M
0100
0001
0000
,  // measure 65
1000
0000
2200
0000
0000
00M0
0001
0000
,  // measure 66
3300
0000
0110
0001
1M00
00M1
1M00
00M1
,  // measure 67
0100
0000
1001
0010
M100
001M
M100
001M
,  // measure 68
1000
0M00
1000
0001
M000
0001
0100
000M
,  // measure 69
0100
0000
0202
M000
00M0
0000
10M0
0000
,  // measure 70
0303
0000
0000
0000
0100
M000
0001
00M0
1000
0M00
0001
0000
0010
M000
0100
000M
,  // measure 71
0010
0000
0001
0M00
1000
00M0
0100
0000
0010
0000
0100
M000
0010
0000
0001
0000
,  // measure 72
1000
0001
2002
0000
0000
0000
0010
0000
,  // measure 73
0000
0000
0000
0000
0000
0000
0000
0000
0000
0000
0000
0000
0000
0000
0000
0000
0000
0000
0000
0000
0000
0000
0000
0000
3003
0000
0000
0000
0000
0000
0000
0000
0000
0000
0000
0000
0000
0000
0000
0000
0000
0000
0000
0000
0000
0000
0000
0000
1000
0000
0000
0000
0000
0000
0000
0000
0000
0000
0000
0000
0000
0000
0000
0000
0000
0000
0000
0000
0000
0000
0000
0000
0000
0000
0000
0000
0000
0000
0000
0010
0000
0000
0000
0000
0000
0000
0000
0000
0000
0000
0000
0000
0000
0000
0000
0000
0000
0000
0000
0000
0000
0000
0000
0000
0000
0000
0000
0000
0000
1000
0000
0000
0000
0000
0000
0000
0000
0000
0000
0000
0000
0000
0000
0000
0000
0000
0000
0000
0000
0000
0000
0000
0000
0000
0000
0000
0000
0000
0000
0010
0000
0000
0000
0000
0000
0000
0000
0000
0000
0000
0000
0000
0000
0000
0000
0000
0000
0000
0000
0000
0000
0000
0000
0000
0000
0000
0000
0000
0000
1000
0000
0000
0000
0000
0000
0000
0000
0000
0000
0000
0000
0000
0000
0000
0000
0000
0000
0000
0000
0000
0000
0000
,  // measure 74
0000
0000
0000
0000
0000
0000
0000
0010
0000
0000
0000
0000
0000
0000
0000
0000
0000
0000
0000
0000
0000
0000
0000
0000
0000
0000
0000
0000
0000
0000
0000
0000
0000
0000
0000
0000
0000
1000
0000
0000
0000
0000
0000
0000
0000
0000
0000
0000
0000
0000
0000
0000
0000
0000
0000
0000
0000
0000
0000
0000
0000
0000
0000
0000
0000
0000
0000
0000
0000
0000
0000
0000
0000
0000
0000
0000
0000
0000
0000
0000
0000
0000
0000
0000
0000
0000
0000
0000
0000
0000
0000
0000
0000
0000
0000
0000
0001
0000
0000
0000
0000
0000
0000
0000
0000
0000
0000
0000
0000
0000
0000
0000
0000
0000
0000
0000
0000
0000
0000
0000
0000
0000
0000
0000
0000
0000
0000
0100
0000
0000
0000
0000
0000
0000
0000
0000
0000
0000
0000
0000
0000
0000
0000
0000
0000
0000
0000
0000
0000
0000
0000
0000
0000
0000
0000
0000
0000
0001
0000
0000
0000
0000
0000
0000
0000
0000
0000
0000
0000
0000
0000
0000
0000
0000
0000
0000
0000
0000
0000
0000
0000
0000
0000
0000
0000
0000
0000
0100
0000
0000
0000
0000
,  // measure 75
0000
0000
0000
0000
0000
0000
0000
0000
0000
0000
0000
0000
0000
0000
0000
0000
0000
0000
0000
0000
0000
0000
0000
0000
0000
0001
0000
0000
0000
0000
0000
0000
0000
0000
0000
0000
0000
0000
0000
0000
0000
0000
0000
0000
0000
0000
0000
0000
0000
0000
0000
0000
0000
0000
0000
0100
0000
0000
0000
0000
0000
0000
0000
0000
0000
0000
0000
0000
0000
0000
0000
0000
0000
0000
0000
0000
0000
0000
0000
0000
0000
0000
0000
0000
0000
0001
0000
0000
0000
0000
0000
0000
0000
0000
0000
0000
0000
0000
0000
0000
0000
0000
0000
0000
0000
0000
0000
0000
0000
0000
0000
0000
0000
0000
0000
0000
0000
0000
0000
0000
0000
0000
0000
0000
0000
0000
0000
0000
0000
0000
0000
0000
0000
0000
0000
0000
0000
0000
0000
0000
0000
0000
0000
0000
0100
0000
0000
0000
0000
0000
0000
0000
0000
0000
0000
0000
0000
0000
0000
0000
0000
0000
0000
0000
0000
0000
0000
0000
0000
0000
0000
0000
0000
0000
0000
0010
0000
0000
0000
0000
0000
0000
0000
0000
0000
0000
0000
0000
0000
0000
0000
0000
,  // measure 76
0000
0000
0000
0000
0000
0000
0000
0000
0000
0000
0000
0000
0000
0100
0000
0000
0000
0000
0000
0000
0000
0000
0000
0000
0000
0000
0000
0000
0000
0000
0000
0000
0000
0000
0000
0000
0000
0000
0000
0000
0000
0000
0000
0010
0000
0000
0000
0000
0000
0000
0000
0000
0000
0000
0000
0000
0000
0000
0000
0000
0000
0000
0000
0000
0000
0000
0000
0000
0000
0000
0000
0000
0000
0100
0000
0000
0000
0000
0000
0000
0000
0000
0000
0000
0000
0000
0000
0000
0000
0000
0000
0000
0000
0000
0000
0000
0000
0000
0000
0000
0000
0000
0000
0010
0000
0000
0000
0000
0000
0000
0000
0000
0000
0000
0000
0000
0000
0000
0000
0000
0000
0000
0000
0000
0000
0000
0000
0000
0000
0000
0000
0000
0000
0100
0000
0000
0000
0000
0000
0000
0000
0000
0000
0000
0000
0000
0000
0000
0000
0000
0000
0000
0000
0000
0000
0000
0000
0000
0000
0000
0000
0000
0000
0000
0000
0000
0000
0000
0000
0000
0000
0000
0000
0000
0000
0000
0000
0000
0000
0000
0000
0000
0000
0000
0000
0000
0000
0000
0000
0000
0000
0000
,  // measure 77
0001
0000
0000
0000
0000
0000
0000
0000
0000
0000
0000
0000
0000
0000
0000
0000
0000
0000
0000
0000
0000
0000
0000
0000
0000
0000
0000
0000
0000
0000
0000
1000
0000
0000
0000
0000
0000
0000
0000
0000
0000
0000
0000
0000
0000
0000
0000
0000
0000
0000
0000
0000
0000
0000
0000
0000
0000
0000
0000
0000
0000
0001
0000
0000
0000
0000
0000
0000
0000
0000
0000
0000
0000
0000
0000
0000
0000
0000
0000
0000
0000
0000
0000
0000
0000
0000
0000
0000
0000
0000
0000
1000
0000
0000
0000
0000
0000
0000
0000
0000
0000
0000
0000
0000
0000
0000
0000
0000
0000
0000
0000
0000
0000
0000
0000
0000
0000
0000
0000
0000
0000
0001
0000
0000
0000
0000
0000
0000
0000
0000
0000
0000
0000
0000
0000
0000
0000
0000
0000
0000
0000
0000
0000
0000
0000
0000
0000
0000
0000
0000
0000
1000
0000
0000
0000
0000
0000
0000
0000
0000
0000
0000
0000
0000
0000
0000
0000
0000
0000
0000
0000
0000
0000
0000
0000
0000
0000
0000
0000
0000
0000
0001
0000
0000
0000
0000
0000
0000
0000
0000
0000
0000
,  // measure 78
0000
0000
0000
0000
0000
0000
0000
0000
0000
0000
0000
0000
0000
0000
0000
0000
0000
0000
0000
0000
0000
0000
0000
0000
0000
0000
0000
0000
0000
0000
0000
0000
0000
0000
0000
0000
0000
0000
0000
0000
0000
0000
0000
0000
0000
0000
0000
0000
1000
0000
0000
0000
0000
0000
0000
0000
0000
0000
0000
0000
0000
0000
0000
0000
0000
0000
0000
0000
0000
0000
0000
0000
0000
0000
0000
0000
0000
0000
0000
0100
0000
0000
0000
0000
0000
0000
0000
0000
0000
0000
0000
0000
0000
0000
0000
0000
0000
0000
0000
0000
0000
0000
0000
0000
0000
0000
0000
0000
0000
0010
0000
0000
0000
0000
0000
0000
0000
0000
0000
0000
0000
0000
0000
0000
0000
0000
0000
0000
0000
0000
0000
0000
0000
0000
0000
0000
0000
0000
0000
0100
0000
0000
0000
0000
0000
0000
0000
0000
0000
0000
0000
0000
0000
0000
0000
0000
0000
0000
0000
0000
0000
0000
0000
0000
0000
0000
0000
0000
0000
1000
0000
0000
0000
0000
0000
0000
0000
0000
0000
0000
0000
0000
0000
0000
0000
0000
0000
0000
0000
0000
0000
0000
,  // measure 79
0000
0000
0000
0000
0000
0000
0000
0100
0000
0000
0000
0000
0000
0000
0000
0000
0000
0000
0000
0000
0000
0000
0000
0000
0000
0000
0000
0000
0000
0000
0000
0000
0000
0000
0000
0000
0000
1000
0000
0000
0000
0000
0000
0000
0000
0000
0000
0000
0000
0000
0000
0000
0000
0000
0000
0000
0000
0000
0000
0000
0000
0000
0000
0000
0000
0000
0000
0000
0000
0000
0000
0000
0000
0000
0000
0000
0000
0000
0000
0000
0000
0000
0000
0000
0000
0000
0000
0000
0000
0000
0000
0000
0000
0000
0000
0000
0001
0000
0000
0000
0000
0000
0000
0000
0000
0000
0000
0000
0000
0000
0000
0000
0000
0000
0000
0000
0000
0000
0000
0000
0000
0000
0000
0000
0000
0000
0000
1000
0000
0000
0000
0000
0000
0000
0000
0000
0000
0000
0000
0000
0000
0000
0000
0000
0000
0000
0000
0000
0000
0000
0000
0000
0000
0000
0000
0000
0000
0010
0000
0000
0000
0000
0000
0000
0000
0000
0000
0000
0000
0000
0000
0000
0000
0000
0000
0000
0000
0000
0000
0000
0000
0000
0000
0000
0000
0000
0000
1000
0000
0000
0000
0000
,  // measure 80
0000
0000
0000
0000
0000
0000
0000
0000
0000
0000
0000
0000
0000
0000
0000
0000
0000
0000
0000
0000
0000
0000
0000
0000
0000
0010
0000
0000
0000
0000
0000
0000
0000
0000
0000
0000
0000
0000
0000
0000
0000
0000
0000
0000
0000
0000
0000
0000
0000
0000
0000
0000
0000
0000
0000
1000
0000
0000
0000
0000
0000
0000
0000
0000
0000
0000
0000
0000
0000
0000
0000
0000
0000
0000
0000
0000
0000
0000
0000
0000
0000
0000
0000
0000
0000
0001
0000
0000
0000
0000
0000
0000
0000
0000
0000
0000
0000
0000
0000
0000
0000
0000
0000
0000
0000
0000
0000
0000
0000
0000
0000
0000
0000
0000
0000
0000
0000
0000
0000
0000
0000
0000
0000
0000
0000
0000
0000
0000
0000
0000
0000
0000
0000
0000
0000
0000
0000
0000
0000
0000
0000
0000
0000
0000
0100
0000
0000
0000
0000
0000
0000
0000
0000
0000
0000
0000
0000
0000
0000
0000
0000
0000
0000
0000
0000
0000
0000
0000
0000
0000
0000
0000
0000
0000
0000
0001
0000
0000
0000
0000
0000
0000
0000
0000
0000
0000
0000
0000
0000
0000
0000
0000
,  // measure 81
0000
0000
0000
0000
0000
0000
0000
0000
0000
0000
0000
0000
0000
0100
0000
0000
0000
0000
0000
0000
0000
0000
0000
0000
0000
0000
0000
0000
0000
0000
0000
0000
0000
0000
0000
0000
0000
0000
0000
0000
0000
0000
0000
0010
0000
0000
0000
0000
0000
0000
0000
0000
0000
0000
0000
0000
0000
0000
0000
0000
0000
0000
0000
0000
0000
0000
0000
0000
0000
0000
0000
0000
0000
0100
0000
0000
0000
0000
0000
0000
0000
0000
0000
0000
0000
0000
0000
0000
0000
0000
0000
0000
0000
0000
0000
0000
0000
0000
0000
0000
0000
0000
0000
0001
0000
0000
0000
0000
0000
0000
0000
0000
0000
0000
0000
0000
0000
0000
0000
0000
0000
0000
0000
0000
0000
0000
0000
0000
0000
0000
0000
0000
0000
0100
0000
0000
0000
0000
0000
0000
0000
0000
0000
0000
0000
0000
0000
0000
0000
0000
0000
0000
0000
0000
0000
0000
0000
0000
0000
0000
0000
0000
0000
0000
0000
0000
0000
0000
0000
0000
0000
0000
0000
0000
0000
0000
0000
0000
0000
0000
0000
0000
0000
0000
0000
0000
0000
0000
0000
0000
0000
0000
,  // measure 82
0010
0000
0000
0000
0000
0000
0000
0000
0000
0000
0000
0000
0000
0000
0000
0000
0000
0000
0000
0000
0000
0000
0000
0000
0000
0000
0000
0000
0000
0000
0000
1000
0000
0000
0000
0000
0000
0000
0000
0000
0000
0000
0000
0000
0000
0000
0000
0000
0000
0000
0000
0000
0000
0000
0000
0000
0000
0000
0000
0000
0000
0010
0000
0000
0000
0000
0000
0000
0000
0000
0000
0000
0000
0000
0000
0000
0000
0000
0000
0000
0000
0000
0000
0000
0000
0000
0000
0000
0000
0000
0000
1000
0000
0000
0000
0000
0000
0000
0000
0000
0000
0000
0000
0000
0000
0000
0000
0000
0000
0000
0000
0000
0000
0000
0000
0000
0000
0000
0000
0000
0000
0001
0000
0000
0000
0000
0000
0000
0000
0000
0000
0000
0000
0000
0000
0000
0000
0000
0000
0000
0000
0000
0000
0000
0000
0000
0000
0000
0000
0000
0000
1000
0000
0000
0000
0000
0000
0000
0000
0000
0000
0000
0000
0000
0000
0000
0000
0000
0000
0000
0000
0000
0000
0000
0000
0000
0000
0000
0000
0000
0000
0001
0000
0000
0000
0000
0000
0000
0000
0000
0000
0000
,  // measure 83
0000
0000
0000
0000
0000
0000
0000
0000
0000
0000
0000
0000
0000
0000
0000
0000
0000
0000
0000
0000
0000
0000
0000
0000
0000
0000
0000
0000
0000
0000
0000
0000
0000
0000
0000
0000
0000
0000
0000
0000
0000
0000
0000
0000
0000
0000
0000
0000
0001
0000
0000
0000
0000
0000
0000
0000
0000
0000
0000
0000
0000
0000
0000
0000
0000
0000
0000
0000
0000
0000
0000
0000
0000
0000
0000
0000
0000
0000
0000
0000
0000
0000
0000
0000
0000
0000
0000
0000
0000
0000
0000
0000
0000
0000
0000
0000
0000
0000
0000
0000
0000
0000
0000
0000
0000
0000
0000
0000
0000
0100
0000
0000
0000
0000
0000
0000
0000
0000
0000
0000
0000
0000
0000
0000
0000
0000
0000
0000
0000
0000
0000
0000
0000
0000
0000
0000
0000
0000
0000
0000
0000
0000
0000
0000
0000
0000
0000
0000
0000
0000
0000
0000
0000
0000
0000
0000
0000
0000
0000
0000
0000
0000
0000
0000
0000
0000
0000
0000
0001
0000
0000
0000
0000
0000
0000
0000
0000
0000
0000
0000
0000
0000
0000
0000
0000
0000
0000
0000
0000
0000
0000
0000
,  // measure 84
0000
0000
0000
0000
0000
0000
0000
0000
0000
0000
0000
0000
0000
0000
0000
0000
0000
0000
0000
0000
0000
0000
0000
0000
0000
0000
0000
0000
0000
0000
0000
0000
0000
0000
0000
0000
0000
0100
0000
0000
0000
0000
0000
0000
0000
0000
0000
0000
0000
0000
0000
0000
0000
0000
0000
0000
0000
0000
0000
0000
0000
0000
0000
0000
0000
0000
0000
0000
0000
0000
0000
0000
0000
0000
0000
0000
0000
0000
0000
0000
0000
0000
0000
0000
0000
0000
0000
0000
0000
0000
0000
0000
0000
0000
0000
0000
0010
0000
0000
0000
0000
0000
0000
0000
0000
0000
0000
0000
0000
0000
0000
0000
0000
0000
0000
0000
0000
0000
0000
0000
0000
0000
0000
0000
0000
0000
0000
0000
0000
0000
0000
0000
0000
0000
0000
0000
0000
0000
0000
0000
0000
0000
0000
0000
0000
0000
0000
0000
0000
0000
0000
0000
0000
0000
0000
0000
0000
1000
0000
0000
0000
0000
0000
0000
0000
0000
0000
0000
0000
0000
0000
0000
0000
0000
0000
0000
0000
0000
0000
0000
0000
0000
0000
0000
0000
0000
0000
0000
0000
0000
0000
0000
,  // measure 85
0000
0000
0000
0000
0000
0000
0000
0000
0000
0000
0000
0000
0000
0000
0000
0000
0000
0000
0000
0000
0000
0000
0000
0000
0001
0000
0000
0000
0000
0000
0000
0000
0000
0000
0000
0000
0000
0000
0000
0000
0000
0000
0000
0000
0000
0000
0000
0000
0000
0000
0000
0000
0000
0000
0000
0000
0000
0000
0000
0000
0000
0000
0000
0000
0000
0000
0000
0000
0000
0000
0000
0000
0000
0000
0000
0000
0000
0000
0000
0000
0000
0000
0000
0000
0000
0100
0000
0000
0000
0000
0000
0000
0000
0000
0000
0000
0000
0000
0000
0000
0000
0000
0000
0000
0000
0000
0000
0000
0000
0000
0000
0000
0000
0000
0000
0000
0000
0000
0000
0000
0000
0000
0000
0000
0000
0000
0000
0000
0000
0000
0000
0000
0000
0000
0000
0000
0000
0000
0000
0000
0000
0000
0000
0000
0110
0000
0000
0000
0000
0000
0000
0000
0000
0000
0000
0000
0000
0000
0000
0000
0000
0000
0000
0000
0000
0000
0000
0000
0000
0000
0000
0000
0000
0000
0000
0100
0000
0000
0000
0000
0000
0000
0000
0000
0000
0000
0000
0000
0000
0000
0000
0000
,  // measure 86
0000
0000
0000
0000
0000
0000
0000
0000
0000
0000
0000
0000
0000
0001
0000
0000
0000
0000
0000
0000
0000
0000
0000
0000
0000
0000
0000
0000
0000
0000
0000
0000
0000
0000
0000
0000
0000
0000
0000
0000
0000
0000
0000
0100
0000
0000
0000
0000
0000
0000
0000
0000
0000
0000
0000
0000
0000
0000
0000
0000
0000
0000
0000
0000
0000
0000
0000
0000
0000
0000
0000
0000
0000
0001
0000
0000
0000
0000
0000
0000
0000
0000
0000
0000
0000
0000
0000
0000
0000
0000
0000
0000
0000
0000
0000
0000
0000
0000
0000
0000
0000
0000
0000
0100
0000
0000
0000
0000
0000
0000
0000
0000
0000
0000
0000
0000
0000
0000
0000
0000
0000
0000
0000
0000
0000
0000
0000
0000
0000
0000
0000
0000
0000
0001
0000
0000
0000
0000
0000
0000
0000
0000
0000
0000
0000
0000
0000
0000
0000
0000
0000
0000
0000
0000
0000
0000
0000
0000
0000
0000
0000
0000
0000
0000
0000
0000
0000
0000
0000
0000
0000
0000
0000
0000
0000
0000
0000
0000
0000
0000
0000
0000
0000
0000
0000
0000
0000
0000
0000
0000
0000
0000
,  // measure 87
1001
0000
0000
0000
0000
0000
0000
0000
0000
0000
0000
0000
0000
0000
0000
0000
0000
0000
0000
0000
0000
0000
0000
0000
0000
0000
0000
0000
0000
0000
0000
1000
0000
0000
0000
0000
0000
0000
0000
0000
0000
0000
0000
0000
0000
0000
0000
0000
0000
0000
0000
0000
0000
0000
0000
0000
0000
0000
0000
0000
0000
0100
0000
0000
0000
0000
0000
0000
0000
0000
0000
0000
0000
0000
0000
0000
0000
0000
0000
0000
0000
0000
0000
0000
0000
0000
0000
0000
0000
0000
0000
1000
0000
0000
0000
0000
0000
0000
0000
0000
0000
0000
0000
0000
0000
0000
0000
0000
0000
0000
0000
0000
0000
0000
0000
0000
0000
0000
0000
0000
0000
0100
0000
0000
0000
0000
0000
0000
0000
0000
0000
0000
0000
0000
0000
0000
0000
0000
0000
0000
0000
0000
0000
0000
0000
0000
0000
0000
0000
0000
0000
1000
0000
0000
0000
0000
0000
0000
0000
0000
0000
0000
0000
0000
0000
0000
0000
0000
0000
0000
0000
0000
0000
0000
0000
0000
0000
0000
0000
0000
0000
0100
0000
0000
0000
0000
0000
0000
0000
0000
0000
0000
,  // measure 88
0000
0000
0000
0000
0000
0000
0000
0000
0000
0000
0000
0000
0000
0000
0000
0000
0000
0000
0000
0000
0000
0000
0000
0000
0000
0000
0000
0000
0000
0000
0000
0000
0000
0000
0000
0000
0000
0000
0000
0000
0000
0000
0000
0000
0000
0000
0000
0000
0100
0000
0000
0000
0000
0000
0000
0000
0000
0000
0000
0000
0000
0000
0000
0000
0000
0000
0000
0000
0000
0000
0000
0000
0000
0000
0000
0000
0000
0000
0000
1000
0000
0000
0000
0000
0000
0000
0000
0000
0000
0000
0000
0000
0000
0000
0000
0000
0000
0000
0000
0000
0000
0000
0000
0000
0000
0000
0000
0000
0000
0100
0000
0000
0000
0000
0000
0000
0000
0000
0000
0000
0000
0000
0000
0000
0000
0000
0000
0000
0000
0000
0000
0000
0000
0000
0000
0000
0000
0000
0000
0000
0000
0000
0000
0000
0000
0000
0000
0000
0000
0000
0000
0000
0000
0000
0000
0000
0000
0000
0000
0000
0000
0000
0000
0000
0000
0000
0000
0000
0010
0000
0000
0000
0000
0000
0000
0000
0000
0000
0000
0000
0000
0000
0000
0000
0000
0000
0000
0000
0000
0000
0000
0000
,  // measure 89
0000
0000
0000
0000
0000
0000
0000
0000
0000
0000
0000
0000
0000
0000
0000
0000
0000
0000
0000
0000
0000
0000
0000
0000
0000
0000
0000
0000
0000
0000
0000
0000
0000
0000
0000
0000
0000
0001
0000
0000
0000
0000
0000
0000
0000
0000
0000
0000
0000
0000
0000
0000
0000
0000
0000
0000
0000
0000
0000
0000
0000
0000
0000
0000
0000
0000
0000
0000
0000
0000
0000
0000
0000
0000
0000
0000
0000
0000
0000
0000
0000
0000
0000
0000
0000
0000
0000
0000
0000
0000
0000
0000
0000
0000
0000
0000
0010
0000
0000
0000
0000
0000
0000
0000
0000
0000
0000
0000
0000
0000
0000
0000
0000
0000
0000
0000
0000
0000
0000
0000
0000
0000
0000
0000
0000
0000
0000
0001
0000
0000
0000
0000
0000
0000
0000
0000
0000
0000
0000
0000
0000
0000
0000
0000
0000
0000
0000
0000
0000
0000
0000
0000
0000
0000
0000
0000
0000
0010
0000
0000
0000
0000
0000
0000
0000
0000
0000
0000
0000
0000
0000
0000
0000
0000
0000
0000
0000
0000
0000
0000
0000
0000
0000
0000
0000
0000
0000
0000
0000
0000
0000
0000
,  // measure 90
0000
0000
0000
0000
0000
0000
0000
0000
0000
0000
0000
0000
0000
0000
0000
0000
0000
0000
0000
0000
0000
0000
0000
0000
0100
0000
0000
0000
0000
0000
0000
0000
0000
0000
0000
0000
0000
0000
0000
0000
0000
0000
0000
0000
0000
0000
0000
0000
0000
0000
0000
0000
0000
0000
0000
0000
0000
0000
0000
0000
0000
0000
0000
0000
0000
0000
0000
0000
0000
0000
0000
0000
0000
0000
0000
0000
0000
0000
0000
0000
0000
0000
0000
0000
0000
1000
0000
0000
0000
0000
0000
0000
0000
0000
0000
0000
0000
0000
0000
0000
0000
0000
0000
0000
0000
0000
0000
0000
0000
0000
0000
0000
0000
0000
0000
0000
0000
0000
0000
0000
0000
0000
0000
0000
0000
0000
0000
0000
0000
0000
0000
0000
0000
0000
0000
0000
0000
0000
0000
0000
0000
0000
0000
0000
1100
0000
0000
0000
0000
0000
0000
0000
0000
0000
0000
0000
0000
0000
0000
0000
0000
0000
0000
0000
0000
0000
0000
0000
0000
0000
0000
0000
0000
0000
0000
1000
0000
0000
0000
0000
0000
0000
0000
0000
0000
0000
0000
0000
0000
0000
0000
0000
,  // measure 91
0000
0000
0000
0000
0000
0000
0000
0000
0000
0000
0000
0000
0000
0100
0000
0000
0000
0000
0000
0000
0000
0000
0000
0000
0000
0000
0000
0000
0000
0000
0000
0000
0000
0000
0000
0000
0000
0000
0000
0000
0000
0000
0000
1000
0000
0000
0000
0000
0000
0000
0000
0000
0000
0000
0000
0000
0000
0000
0000
0000
0000
0000
0000
0000
0000
0000
0000
0000
0000
0000
0000
0000
0001
0000
0000
0000
0000
0000
0000
0000
0000
0000
0000
0000
0000
0000
0000
0000
0000
0000
0000
0000
0000
0000
0000
0000
0000
0000
0000
0000
0000
0000
0000
1000
0000
0000
0000
0000
0000
0000
0000
0000
0000
0000
0000
0000
0000
0000
0000
0000
0000
0000
0000
0000
0000
0000
0000
0000
0000
0000
0000
0000
0000
0001
0000
0000
0000
0000
0000
0000
0000
0000
0000
0000
0000
0000
0000
0000
0000
0000
0000
0000
0000
0000
0000
0000
0000
0000
0000
0000
0000
0000
0000
1000
0000
0000
0000
0000
0000
0000
0000
0000
0000
0000
0000
0000
0000
0000
0000
0000
0000
0000
0000
0000
0000
0000
0000
0000
0000
0000
0000
0000
,  // measure 92
1001
0000
0000
0000
0000
0000
0000
0000
0000
0000
0000
0000
0000
0000
0000
0000
0000
0000
0000
0000
0000
0000
0000
0000
0000
0000
0000
0000
0000
0000
0000
0001
0000
0000
0000
0000
0000
0000
0000
0000
0000
0000
0000
0000
0000
0000
0000
0000
0000
0000
0000
0000
0000
0000
0000
0000
0000
0000
0000
0000
0000
0100
0000
0000
0000
0000
0000
0000
0000
0000
0000
0000
0000
0000
0000
0000
0000
0000
0000
0000
0000
0000
0000
0000
0000
0000
0000
0000
0000
0000
0000
0001
0000
0000
0000
0000
0000
0000
0000
0000
0000
0000
0000
0000
0000
0000
0000
0000
0000
0000
0000
0000
0000
0000
0000
0000
0000
0000
0000
0000
0100
0000
0000
0000
0000
0000
0000
0000
0000
0000
0000
0000
0000
0000
0000
0000
0000
0000
0000
0000
0000
0000
0000
0000
0000
0000
0000
0000
0000
0000
0000
0001
0000
0000
0000
0000
0000
0000
0000
0000
0000
0000
0000
0000
0000
0000
0000
0000
0000
0000
0000
0000
0000
0000
0000
0000
0000
0000
0000
0000
0000
1000
0000
0000
0000
0000
0000
0000
0000
0000
0000
0000
,  // measure 93
0000
0000
0000
0000
0000
0000
0000
0000
0000
0000
0000
0000
0000
0000
0000
0000
0000
0000
0000
0001
0000
0000
0000
0000
0000
0000
0000
0000
0000
0000
0000
0000
0000
0000
0000
0000
0000
0000
0000
0000
0000
0000
0000
0000
0000
0000
0000
0000
2002
0000
0000
0000
0000
0000
0000
0000
0000
0000
0000
0000
0000
0000
0000
0000
0000
0000
0000
0000
0000
0000
0000
0000
0M00
0000
0000
0000
0000
0000
0000
0000
0000
0000
0000
0000
0000
0000
0000
0000
0000
0000
0000
0000
0000
0000
0000
0000
00M0
0000
0000
0000
0000
0000
0000
0000
0000
0000
0000
0000
0000
0000
0000
0000
0000
0000
0000
0000
0000
0000
0000
0000
0M00
0000
0000
0000
0000
0000
0000
0000
0000
0000
0000
0000
0000
0000
0000
0000
0000
0000
0000
0000
0000
0000
0000
0000
00M0
0000
0000
0000
0000
0000
0000
0000
0000
0000
0000
0000
0000
0000
0000
0000
0000
0000
0000
0000
0000
0000
0000
0000
0MM0
0000
0000
0000
0000
0000
0000
0000
0000
0000
0000
0000
0000
0000
0000
0000
0000
0000
0000
0000
0000
0000
0000
0000
,  // measure 94
0MM0
0000
0000
0000
0000
0000
3003
0000
0000
0000
0000
0000
1000
0000
0000
0100
0000
0000
1000
0000
0100
0000
1000
0000
0001
0000
0000
1000
0000
0000
0001
0000
0000
1000
0000
0000
0001
0000
0000
0100
0000
0000
0001
0000
0000
1000
0000
0000
,  // measure 95
0001
0000
0100
0000
0001
0000
0100
0000
0001
0000
0000
0000
0100
0000
0000
0001
0000
0000
1000
0000
0000
0001
0000
0000
1000
0000
0000
0001
0000
0000
0000
0000
1000
0000
0010
0000
1000
0000
0010
0000
1000
0000
0000
0000
0000
1000
0000
0000
,  // measure 96
0001
0000
0000
1000
0000
0000
0001
0000
0000
1000
0000
0000
0100
0000
1000
0000
0100
0000
1000
0000
0000
0001
0000
0000
1000
0000
0000
0001
0000
0000
0100
0000
0001
0000
0100
0000
0001
0000
1000
0000
0001
0000
1000
0000
0000
0001
0000
0000
,  // measure 97
0100
0000
0000
0001
0000
0000
0100
0000
0000
0001
0000
0000
1000
0000
0001
0000
1000
0000
0001
0000
0000
0010
0000
0000
0100
0000
0000
1000
0000
0000
0100
0000
0000
1000
0000
0000
0100
0000
1000
0000
0100
0000
1000
0000
0100
0000
0000
0000
,  // measure 98
1000
0100
0010
0000
2002
0000
0000
0000
0000
0000
0000
0000
0010
0000
0000
0000
,  // measure 99
0MM0
3003
0000
M00M
MMMM
M00M
0000
0000
0000
0000
0000
0000
0000
0000
0000
0000
;

//---------------dance-double - M. Simmons----------------
#NOTES:
     dance-double:
     M. Simmons:
     Challenge:
     13:
     0.980,0.090,0.377,0.377,0.877:
00000000
00000000
00000000
00000000
,
00000000
00000000
00000000
00000000
,
00000000
00000000
00000000
00000000
,
00000000
00000000
00000000
00000000
00000000
00000000
00000100
00000010
,
00000001
00000000
00000100
00001000
00010000
00000000
00000100
00000010
,
00000100
00000000
00010000
00001000
01000000
00100000
00010000
00100000
,
10000000
00000000
01000000
00010000
00001000
00000000
00000100
00000010
,
00001000
00000000
00000010
00000100
00000001
00000010
00000010
00000100
,
00001000
00000000
00000100
00010000
00100000
00000000
01000000
00001000
,
00000010
00000100
00010000
00001000
01000000
00000000
01000000
10000000
,
01000000
00000000
00010000
10000000
01000000
00000000
00100000
00001000
,
00010000
00000000
01000000
00000000
00010000
00000000
00001000
00010000
00001000
00010000
00000100
00000000
00000010
00000000
00000001
00000000
,
00000010
00000000
00000010
00000100
00010000
00000000
00010000
00100000
,
01000000
00000000
01000000
00000100
00000010
00000100
00010000
00001000
,
01000000
00000000
00100000
00010000
00100000
00000000
10000000
00010000
,
00100000
00000000
01000000
00010000
00001000
00000100
00000010
00000001
,
00000010
00000000
00001000
00000010
00010000
00000000
00000100
01000000
,
00010000
00000000
00100000
00000010
00001000
00000010
00010000
00000100
,
00010000
00000000
00001000
01000000
00100000
00000000
10000000
00010000
,
01000000
00000000
00010000
00100000
01000000
00010000
00002000
00000000
,
00000000
00000100
00013000
00200000
00000000
01000000
00000000
00310000
,
00000000
00000000
00000000
00000000
00002000
00000000
00000000
00000000
00000100
00000000
00000000
00000000
00003010
00000000
00000000
00000000
00000000
00000000
00000000
00000000
00010000
00000000
00000000
00000000
00000001
00000000
00010000
00000100
00000010
00000000
00000100
00010000
,
00001000
00000000
01000000
00000000
01010000
00000000
10100000
00000000
01000000
00000000
00010000
00100000
01000000
00000000
00010000
00001000
00000100
00000000
00000010
00000000
00001020
00000000
00000000
00000000
00001030
00000000
00000010
00000000
00000100
00000000
00001000
00000000
,
00010000
01000000
00100000
00000000
01000000
00000000
10000000
00000000
00100000
00010000
00000000
00001000
00100000
00000000
01000000
00000000
,
00110000
00000000
01001000
00000000
00010000
00000000
01000000
00000000
01000100
00000000
00011000
00000000
00000100
00000010
00000001
00000100
,
00000010
00010000
00000100
00000010
00000001
00000010
00000000
00000100
00001000
00000000
00000100
00000000
00010000
00000000
01000000
00000000
,
10000000
00000000
00100000
00000000
00001000
00000000
00000010
00000100
00000000
00000000
00001001
00000000
00000001
00000100
00001000
00000100
,
00000010
00010000
00001000
00100000
01000000
00100000
00001000
10000000
00100000
00000000
01000000
00000000
00010000
00000000
00100000
00000000
,
01100000
00000000
00101000
00001000
00000000
00010000
00001000
00010000
00001000
00000000
00010000
00000000
00000010
00000100
00000010
00010000
,
00000100
00010000
00001000
01000000
00100000
00010000
00001000
00000100
00000010
00000000
00001000
00000000
00000100
00000000
00010000
00000000
,
00100000
00000000
01000000
00000000
00001000
00000000
10000000
01000000
00000000
00000000
00100000
00000000
02100000
03000000
00000000
00000000
,
00000000
00000000
00100000
00000000
00001000
00100000
00001000
00000000
,
00010000
00000010
00000100
00010010
,
00010100
00000000
00001000
01000000
00010000
01000000
20010000
00000000
,
31000000
00000000
00100000
00001000
00100000
00000000
00011000
00000000
,
00100010
00000010
00010000
00000000
00000100
00000000
00010000
00001000
,
01000000
00000000
00100000
00010000
00100000
00000000
10000000
00000000
,
01100000
00000000
00100000
00001000
00101000
00000000
00010000
00000000
,
00010010
00000000
00010000
00000100
00010000
00000000
00000004
00001000
,
00000000
00001000
00000003
00000000
00000010
00000100
00010000
00000000
,
00001000
00000000
01000000
00010000
01000000
00000000
00100000
00010000
,
00100000
00000000
01000000
00001000
00100000
01000000
10010000
00000000
,
01000000
00000000
00011000
00000000
01000100
00000100
00000000
00010000
,
00000010
00000100
00001000
00000000
00010000
00000100
01000000
00100000
,
00010000
00000000
00110000
00000000
00100000
10000000
00000000
00001000
,
00010000
00000100
00000010
00000100
00010000
00000010
00200010
00000000
,
000000M0
000000M0
003010M0
01000000
00000100
00010000
01000200
00000000
,
0M000000
0M000000
0M000022
00000000
00000000
00000000
00000333
00000000
,
00000000
00000000
00000000
00000000
00000100
00010000
00000100
00000010
00001000
00010000
00000010
00000100
00000001
00010000
00000100
00000010
,
00000100
00010000
00000010
00000000
00100001
00000000
00000000
00000100
00001000
00000000
00010000
00000000
00200000
00000000
01000000
00000000
,
01000000
00000000
01300000
00000000
10000000
00010000
01000000
00100000
00010000
00001000
00100000
01000000
00100000
00001000
10000000
00100000
,
01000000
00001000
01000000
00000000
10000100
00000000
00000000
00000000
00000100
00000000
00001000
00000000
00000100
00000000
00010000
00001000
,
00000000
00010000
00000010
00000000
00000100
00000010
00010000
00000100
00000010
00001000
00010000
00000010
00000100
00000001
00001000
00000100
,
00010000
00001000
00100000
00000000
10000010
00000000
00000000
00000010
00010000
00000000
00001000
00000000
00010000
00000000
00000100
00010000
,
00000000
00000010
00010000
00000000
00001000
00100000
01000000
00010000
00001000
00000100
00000010
00001000
00000001
00010000
00000100
00000010
,
00000100
00010000
00000010
00000000
01000001
00000000
00000000
00000000
01000000
00000000
00001000
00000000
00010000
00000000
00000100
00000000
,
00000010
00000000
00000000
00000000
00000000
00000000
00000000
00000000
00000001
00000010
00000100
00010000
00000010
00000000
00010000
00000000
00001000
01000000
00100000
00010000
00001000
00000000
00100000
00000000
00101000
00000000
00000000
00001000
00010000
00000000
00000100
00000000
,
00010100
00000000
00000100
00010000
00001000
00010000
00000100
00010000
,
00002000
00000000
01003000
00100000
1000M000
00010000
01000000
00010000
,
00100000
00000000
01000000
10000000
00000000
00010000
01000000
00000000
,
01010000
00000000
00101000
00000000
00001000
00010000
00000000
00000010
,
00000000
00010000
00000100
00000010
00000001
00000010
00000100
00000010
,
00000002
00000000
00000103
00001000
0000010M
00000010
00010000
00000100
,
00020000
00000000
00031000
01000000
000M0000
00100000
01000000
00001000
,
01000000
00000000
10100000
00000000
01000000
00010000
00000000
00100000
,
01000000
00100000
01000000
10000000
00001000
01000000
00100000
00010000
,
00002000
00000000
00013000
00000100
0000M010
00000001
00001000
00000010
,
00000200
00000000
00000310
00001000
00000010
00010000
00000010
00000000
,
00011000
00000000
01000000
00010000
01000000
00001000
01000000
00000000
,
00011000
00000000
00001000
01000000
00100000
10000000
00010000
00100000
,
02000000
00000000
03100000
00001000
0M010000
00001000
01000000
00001000
,
00010000
04000400
00000000
00000000
,
03000300
00000000
00000000
00000000
00000000
00000000
00000000
00000000
00000000
00100000
00000000
00000000
00000000
00000000
00001000
00000000
00000000
00000000
00000000
00010000
00000000
00000000
00000000
00000000
00000000
00000000
00000000
00000000
00000000
00000200
00000000
00000000
,
00000000
00000000
00000000
00000000
00000000
00000000
00000000
00020300
00000000
00000000
00000000
00000000
00000M00
00000000
00000000
00000000
00000000
00031000
00000000
00000000
00000000
00000000
01000000
00000000
00000000
00000000
00000000
00100000
00000000
00000000
00000000
00000000
,
00000000
00000000
00000000
00000000
00000000
02000000
00000000
00000000
00000000
00000000
00000000
00000000
00000000
00000000
00000000
03002000
00000000
00000000
00000000
00000000
0M000000
00000000
00000000
00000000
00000000
00013000
00000000
00000000
00000000
00000000
00001000
00000000
,
00000000
00000000
00000000
00100000
00000000
00000000
00000000
00000000
00000000
00000000
00000000
00000000
00000000
00002000
00000000
00000000
00000000
00000000
00000000
00000000
00000000
00000000
00000000
00023000
00000000
00000000
00000000
00000000
0000M000
00000000
00000000
00000000
,
00000000
00030100
00000000
00000000
00000000
00000000
00000010
00000000
00000000
00000000
00000000
00000001
00000000
00000000
00000000
00000000
00000000
00000000
00000000
00000000
00000000
00000002
00000000
00000000
00000000
00000000
00000000
00000000
00000000
00000000
00000000
00002003
,
00000000
00000000
00000000
00000000
0000000M
00000000
00000000
00000000
00000000
00003010
00000000
00000000
00000000
00000000
00000100
00000000
00000000
00000000
00000000
00000001
00000000
00000000
00000000
00000000
00000000
00000000
00000000
00000000
00000000
00000200
00000000
00000000
,
00000000
00000000
00000000
00000000
00000000
00000000
00000000
00000300
00000000
00000020
00000000
00000000
00000M00
00000000
00000000
00000000
00000000
00010030
00000000
00000000
00000000
00000000
00001000
00000000
00000000
00000000
00000000
00100000
00000000
00000000
00000000
00000000
,
00000000
00000000
00000000
00000000
00000000
00002000
00000000
00000000
00000000
00000000
00000000
00000000
00000000
00000000
00000000
00023000
00000000
00000000
00000000
00000000
0000M000
00000000
00000000
00000000
00000000
00031000
00000000
00000000
00000000
00000000
01000000
00000000
,
00000000
00000000
00000000
00010000
00000000
00000000
00000000
00000000
00000000
00000000
00000000
00000000
00000000
00020000
00000000
00000000
00000000
00000000
00000000
00000000
00000000
00000000
00000000
02030000
00000000
00000000
00000000
00000000
000M0000
00000000
00000000
00000000
,
00000000
03001000
00000000
00000000
00000000
00000000
00100000
00000000
00000000
00000000
00000000
00010000
00000000
00000000
00000000
00000000
00000000
00000000
00000000
00000000
00000000
00200000
00000000
00000000
00000000
00000000
00000000
00000000
00000000
00300000
00000000
00020000
,
00000000
00000000
00000000
00000000
00M00000
00000000
00000000
00030000
10000000
00000000
00000000
00000000
00000000
00010000
00000000
00000000
00000000
00000000
01000000
00000000
00000000
00000000
00000000
00000000
00000000
00000000
00000000
00000000
00002000
00000000
00000000
00000000
,
00000000
00000000
00000000
00000000
00000000
00000000
00013000
00000000
00000000
00000000
00000000
00000000
00000000
00000000
00000000
00000000
0001M000
00000000
00000000
00000000
00000000
00000100
00000000
00000000
00000000
00000000
00001000
00000000
00000000
00000000
00000000
00000000
,
00000000
00000000
00000000
00000000
00000200
00000000
00000000
00000000
00000000
00000000
00000000
00000000
00000000
00000000
00001300
00000000
00000000
00000000
00000000
00000000
00000000
00000000
00000000
00000000
00001M00
00000000
00000000
00000000
00000000
00000001
00000000
00000000
,
00000000
00001000
00000000
00000000
00000000
00000000
00000020
00000000
00000000
00000000
00000000
00010030
00000000
00000000
00000000
00000000
,
000100M0
00000000
00000000
00000000
00000000
00000100
00000000
00000000
00000000
00000000
00010000
00000000
00000000
00000000
00000000
00000000
00000000
00000000
00000000
00000000
00002000
00000000
00000000
00000000
00000000
00000000
00000000
00000000
00000000
00000000
01003000
00000000
,
00000000
00000000
00000000
00000000
00000000
00000000
00000000
00000000
0001M000
00000000
00000000
00000000
00000000
10000000
00000000
00000000
00000000
00000000
01000000
00000000
00000000
00000000
00000000
00000000
00000000
00000000
00000000
00000000
00100000
00000000
00000000
00000000
,
00000000
00001000
00000000
00000000
00000000
00000000
00010000
00000000
00000000
00000000
00000000
00000000
00000000
00000000
00000000
00000000
00001000
00000000
00000000
00000000
00000000
00010000
00000000
00000000
00000000
00000000
00000100
00000000
00000000
00000000
00000000
00000000
,
00000000
00000000
00000000
00000000
00000010
00000000
00000000
00000000
00000000
00000001
00000000
00000000
00000000
00000000
00001000
00000000
00000000
00000000
00000000
00000000
00000000
00000000
00000000
00000000
00000010
00000000
00000000
00000000
00000000
00001000
00000000
00000000
,
00000000
00000000
00000010
00000000
00000000
00000000
00000000
00001000
00000000
00000000
00000000
00000000
00000010
00000000
00000000
00000000
00000000
00001000
00000000
00000000
00000000
00000000
00000000
00000000
00000000
00000000
00001001
00000000
00000000
00000000
00000000
00000000
,
00000000
00000000
00000000
00000000
00000001
00000000
00000000
00000000
00000000
00000100
00000000
00000000
00000000
00000000
00000001
00000000
00000000
00000000
00000000
00000100
00000000
00000000
00000000
00000000
00000001
00000000
00000000
00000000
00000000
00000000
00000000
00000000
,
00000000
00002020
00000000
00000000
00000030
00000000
00000000
00000000
00000000
00000000
00000000
00000000
00000000
00000000
00000000
00000000
,
00000000
00000000
00000000
00000000
00000000
00000000
00000000
00000000
00003100
00000000
00010000
00000000
00001000
00010000
00001000
00000000
01000000
00000000
00100000
00000000
10000000
00000000
00010000
00000000
00100000
00000000
01000000
00000000
00100000
00000000
00001000
00000000
,
00010000
00000000
00001000
00010000
00001000
00000000
00000010
00000000
00000001
00000000
00000100
00000000
00000010
00000000
00000001
00000000
00000010
00000000
00010000
00000000
00000100
00000000
00010000
00000000
00001000
00000000
01000000
00000000
00001000
00000000
00100000
00000000
,
01000000
00000000
10000000
00000000
01000000
00000000
00100000
00000000
00001000
00000000
00100000
00001000
00100000
00000000
00001000
00000000
00010000
00000000
00000100
00000000
00000010
00000000
00000001
00000000
00001000
00000000
00000001
00001000
00000001
00000000
00000010
00000000
,
00000001
00000000
00000010
00000000
00000100
00000000
00010000
00000000
00001000
00000000
00010000
00000000
01000000
00000000
00100000
00000000
00010000
00000000
10000000
00000000
00010000
00000000
10000000
00010000
10000000
00000000
00001000
00000000
00010000
00000000
00000100
00000000
,
00000010
00000100
00001000
00000001
00000202
00000000
00000000
00000000
00000000
00000000
00000000
00000000
00000303
00000000
00000M0M
00000000
;

//---------------dance-double - M. Simmons----------------
#NOTES:
     dance-double:
     M. Simmons:
     Easy:
     5:
     0.298,0.045,0.322,0.147,0.000:
00000000
00000000
00000000
00000000
,
00000000
00000000
00000000
00000000
,
00000000
00000000
00000000
00000000
,
00000000
00000000
00000000
00001000
,
00000000
00010000
00000000
00001000
,
00000000
01000000
00000000
00100000
,
00000000
10000000
00000000
00010000
,
00000000
00100000
00000000
01000000
,
00000000
00100000
00000000
00001000
,
00000000
00010000
00000000
00000010
,
00000000
00000100
00000000
00000001
,
00000000
00001000
00000000
00001001
,
00000000
00000001
00000000
00000010
,
00000000
00000100
00000000
00010000
,
00000000
00000010
00000000
00010000
,
00000000
00001000
00000000
01000000
,
00000000
00100000
00000000
00010000
,
00000000
00100000
00000000
10000000
,
00000000
01000000
00000000
00100000
,
00000000
00010000
00100000
00020000
,
00000000
00000000
00000000
00000000
,
00000000
00000000
00000000
01030000
,
00000000
00000000
00000000
00001000
00010000
00000200
00002300
00000000
,
00000000
00003000
00000000
00000010
,
00000000
00000100
00000100
00000101
,
00000000
00000010
00000000
00020000
,
00000000
00000100
00000000
00031000
,
01000000
01010000
00000000
00100000
,
00000000
01000000
00000000
00010000
,
10000000
11000000
00000000
00200000
,
00000000
00000000
00000000
01300000
,
00000000
00100000
00000000
00001000
,
00000000
00010000
00000000
00000100
,
00000000
00010100
00000000
00000000
,
00000000
00011000
00000000
00000000
,
00000000
00011000
00000000
00010000
,
00000000
00000010
00000000
00000100
,
00000000
00000001
00000000
00000010
,
00000000
00000200
00000000
00000000
,
00000000
00001300
00000000
00000010
,
00000000
00000100
00000000
00000010
,
00000000
00001010
00000000
00000000
,
00000000
00010100
00000000
00000000
,
00000000
00001000
00000000
01000000
,
00000000
00100000
00000000
01000000
,
00000000
00010000
00000000
10000000
,
00000000
01000000
00100000
01000000
,
00000000
20020000
00000000
00000000
,
30030000
00010000
01000000
00001000
,
00010000
00011000
00000000
00010000
,
00010000
00010000
00000100
00000010
,
00000001
00001001
00000000
00000110
,
00000000
00000010
00010000
00000100
,
00010000
00011000
00000000
00000000
,
00000000
00001000
01000000
00100000
,
10000000
10100000
00000000
11000000
,
00000000
02000000
03200000
01300000
,
11000000
10000000
00000000
00010000
,
00000000
01000000
00000000
00100000
,
00000000
01000000
00000000
00001000
,
00000000
01001000
00000000
00000000
,
00000000
00010000
00000000
00000100
,
00000000
00000010
00000000
00000100
,
00000000
00010000
00000000
00000010
,
00000000
00010000
00000000
00010000
,
00000000
00000010
00000000
00000100
,
00000000
00000001
00000000
00001000
,
00000000
00000100
00000000
00000010
,
00000000
00000110
00000000
00000000
,
00000000
00000100
00000000
00010000
,
00000000
00001000
00000000
00100000
,
00000000
00202000
00000000
00000000
,
00303000
00100000
00000000
00000000
,
00000000
00000000
00101000
00000000
,
00000000
00000000
00000000
00011000
,
00000000
00000000
00000000
00000000
,
00010010
00000000
00000000
00000000
,
00000000
00000101
00000000
00000000
,
00000000
00000000
00001010
00000000
,
00000000
00000000
00000000
00010100
,
00000000
00000000
00000000
00000000
,
00011000
00000000
00000000
00000000
,
00000000
01010000
00000000
00000000
,
00000000
00000000
10100000
00000000
,
00000000
00000000
00000000
01010000
,
00000000
00000000
00000000
00000000
,
00101000
00000000
00000000
00000000
,
00000000
00011000
00000000
00000000
,
00000000
00000000
00010100
00000000
,
00000000
00000000
00000000
00000100
,
00000000
00000000
00000000
00000010
00000000
00000000
00000000
00000000
,
00000100
00000000
00000000
00000000
00000000
00000010
00000000
00000000
,
00000000
00000220
00000000
00000000
,
00000330
00000100
00010000
00001000
,
01000000
00100000
00010000
00100000
,
01000000
00001000
00010000
00000100
,
00000010
00000001
00000100
00000010
,
00010000
00022000
00000000
00000000
,
00000000
00000000
00000000
00000000
00000000
00033000
00000000
00000000
00000000
00000000
00000000
00000000
00000000
00000000
00000000
00000000
;

//---------------dance-double - M. Simmons----------------
#NOTES:
     dance-double:
     M. Simmons:
     Medium:
     7:
     0.500,0.045,0.211,0.220,0.096:
00000000
00000000
00000000
00000000
,
00000000
00000000
00000000
00000000
,
00000000
00000000
00000000
00000000
,
00000000
00000000
00000000
00001000
,
01000000
00100000
00000000
01000000
,
00001000
00010000
00000000
00001000
,
00010000
00000100
00000010
00000001
,
00001000
00000010
00000000
00000100
,
00000001
00000100
00000000
00000010
,
00010000
00000010
00000000
00010000
,
00001000
00100000
00001000
01000000
,
00100000
01100000
00000000
00100000
,
10000000
00010000
00000000
01000000
,
00010000
10000000
00000000
01000000
,
00100000
00010000
00100000
00001000
,
00010000
00000100
00000000
00010000
,
00001000
00010000
00000000
00000010
,
00000100
00000001
00000000
00001000
,
00000100
00010000
00000010
00010000
,
00001000
00100000
00001000
00201000
,
00000000
00302000
00000000
02003000
,
00000000
00000000
03200000
00000000
00000000
00000000
01300000
00001000
,
01000000
00100000
10000000
02000000
03200000
00320000
10030000
00000000
,
01000000
00100000
00001000
00010000
,
00000010
00000000
00000100
00000001
00000100
00000010
00000100
00000000
,
00000010
00001000
00000100
00000010
,
00000100
00000000
00010000
00000000
00010100
00000000
00001000
00010000
,
00001000
00000000
00100000
00001000
00100000
00000000
00010000
00000000
,
10000000
00000000
00100000
00000000
01000000
00000000
00001000
00010000
,
00000100
00010000
00001000
00010000
00000010
00000000
00000100
00000000
,
00000001
00000000
00000100
00000010
00000100
00000000
00001001
00000000
,
00000000
00000002
00000000
00001003
,
00000000
00000100
00010000
00000100
,
00000000
00011000
00000000
00100000
,
00000000
00011000
00000000
00000100
,
00000000
00011000
00000000
00001000
,
00000000
01000000
00100000
10000000
,
00000000
00010000
00010000
00100000
,
01000000
00200000
00000000
04300000
,
00000000
03100000
00001000
00010000
,
00000000
00000100
00000010
00000001
,
00000000
00001001
00000000
00000010
,
00000000
00001001
00000000
00000100
,
00000000
00000010
00010000
00000100
,
00000000
00010000
00001000
00100000
,
00000000
02000000
03020000
00031000
,
00000100
00000020
00020030
00030010
,
00000200
00000020
00000000
00000330
,
00000000
00000000
01000000
00000000
00100000
00000000
10000000
01000000
,
00100000
00000000
20010000
00000000
00000000
00000000
30100000
00100000
,
01000000
00100000
01000000
00000000
00001000
00000000
00010000
00000100
,
00010000
00000000
00010010
00000000
00000000
00000000
00000010
00010000
,
00000010
00000000
00000100
00000001
00000010
00000100
00000010
00000100
,
00010000
00000000
00012000
00000000
00000000
00000000
01003000
00100000
,
00000000
00100000
10000000
00010000
01000000
00001000
00100000
01000000
,
00100000
00000000
00101000
00000000
00010000
00000100
00010000
00000000
,
00010010
00000000
00000020
00000000
00000230
00000000
00000301
00001000
,
00001001
00000001
00000010
00000100
,
00010000
00001000
01000000
00100000
,
01000000
01001000
00000000
0M001000
,
00000000
01001000
00000000
0100M000
,
00000000
01000000
00100000
10000000
,
00010000
00100000
01000000
00100000
,
00001000
00101000
00000000
0010M000
,
00000000
00101000
00000000
00M01000
,
00000000
00010000
00000010
00000100
,
00000001
00001000
00000100
00000010
,
00000100
00001100
00001000
00001M00
,
00001000
00001100
00001000
00001M00
,
00001000
00000010
00000100
00000010
,
00010000
00000100
00010000
00001000
,
01000000
00000000
02020000
00000000
00000000
00000000
03030000
0M0M0000
,
00000000
00000000
00000000
00000000
00010000
00000000
00000000
00000000
00000000
01000000
00000000
00000000
00000000
00000000
00001000
00000000
,
00000000
00000000
00000000
00000000
00000000
00000000
00000000
00000000
00010000
00000000
00000000
00000000
00000000
00000100
00000000
00000000
,
00000000
00010000
00000000
00000000
00000000
00000000
00000010
00000000
,
00000000
00001000
00000000
00000000
00000000
00000000
00000010
00000000
00000000
00000000
00000000
00000000
00000000
00000000
00000000
00000000
,
00000100
00000000
00000000
00000000
00000000
00000001
00000000
00000000
00000000
00000000
00000100
00000000
00000000
00000000
00000000
00000000
,
00000000
00000000
00000000
00000000
00000010
00000000
00000000
00000000
00000000
00010000
00000000
00000000
00000000
00000000
00000010
00000000
,
00000000
00000000
00000000
00000000
00000000
00000000
00000000
00000000
00010000
00000000
00000000
00000000
00000000
00001000
00000000
00000000
,
00000000
00010000
00000000
00000000
00000000
00000000
00001000
00000000
,
00000000
00100000
00000000
00000000
00000000
00000000
00001000
00000000
00000000
00000000
00000000
00000000
00000000
00000000
00000000
00000000
,
01000000
00000000
00000000
00000000
00000000
00100000
00000000
00000000
00000000
00000000
10000000
00000000
00000000
00000000
00000000
00000000
,
00000000
00000000
00000000
00000000
00010000
00000000
00000000
00000000
00000000
00100000
00000000
00000000
00000000
00000000
01000000
00000000
,
00000000
00000000
00000000
00000000
00000000
00000000
00000000
00000000
00100000
00000000
00000000
00000000
00000000
00001000
00000000
00000000
,
00000000
00010000
00000000
00000000
00000000
00000000
00000100
00000000
,
00000000
00000010
00000000
00000000
00000000
00000000
00000100
00000000
00000000
00000000
00000000
00000000
00000000
00000000
00000000
00000000
,
00010000
00000000
00000000
00000000
00000000
00000010
00000000
00000000
00000000
00000000
00010000
00000000
00000000
00000000
00000000
00000000
,
00000000
00000000
00000000
00000000
00000100
00000000
00000000
00000000
00000000
00000010
00000000
00000000
00000000
00000000
00000001
00000000
,
00000000
00000000
00000000
00000000
00000000
00000000
00000000
00000000
00001000
00000000
00000000
00000000
00000000
00000010
00000000
00000000
,
00000000
00010000
00000000
00000000
00000000
00000000
00000100
00000000
,
00000000
00010000
00000000
00000000
00000000
00000000
00001000
00000000
00000000
00000000
00000000
00000000
00000000
00000000
00000000
00000000
,
01000000
00000000
00000000
00000000
00000000
00100000
00000000
00000000
00000000
00000000
01000000
00000000
00000000
00000000
00000000
00100000
,
00000000
02000000
00000000
00000000
,
00000000
00000000
03100000
10000000
00010000
00100000
01000000
00100000
,
00001000
00010000
00000100
00000010
00000001
00001000
00000010
00000100
,
00000010
00000000
00010000
00000000
00001000
00100000
00001000
00000000
01000000
00000000
00100000
00000000
01000000
00001000
01000000
00000000
,
00100000
00000000
10000000
00000000
00010000
00100000
00010000
00000000
01000000
00000000
00100000
00000000
01000000
00001000
01000000
00000000
,
00010000
00100000
00022000
00000000
00000000
00000000
00000000
00000000
,
00000000
00033000
00000000
00000000
00000000
00000000
00000000
00000000
00000000
00000000
00000000
00000000
00000000
00000000
00000000
00000000
;

//---------------dance-double - M. Simmons----------------
#NOTES:
     dance-double:
     M. Simmons:
     Hard:
     11:
     0.752,0.091,0.266,0.101,0.491:
00000000
00000000
00000000
00000000
,
00000000
00000000
00000000
00000000
,
00000000
00000000
00000000
00000000
,
00000000
00000000
00000000
00000000
00000000
00000000
00001000
01000000
,
00001000
00000000
01000000
00001000
01000000
00000000
00100000
00000000
,
10000000
00000000
01000000
00100000
01000000
00000000
00100000
00001000
,
00100000
00000000
00001000
00100000
00001000
00000000
00010000
00000000
,
00000010
00000000
00000100
00000000
00000001
00001000
00000100
00001000
,
00000001
00000000
00000100
00000010
00000100
00000000
00000010
00000000
,
00010000
00000000
00000010
00010000
00000010
00000000
00010000
00001000
,
00010000
00000000
00001000
01000000
00001000
00000000
00010000
00000000
,
01000000
00000000
01100000
00000000
01100000
00000000
01000000
10000000
,
01000000
00000000
00100000
01000000
00100000
00000000
00001000
00000000
,
01000000
00000000
00001000
00010000
00001000
00000000
00010000
00000100
,
00010000
00000000
00000100
00010000
00000100
00000000
00000010
00000000
,
00000001
00000000
00001001
00000000
00001000
00000100
00010000
00000000
,
00001000
00101000
01000000
00110000
,
10000000
00010000
00100000
00011000
,
00000100
00011000
01000000
00011000
,
00011000
00000000
00001000
01000000
00100000
10000000
02000000
00000000
,
00000000
03100000
00001000
00100000
00001000
00010000
00000000
00010100
,
00000000
00000000
00000010
00000000
00000001
00000000
00001000
00000000
00000000
00000000
00000010
00000000
00000100
00000001
00000100
00000001
,
00001000
00001100
00000100
00010000
00001000
01000000
00100000
00010000
00001000
00100000
01200000
00000000
01300000
10000000
01000000
10000000
,
01000000
10000000
01000000
00000000
00100000
00000000
00001000
00000000
01000000
00000000
00100000
00000000
01000000
00000000
00001000
00000000
,
00011000
00000000
01000100
00000000
00010000
00000000
00010000
00000000
00000010
00000000
00000010
00001000
00000010
00000100
00000010
00000100
,
00000010
00000100
00000010
00000000
00000100
00000000
00000001
00000000
00001000
00000000
00000100
00000000
00010000
00000000
00001000
00000000
,
00100000
00000000
01000000
00000000
00010000
00000000
00001000
00000100
00000000
00000000
00000000
00000000
00000010
00001000
00000010
00001000
,
00000010
00001000
00000010
00001000
00000010
00001000
00000010
00001000
00000010
00000000
00010000
00000000
00000100
00000000
00010000
00000000
,
00001000
00000000
01000000
10000000
00000000
00000000
01000000
00000000
00100000
00000000
10000000
00000000
01000000
00010000
01000000
00010000
,
01000000
00010000
01000000
00010000
01000000
00010000
01000000
00000000
00100000
00000000
00001000
00000000
00010000
00000000
00000010
00000000
,
00000100
00000000
00000010
00000000
00000100
00000000
00000001
00001000
00000000
00000000
00000000
00000000
00010200
00000300
00000000
00000000
,
00000000
00000000
00010000
00000000
00000000
00001000
00010000
00000000
,
00001000
01000000
00100000
01000000
,
00001000
00000000
01000000
00001000
01000000
00000000
00100000
00000000
,
00100000
00000000
01000000
00001000
01000000
00000000
00100000
00000000
,
00100000
01000000
00001000
00000000
00010000
00000000
00000100
00000000
,
00000010
00000001
00001000
00000010
,
00000100
00000000
00000010
00010000
00000010
00000000
00010000
00000010
,
00010000
00000000
00001000
00000000
00001000
00000000
00100000
00001000
,
00100000
00001000
00100000
00000000
00000000
01000000
00100000
00000000
,
01000000
10000000
00010000
01000000
,
00001000
00000000
00100000
00001000
00100000
00000000
00101000
00000000
,
00101000
00000000
00010000
00000100
00010000
00000000
00010100
00000000
,
00010000
00000100
00010000
00000000
00000000
00000100
00000010
00000000
,
00000001
00010000
00000010
00000100
,
00000010
00000000
00010000
00000100
00010000
00000100
00020000
00000000
,
00000000
00000000
00031000
00100000
00001000
00100000
00002000
00000000
,
00000000
00000000
20000000
00000000
00000000
00000000
00000000
30003000
,
00000000
00000000
00000000
00000000
00010000
01000000
00010000
00100000
01000000
10000000
01000000
00100000
00010000
01000000
00010000
00000000
,
00110000
00000000
01000100
00000000
00000000
00000000
00001000
00001000
,
00010000
00000000
00010000
00000000
00000100
00001000
00000100
00000010
00000001
00001000
00000100
00001000
00000100
00000010
00000001
00000000
,
00010000
00100010
00000000
MMMMMM0M
,
00000000
00000000
00000000
00000000
00000010
00010000
00000100
00010000
00001000
00010000
00000010
00010000
00000100
00010000
00001000
00000000
,
00100000
00000000
00000000
00000000
10001000
00000000
00000000
00000000
00010000
00000000
00001000
00010000
00000000
00000000
00000000
00000000
,
00010100
00000000
00000000
00000000
00010000
00000001
00001000
00000100
00001000
00000001
00010000
00000001
00001000
00000100
00001000
00000000
,
00000010
00000000
00010001
00000000
00000000
00000010
00000010
00010000
,
00010000
00000000
00000000
00000000
00000000
00000000
00000000
00000000
00001000
00010000
00001000
00010000
00001000
00000000
00010000
00000000
00001000
01000000
00001000
01000000
00001000
00000000
01000000
00000000
01100000
00000000
00000000
00000000
00100000
00000000
00000000
00000000
,
10100000
00000000
10000000
00010000
10000000
00010000
10000000
00000000
,
01000000
00000000
00100000
01000000
00100000
01000000
00100000
00000000
,
00000000
00100000
00001000
00010000
,
00000010
00010010
00000010
00000100
,
00000001
00000000
00001000
00000001
00001000
00000001
00001000
00000000
,
00000010
00000000
00010000
00000010
00010000
00000010
00010000
00000000
,
00000000
00001000
01000000
00001000
,
00100000
01000000
00100000
00001000
,
01000000
00000000
00100000
10000000
00100000
10000000
00100000
00000000
,
01000000
00000000
00001000
01000000
00001000
01000000
00001000
00000000
,
00000000
00000000
00010000
00000000
00000100
00000000
00010000
00000010
,
00010000
00000000
00000100
00000000
00000010
00000000
00000001
00001000
,
00000001
00000000
00000100
00000001
00000100
00000001
00000100
00000000
,
00000010
00000000
00000100
00000001
00000100
00000001
00000100
00000000
,
00000010
00020020
00000000
00000000
,
00030030
00000000
00000000
00000000
00001000
00000000
00000000
00000000
00000000
00100000
00000000
00000000
00000000
00000000
01000000
00000000
,
00000000
00000000
00000000
00100000
00000000
00000000
00000000
00000000
00010000
00000000
00000000
00000000
00000000
01000000
00000000
00000000
,
00000000
00000000
00100000
00000000
00000000
00000000
00000000
10000000
00000000
00000000
00000000
00000000
01000000
00000000
00000000
00000000
,
00000000
10000000
00000000
00000000
00000000
00000000
00010000
00000000
00000000
00000000
00000000
01000000
00000000
00000000
00000000
00000000
,
00001000
00000000
00000000
00000000
00000000
00010000
00000000
00000000
00000000
00000000
00000100
00000000
00000000
00000000
00000000
00010000
,
00000000
00000000
00000000
00000000
00001000
00000000
00000000
00000000
00000000
00010000
00000000
00000000
00000000
00000000
00000010
00000000
,
00000000
00000000
00000000
00000100
00000000
00000000
00000000
00000000
00000010
00000000
00000000
00000000
00000000
00001000
00000000
00000000
,
00000000
00000000
00000001
00000000
00000000
00000000
00000000
00001000
00000000
00000000
00000000
00000000
00000001
00000000
00000000
00000000
,
00000000
00000100
00000000
00000000
00000000
00000000
00000010
00000000
00000000
00000000
00000000
00001000
00000000
00000000
00000000
00000000
,
00000010
00000000
00000000
00000000
00000000
00010000
00000000
00000000
00000000
00000000
00000100
00000000
00000000
00000000
00000000
00010000
,
00000000
00000000
00000000
00000000
00001000
00000000
00000000
00000000
00000000
00010000
00000000
00000000
00000000
00000000
00001000
00000000
,
00000000
00000000
00000000
01000000
00000000
00000000
00000000
00000000
00100000
00000000
00000000
00000000
00000000
10000000
00000000
00000000
,
00000000
00000000
00010000
00000000
00000000
00000000
00000000
00100000
00000000
00000000
00000000
00000000
01000000
00000000
00000000
00000000
,
00000000
00100000
00000000
00000000
00000000
00000000
00001000
00000000
00000000
00000000
00000000
00010000
00000000
00000000
00000000
00000000
,
00000010
00000000
00000000
00000000
00000000
00000100
00000000
00000000
00000000
00000000
00000010
00000000
00000000
00000000
00000000
00010000
,
00000000
00000000
00000000
00000000
00000010
00000000
00000000
00000000
00000000
00000100
00000000
00000000
00000000
00000000
00000001
00000000
,
00000000
00000000
00000000
00001000
00000000
00000000
00000000
00000000
00000100
00000000
00000000
00000000
00000000
00000010
00000000
00000000
,
00000000
00000000
00000100
00000000
00000000
00000000
00000000
00010000
00000000
00000000
00000000
00000000
00001000
00000000
00000000
00000000
,
00000000
01000000
00000000
00000000
00000000
00000000
00100000
00000000
00000000
00000000
00000000
01000000
00000000
00000000
00000000
00000000
,
00010000
00000000
00000000
00000000
00000000
10000000
00000000
00000000
00000000
00000000
01000000
00000000
00000000
00000000
00000000
00100000
,
00000000
00020000
00000000
00000000
,
00030000
00000000
00000000
00000000
00100000
00000000
01000000
00100000
00001000
01000000
00001000
00000000
00010000
00000000
00000100
00000000
,
00000010
00000001
00001000
00000010
00000100
00000000
00000010
00000000
00001000
00000010
00000100
00000001
00001000
00000000
00000100
00000000
,
00010000
00000010
00000100
00000001
00001000
00000100
00000010
00000000
00001000
00010000
00000100
00010000
00001000
00000000
01000000
00000000
,
00100000
10000000
00010000
00000000
01000000
00010000
00100000
01000000
00100000
00001000
00010000
00000000
00000100
00000000
00010000
00000010
,
00000100
00001000
00000100
00000000
00022000
00000000
00000000
00000000
00000000
00000000
00000000
00000000
00000000
00000000
00000000
00000000
,
00000000
00000000
00000000
00000000
00000000
00033000
00000000
00000000
00000000
000MM000
00000000
00000000
00000000
00000000
00000000
00000000
;

//---------------dance-single - D. Renzetti----------------
#NOTES:
     dance-single:
     D. Renzetti:
     Edit:
     13:
     1.000,1.000,0.561,0.340,1.000:
0000
0000
0000
0000
,
0000
0000
0000
0000
,
0001
0100
1020
0000
1030
0010
0102
0000
0103
0010
1000
0010
0100
0001
0010
0100
,
2000
0200
0002
0000
3303
0000
1000
0M00
,
0010
000M
1M00
0010
0120
000M
0100
0000
,
0M01
0000
0130
0001
0010
0M00
0001
1000
,
1200
M001
100M
0310
,
0001
00M0
M10M
0000
0010
1000
201M
0M00
,
0010
0000
0100
0000
3010
0M00
1020
0000
,
M100
0000
0001
0000
103M
0000
0M01
0010
,
M021
0000
0M31
1000
120M
0000
1300
0000
,
0M10
0000
0000
0000
0100
0010
0100
0010
0100
0010
0100
0010
0100
0000
0000
0000
,
M001
0000
010M
0010
1020
0000
1M00
0000
,
0001
0000
0100
0000
1M3M
0000
0001
0010
,
M021
010M
0031
M2M1
,
0010
0000
130M
0000
0100
0001
M012
0000
,
10M0
0100
10M3
1200
,
00M1
0000
0010
0000
1300
000M
1020
0M00
,
0001
1000
M13M
011M
,
01M0
0000
0000
0000
0M01
0000
1000
0010
1000
0010
1000
0010
2000
0000
0000
0000
,
3MM1
0000
0000
0000
0001
0010
0100
1000
0001
0000
0MM0
0000
100M
0100
0010
0001
,
1000
0000
0000
0000
0M11
0000
0000
0000
1000
0000
0000
0000
011M
0000
0000
0000
1000
0000
0000
0000
0M11
0000
0000
0000
1000
0100
0010
0001
1000
0000
0MM0
0000
,
0001
0010
0100
1000
0001
0000
0MM0
0000
0201
0000
0000
0000
0301
0000
0010
0000
010M
0000
1000
0000
0020
0000
0M0M
0000
1030
0000
0100
0000
0010
0000
0001
0000
,
1000
0000
0000
0100
0000
0000
0010
0000
0000
0000
0000
0000
0001
0000
0000
0000
0000
0000
1000
0000
0000
0000
0000
0000
0010
0000
0000
0000
0000
0000
0100
0000
0000
0000
0000
0000
0001
0000
0000
0000
0000
0000
0010
0000
0100
0000
0010
0000
,
0100
0000
0010
0000
0100
0000
0010
0000
0000
0000
0000
0000
0110
0000
0000
0000
0000
0000
1001
0000
0000
0000
0000
0000
0110
0000
0000
0000
0000
0000
1001
0000
0000
0000
0000
0000
0001
0000
0000
0010
0000
0000
0100
0000
0000
1000
0000
0000
,
0001
0010
0100
1000
0001
0010
0000
0010
0001
0000
0100
0000
1010
0000
1010
0000
,
1010
0000
0000
0000
0000
0000
0000
0000
0000
0000
0000
0000
0001
0000
0100
0000
0010
0000
1000
0000
0100
0000
0010
0000
0001
0000
0000
0000
0000
0000
0000
0000
0000
0000
0000
0000
1000
0000
0000
0100
0000
0000
0010
0000
0000
0001
0000
0000
,
1000
0000
0000
0100
0000
0000
0010
0000
0000
0001
0000
0000
1000
0000
0000
0000
0000
0000
0001
0000
0000
0000
0000
0000
0100
0000
0000
0000
0000
0000
0010
0000
0100
0000
0010
0000
0100
0000
0000
0000
0000
0000
0000
0000
0000
0000
0000
0000
,
0001
0000
0000
1000
0000
0000
0100
0000
0000
0010
0000
0000
0001
0010
0100
1000
0010
0100
0010
0000
0000
0000
0000
0000
,
1000
0001
0100
0000
0010
0000
1001
0000
0110
0000
1001
0000
0110
0000
0000
0000
,
0101
0000
0000
0000
0000
0000
0000
0000
0000
0000
0000
0000
1000
0000
0001
0000
0010
0000
0100
0000
1000
0000
0000
0000
0001
0000
0000
0000
0000
0000
0100
0000
0000
0000
0000
0000
2202
3303
0000
0000
0000
0000
0000
0000
0000
0000
0000
0000
,
MMMM
MMMM
0000
0000
0000
0000
0000
0000
0100
0000
0000
0000
0102
0000
0000
0000
0000
0000
0000
0000
0103
0000
0000
0000
0001
0000
0000
0000
0000
0000
0000
0000
,
1000
0010
0100
0001
,
1000
0000
0010
2010
0000
3010
1000
0100
,
1000
0001
1001
1001
,
0000
0000
0001
0021
0000
0031
0010
0000
,
0001
0100
0010
1000
,
0100
0000
1000
0001
0010
0000
0011
0000
,
0101
0000
0000
0000
0000
0000
0000
0000
0101
0000
0000
0000
0100
0001
0100
0001
,
0100
0001
0100
0000
0001
0000
0000
0000
1000
0000
0010
0000
0100
0000
0000
0000
,
0001
0000
0100
0001
0100
0010
1000
0001
,
0100
0000
0010
1000
0010
0100
0001
0000
,
0100
0000
0001
0000
1000
0000
0010
1000
,
0001
0000
1000
0001
0100
0000
0010
0000
,
1000
0000
0001
0100
0010
1000
0001
0000
,
1001
0000
1000
0001
0010
0100
1000
0000
,
0001
0000
0000
0000
1000
0000
0100
0000
0010
0000
0001
0000
0100
0001
0100
0010
,
0100
0001
0100
0010
0200
0000
0000
0000
0000
0000
0000
0000
0000
0000
0000
0000
,
0000
0000
0000
0000
0301
0010
0100
1000
0001
0010
0100
1000
0001
0000
0100
0000
,
0001
0000
0100
0000
0001
0000
0100
0000
0000
0000
0000
0000
1001
0000
0000
0000
0000
0000
0110
0000
0000
0001
0000
0000
1000
0000
0000
0000
0000
0000
0000
0000
0000
0000
0000
0000
0110
0000
0000
0000
0000
0000
1001
0000
0000
0000
0000
0000
,
0110
0000
1001
0000
1000
0100
0010
0001
1000
0100
0010
0001
1000
0010
0000
0010
,
0100
0000
0000
0001
0000
0000
2001
0000
0000
0000
0000
0000
3001
0100
0001
0100
0000
0000
0101
0000
0000
1010
0000
0000
,
0101
0000
1100
0000
1000
0001
0010
0100
1000
0001
0010
0100
1000
0000
0001
0000
,
0010
0000
0000
0100
0000
0000
1001
0000
0000
0010
0000
0000
0001
0000
0000
1000
0010
1000
0010
0000
0000
0100
0001
0100
,
0001
0000
0000
0000
1000
0100
0010
0001
1000
0100
0010
0001
1000
0010
0000
0010
,
1000
0000
0000
0001
0000
0000
1001
0000
0000
0100
0010
0100
0010
0000
0000
1000
0100
0010
0001
0000
0000
1000
0100
0010
,
0001
0000
0010
0001
2000
0000
0000
0000
0200
0000
0000
0000
0022
0000
0000
0000
,
3333
MMMM
0100
M010
0001
0100
0010
1M00
,
001M
0100
0010
1000
0M01
0010
0100
100M
,
0010
0M00
1000
0010
0100
0000
M001
0000
,
0100
000M
0M10
0000
M11M
0000
0110
0000
,
0000
0000
0MM1
1000
0010
M100
0001
1M00
,
0010
010M
0010
1M00
001M
0100
M001
0MM0
,
0000
0000
1010
0M0M
1010
0M0M
0000
0000
,
1MM1
0000
0000
0000
MMMM
0000
0000
0000
0000
0000
0001
1000
0001
1000
0001
1000
,
0001
0000
M100
001M
1M00
001M
M100
00M1
,
MM10
0000
M001
0000
01M0
0000
001M
0000
0100
M000
0010
000M
1000
0000
0M00
0000
,
00M0
0000
0M00
0000
M0M1
0000
0000
0000
010M
0000
0000
M000
0M10
0000
0000
0000
,
1M0M
00M0
0M01
M000
0M10
0000
M10M
0000
,
00M0
0M00
0000
0000
10MM
0000
0100
0000
001M
0000
M100
0000
0010
0000
MM01
0000
,
0100
001M
1M0M
0010
M100
00M1
M100
001M
,
1M00
00M1
200M
0000
0200
0000
0002
0000
,
3303
0000
0000
0000
0000
0000
0000
0000
1000
0000
0000
0000
0000
0010
0000
0000
0000
0000
1000
0000
0000
0000
0000
0100
0000
0000
0000
0000
1000
0000
0000
0000
,
0000
0010
0000
0000
0000
0000
0100
0000
0000
0000
0000
0000
0000
0000
0000
0000
0001
0000
0000
0000
0000
0100
0000
0000
0000
0000
0001
0000
0000
0000
0000
0010
,
0000
0000
0000
0000
0001
0000
0000
0000
0000
0100
0000
0000
0000
0000
0010
0000
0000
0000
0000
0000
0000
0000
0000
0000
0100
0000
0000
0000
0000
0001
0000
0000
,
0000
0000
0100
0000
0000
0000
0000
0010
0000
0000
0000
0000
0100
0000
0000
0000
0000
0001
0000
0000
0000
0000
1000
0000
0000
0000
0000
0000
0000
0000
0000
0000
,
0010
0000
0000
0000
0000
1000
0000
0000
0000
0000
0010
0000
0000
0000
0000
0100
0000
0000
0000
0000
0010
0000
0000
0000
0000
1000
0000
0000
0000
0000
0001
0000
,
0000
0000
0000
0000
0000
0000
0000
0000
1000
0000
0000
0000
0000
0001
0000
0000
0000
0000
1000
0000
0000
0000
0000
0010
0000
0000
0000
0000
1000
0000
0000
0000
,
0000
0100
0000
0000
0000
0000
1000
0000
0000
0000
0000
0000
0000
0000
0000
0000
0001
0000
0000
0000
0000
1000
0000
0000
0000
0000
0001
0000
0000
0000
0000
0100
,
0000
0000
0000
0000
0001
0000
0000
0000
0000
0010
0000
0000
0000
0000
0001
0000
0000
0000
0000
0000
0000
0000
0000
0000
0010
0000
0000
0000
0000
0100
0000
0000
,
0000
0000
1000
0000
0000
0000
0000
0001
0000
0000
0000
0000
0010
0000
0000
0000
0000
0100
0000
0000
0000
0000
1000
0000
0000
0000
0000
0000
0000
0000
0000
0000
,
0100
0000
0000
0000
0000
1000
0000
0000
0000
0000
0001
0000
0000
0000
0000
0010
0000
0000
0000
0000
0100
0000
0000
0000
0000
1000
0000
0000
0000
0000
0001
0000
,
0000
0000
0000
1000
0000
0100
0000
1000
0000
0100
0000
1000
,
0000
0000
0000
0MMM
0000
0000
0000
0000
0000
0000
0000
0000
0010
0000
0000
0000
1000
0000
0000
0000
0010
0000
0000
0000
,
1000
0000
0000
0000
0010
0000
0000
0000
0000
MM0M
0000
0000
0000
0000
0000
0000
0000
0000
0100
0000
0000
0000
0010
0000
,
0000
0100
0000
0010
0000
0100
0000
0000
0000
M0MM
0000
0000
,
0001
0100
0000
0000
0001
0000
0100
0000
0001
0000
0000
0000
,
MM00
0000
0000
0010
0000
0001
0000
0010
0000
0001
0000
0010
,
0000
0000
0000
MM0M
0000
0000
0001
0000
1000
0000
0001
0000
,
1000
0000
0001
0000
0000
0000
MMM0
0000
0000
M100
0000
0010
,
M00M
0000
0100
0000
0000
0000
001M
0000
0000
0000
0100
0000
M00M
0000
0010
0000
0000
0000
M100
0000
0000
000M
0010
0000
,
0000
0000
0100
M000
0000
0000
001M
0000
0000
0000
0100
0000
M00M
0000
0010
M000
0000
0000
010M
0000
0000
0000
0010
0000
,
M000
0100
0000
M22M
0000
0000
0000
0000
0000
0000
0000
0000
,
0030
0000
0000
0000
0000
0000
0000
0000
0300
0000
0010
1000
0000
0000
0010
0000
1000
0000
0010
0000
0100
0000
0001
0000
0100
0000
0001
0000
0100
0000
0010
0000
,
1000
0000
0001
0010
0000
0000
0001
0000
0010
0000
0100
1000
0100
0000
1000
0000
0001
0000
1000
0000
0001
0000
1000
0001
1000
0000
0001
0000
0100
0000
0000
0001
,
0100
0000
0001
0000
0100
0000
0001
0000
1000
0010
0000
0000
1000
0000
0010
0000
0100
0000
0010
0000
0100
0010
0100
0000
0001
0000
1000
0000
0001
0000
0100
0000
,
0010
0000
1000
0000
0100
0000
1000
0100
1000
0000
0100
0000
1000
0000
0001
0100
0001
0000
0100
0000
0000
0001
0100
0000
0010
0000
0100
0010
1000
0000
0010
0000
,
0000
1000
0001
0000
1000
0001
0100
0001
0100
0000
0000
0000
0000
0000
0000
0000
0MM0
0000
0000
0000
M00M
0000
0000
0000
000M
0000
0000
0000
000M
0000
0000
0000
,
0MM0
000M
000M
M00M
0MM0
0000
0000
0000
;
