#TITLE:The Universe Beside You;
#SUBTITLE:;
#ARTIST:Asha;
#TITLETRANSLIT:Universe Beside You;
#SUBTITLETRANSLIT:;
#ARTISTTRANSLIT:;
#GENRE:;
#CREDIT:;
#BANNER:The Universe Beside You-bn.png;
#BACKGROUND:The Universe Beside You-bg.png;
#LYRICSPATH:;
#CDTITLE:;
#MUSIC:The Universe Beside You.ogg;
#OFFSET:1.410;
#SAMPLESTART:7.600;
#SAMPLELENGTH:17.680;
#SELECTABLE:YES;
#BPMS:0.000=72.000,9.000=144.000,105.000=72.000,113.000=144.000,232.750=72.000;
#STOPS:8.500=2.500;
#BGCHANGES:2.006=The Universe Beside You.mpg=1.000=1=0=0=StretchNoLoop==CrossFade==,
99999=-nosongbg-=1.000=0=0=0 // don't automatically add -songbackground-;
#KEYSOUNDS:;

//---------------dance-single - D. D'Amato----------------
#NOTES:
     dance-single:
     D. D'Amato:
     Challenge:
     10:
     0.658,0.641,0.170,0.045,0.754,489.000,19.000,5.000,2.000,0.000,0.000:
0000
0000
0000
0000
,
0000
0000
0000
0000
,
0000
0000
0001
1000
0100
0000
0010
0001
1000
0000
0010
1000
0000
0001
0000
0010
,
0001
0000
1000
0000
0001
0100
0010
1000
0001
0000
0010
0001
0000
1000
0000
0010
,
1000
0000
0001
0000
1000
0100
0010
0001
1000
0000
0010
1000
0000
0001
0000
0010
,
0001
0100
0010
1000
0000
0001
0000
0010
0001
0000
1000
0000
0010
0000
0100
0000
,
0001
0000
1000
0000
0001
0010
0100
1000
0001
0000
0100
0001
0000
1000
0000
0100
,
1000
0000
0001
0000
1000
0010
0100
0001
1000
0000
0100
1000
0000
0001
0000
0100
,
0001
0000
1000
0000
0100
1000
0001
0100
0010
0000
1000
0001
0000
0010
0000
0001
,
1000
0010
0100
0010
1000
0001
0010
0100
0010
0000
0001
1000
0000
0010
0000
1000
,
0100
0010
0100
0000
0010
0000
0000
0001
0000
0000
1100
0000
0000
0010
0000
0000
,
0101
0010
1000
0001
0100
1010
0001
0010
,
1001
0000
0010
1000
1010
0100
0001
0010
,
0011
1000
0100
0010
0110
0001
1000
0001
,
1001
0000
0010
0000
0100
0000
0000
1000
0000
0000
0011
0000
0000
0100
0000
0000
,
1010
0100
0001
1000
0010
0101
1000
0100
,
1001
0000
0100
0001
0101
0010
1000
0100
,
1100
0000
0001
0000
0010
0000
0100
0000
0110
0000
1000
0001
0000
1000
0000
0100
,
1000
0000
0001
0010
0010
0001
1000
1000
,
0010
0100
0010
1000
0001
0001
0010
0100
,
0010
0100
1000
1000
0100
0010
0100
1000
,
0001
0000
0100
0000
0100
0000
0010
1000
0000
0001
0000
0100
0000
0000
0010
0000
,
1000
0000
0000
0100
1000
0000
0010
0000
0010
0000
1000
0000
0001
0000
0001
0000
,
0010
0100
0010
0001
1000
1000
0010
0100
,
0010
0100
0001
0001
0100
0010
0100
0001
,
1000
0100
0100
0010
0001
0100
0010
1000
,
0010
0100
2002
0000
0000
0000
3003
0000
,
0000
0000
0000
0000
0000
0000
0010
0000
0000
0000
0000
0000
0100
0000
0000
0000
0000
0000
0010
1000
0100
0010
0001
0100
,
0010
0000
0000
0000
1000
0000
0000
0000
0100
0000
0000
0000
0110
0000
0000
0000
0000
0000
0000
0000
0000
0010
0000
0000
0001
0000
0000
0000
0000
0000
0000
0000
0000
0001
0000
0000
0100
0000
0000
0000
0000
0000
0000
0000
0000
0100
0000
0000
,
0010
0000
0000
0010
1000
0000
0000
1000
0100
0000
0000
0100
0010
0000
0000
0010
,
0100
0000
0000
0100
1000
0000
0000
1000
0010
0000
0000
0010
0100
0000
0000
0100
,
0001
0000
0000
0001
0010
0000
0000
0010
0100
0000
0000
0100
0010
0000
0000
0010
,
0001
0000
0000
0000
0000
0000
0000
0000
0000
0001
0000
0000
0100
0000
0000
0000
0000
0000
0000
0000
0000
0100
0000
0000
0010
0000
0000
0000
0000
0000
0000
0000
0000
0010
0000
0000
1000
0000
0000
0000
0000
0000
0010
0000
0000
0000
0100
0000
,
0000
0000
0001
0000
0000
0000
0000
0000
0010
0000
0000
0000
0000
0000
0100
0000
0000
0000
0000
0000
0000
1000
0000
0000
0100
0000
0000
0000
0000
0000
0000
0000
0000
0100
0000
0000
1000
0000
0000
0000
0000
0000
0000
0000
0000
1000
0000
0000
,
0010
0000
0000
0010
0100
0000
0000
0100
0001
0000
0000
0001
0010
0000
0000
0010
,
0100
0000
0000
0100
0010
0000
0000
0010
0001
0000
0000
0001
0100
0000
0000
0100
,
0010
0000
0000
0000
0000
0000
0000
0000
0000
0010
0000
0000
0000
0000
1000
0000
0000
0000
0000
0000
0010
0000
0000
0000
0100
0000
0000
0000
0000
0000
0001
0000
0000
0000
0010
0000
0000
0000
0000
0000
0100
0000
0000
0000
0000
0000
1000
0000
,
0000
0000
0100
0000
0000
0000
0010
0000
0000
0001
0000
0000
0100
0000
0000
0010
0000
0000
1001
0000
0000
0000
0000
0000
,
2002
0000
0000
0000
3003
0000
0000
0000
0000
0000
0100
0010
0100
0001
0000
0010
,
0000
0000
0100
0000
0000
1000
0000
0000
0001
0000
0010
0100
0010
0001
0000
0000
,
1000
0000
0100
0010
0100
1000
0001
0000
0000
0100
0000
0000
0010
0000
0000
1000
,
0001
0000
0100
0000
0010
1000
0000
1000
0010
0000
0100
0001
0000
0001
0100
0000
,
0010
1000
0001
1000
0000
0100
0000
0000
0010
0001
0000
0001
00M0
0000
0100
0000
,
0001
0100
0010
1000
0001
1000
0000
0001
0100
0001
0000
1000
0100
1000
0010
0100
,
0001
0010
0100
1000
0100
0000
0010
0000
0001
0000
0100
0000
0010
0000
0000
1000
,
0000
0010
0100
0000
0001
0010
0100
0000
,
0010
0000
0001
0000
1000
0000
0001
0000
0100
0010
0000
0100
0000
0000
0001
0000
,
0000
0010
0001
0100
0010
0000
1000
0000
0100
0010
0000
0100
1000
0010
0100
0001
,
0010
0100
1000
0001
0100
0000
0010
0000
1000
0000
0100
0000
0010
0000
0001
0000
,
0000
1000
0000
0000
0010
0000
0000
0000
0100
0000
0001
0000
0010
0000
0000
0000
,
0001
0000
0000
0000
1000
0000
0000
0000
0010
0100
0000
0010
0000
0000
1000
0000
,
0000
0100
0010
0100
1000
0001
0100
0000
0010
0000
0100
0000
0001
0000
1000
0000
,
0100
0000
0010
0001
0010
0000
0100
0000
1000
0000
0010
0000
0100
0000
0001
0000
,
M000
0100
0010
0100
0001
1000
0100
0000
0010
0000
0100
0000
1000
0000
0001
0000
,
0100
0000
0010
1000
0010
0000
0100
0000
0001
0000
0000
0010
0000
0001
1000
0000
,
0100
0000
0010
0000
0100
0000
1000
0000
0000
0010
0000
0100
0000
0010
0000
1000
,
0001
0010
0100
1000
0001
0000
0010
0100
0010
0000
0001
1000
0000
0000
0010
0000
,
0100
0000
0000
0001
1000
0000
0001
1000
0001
0010
0100
1000
0010
0100
0001
0010
,
0100
1000
0100
0010
0000
0000
0000
0000
0000
0000
0000
0000
0200
0000
0000
0000
,
0000
0000
0300
0000
;

//---------------dance-single - D. D'Amato----------------
#NOTES:
     dance-single:
     D. D'Amato:
     Hard:
     8:
     0.495,0.454,0.117,0.072,0.292,365.000,13.000,8.000,0.000,0.000,4.000:
0000
0000
0000
0000
,
0000
0000
0000
0000
,
0000
0100
0010
0100
1000
0001
0010
0100
,
0010
0000
1000
0100
0010
0100
0001
1000
,
0010
0100
0010
1000
0001
0100
0010
0001
,
0010
0000
0001
0100
0010
0100
1000
0001
,
0010
0100
0010
0001
1000
0100
0010
1000
,
0010
0000
1000
0100
0010
0100
0001
1000
,
0010
0100
0010
1000
0001
0100
0010
0001
,
0010
0000
0001
0010
0100
1000
0100
0010
,
0002
0000
0000
0000
0103
0000
0000
0010
0000
0000
1001
0000
0000
0100
0000
0000
,
0010
0000
0100
0001
0010
2001
0000
3100
,
0011
0000
0010
1000
0110
0000
0001
1000
,
0011
0000
0100
1000
0101
0000
0010
0001
,
2000
0000
0000
0000
3100
0000
0000
0010
0000
0000
1001
0000
0000
0100
0000
0000
,
0010
0000
0100
1000
0010
1002
0000
0103
,
1010
0000
0010
0001
0110
0000
1000
0001
,
1010
0000
0000
0000
0100
0000
0001
0000
1100
0000
0000
0001
0000
0010
0000
0001
,
0000
0000
1000
0100
1000
0001
1000
0010
,
0100
0010
1000
0001
0100
0010
1000
0100
,
1000
0100
1000
0001
0100
0001
0010
0100
,
1000
0000
0100
0000
0010
0000
0001
1000
0000
0010
0000
1000
0000
0000
0001
0000
,
0010
0000
0001
0100
0001
1000
0001
0010
,
0100
0010
0001
1000
0100
0010
0001
0100
,
0001
0100
0001
1000
0100
1000
0010
0100
,
0001
0100
0010
1000
0001
0010
0100
1000
,
0010
0100
2002
0000
0000
0000
3003
0000
,
0000
0000
0000
0010
0000
0000
0100
0000
0000
0010
1000
0001
,
1000
0000
0000
0000
0100
0000
0000
0000
0010
0000
0000
0000
0100
0000
0000
0000
0000
0000
0000
0000
0000
1000
0000
0000
0001
0000
0000
0000
0000
0000
0000
0000
0000
0000
0000
0000
0100
0000
0000
0000
0000
0000
0000
0000
0000
0001
0000
0000
,
1000
0000
0000
0000
0100
0000
0000
0010
0001
0000
0000
0000
0100
0000
0000
0010
,
1000
0000
0000
0000
0001
0000
0000
0100
0010
0000
0000
0000
1000
0000
0000
0100
,
0010
0000
0000
0000
0001
0000
0000
1000
0010
0000
0000
0000
0100
0000
0000
0001
,
0010
0000
0000
0000
0100
0000
0000
1000
0001
0000
0000
0000
4000
0004
0000
0000
,
0000
0000
0000
3003
,
0100
0000
0000
0000
0010
0000
0000
1000
0001
0000
0000
0000
0010
0000
0000
0001
,
1000
0000
0000
0000
0100
0000
0000
0010
0001
0000
0000
0000
0100
0000
0000
0010
,
1000
0000
0000
0000
0004
4000
0000
0000
0000
0000
0000
0000
0000
0000
0000
0000
,
0000
3003
0000
0010
1000
0100
0010
0000
,
0002
0000
0000
0000
1003
0000
0000
0000
0100
0000
0010
0000
0001
0100
0000
0001
,
0000
0000
1000
0000
0000
0010
0000
0000
0100
0000
0010
0000
1000
0100
0000
0000
,
1000
0000
0010
0000
0100
0010
0000
0000
0000
1000
0000
0000
0001
0000
0000
0010
,
0001
0000
1000
0000
0010
0000
0000
1000
0000
0000
0100
0000
0000
0010
0000
0000
,
0001
0000
0010
0100
0000
0010
0000
0000
0100
1000
0000
0001
0000
0000
0100
0000
,
0010
0000
1000
0001
0000
0100
0000
0001
1000
0000
0100
0000
0010
0000
0100
0000
,
1000
0000
0001
0000
0100
0000
0000
0000
0010
0000
1000
0000
0100
0000
0000
0010
,
0000
0001
0100
0000
0010
0000
1000
0000
,
0100
0000
1000
0000
0000
0000
0001
0000
1000
0100
0000
0010
0000
0000
0100
0000
,
0000
0010
0001
0000
1000
0000
0000
0000
0100
0000
0010
0000
0001
0000
1000
0000
,
0010
0100
0001
0000
0010
0100
0000
1000
,
0000
0100
0000
0000
0010
0000
0000
0000
0001
0000
0000
0000
0100
0000
0000
0000
,
0010
0000
0000
0000
1000
0000
0000
0000
0001
0100
0000
0010
0000
0000
0100
0000
,
0000
0001
1000
0000
0100
0000
0010
0000
0100
0000
0000
0000
0010
0000
0001
0000
,
1000
0000
0000
0010
0100
0000
0001
0000
0010
0000
0001
0000
0100
0000
0010
0000
,
0000
1000
0001
0000
0100
0000
0010
0000
0100
0000
0000
0000
0010
0000
1000
0000
,
0001
0000
0000
0010
0100
0000
0010
0000
0001
0000
0000
1000
0000
0001
0100
0000
,
0010
0000
0000
0000
1000
0000
0000
0000
0000
0001
0000
0100
0000
0001
0000
1000
,
0001
0000
0010
0000
0100
0000
0000
0000
0010
0000
0001
1000
0000
0000
0010
0000
,
0100
0000
0000
0010
1000
0000
0001
0000
0010
0000
0100
0000
0010
0000
0001
0000
,
1000
0000
0100
0010
0000
0000
0000
0000
0000
0000
0000
0000
0200
0000
0000
0000
,
0000
0000
0300
0000
;

//---------------dance-single - D. D'Amato----------------
#NOTES:
     dance-single:
     D. D'Amato:
     Medium:
     7:
     0.413,0.400,0.081,0.188,0.157,292.000,9.000,21.000,0.000,0.000,0.000:
0000
0000
0000
0000
,
0000
0000
0000
0000
0000
0000
0000
2002
,
0000
0000
3003
0000
0010
0000
0000
0000
1000
0000
0000
0010
0000
0100
0000
0000
,
0001
0000
0000
0000
1000
0000
0000
0000
0001
0000
0000
0010
0000
0100
0000
0000
,
1000
0000
0000
0000
0010
0000
0000
0000
0100
0000
0000
0001
0000
1000
0000
0000
,
0100
0000
0000
0000
0010
0000
0000
0000
0100
0000
0000
1000
0000
0001
0000
0000
,
0010
0000
0100
0000
0010
0000
0000
0000
0001
0000
0000
0100
0000
0010
0000
0000
,
1000
0000
0000
0000
0001
0000
1000
0000
0001
0000
0000
0100
0000
0010
0000
0000
,
1000
0000
0000
0000
0100
0000
0010
0000
0100
0000
0000
0010
0000
0001
0000
0000
,
0100
0000
0001
0000
1000
0000
0001
0000
0100
0000
0000
0010
0000
1000
0000
0000
,
0002
0000
0000
0000
1003
0000
0000
0100
0000
0000
1000
0000
0000
0001
0000
0000
,
0100
0000
0010
0000
1000
0100
0000
0010
,
0001
0010
1001
0100
,
0011
0100
1010
0001
,
2000
0000
0000
0000
3001
0000
0000
0100
0000
0000
0001
0000
0000
1000
0000
0000
,
0100
0000
0010
0000
0001
0100
0000
0010
,
1000
0010
1001
0100
,
1010
0000
0100
0000
0011
0000
0001
1000
,
0001
2000
3010
0200
,
0301
1000
0020
0000
0130
0001
2000
0000
,
0100
0000
3010
0000
0100
0001
0010
0000
,
0001
0000
1000
0000
0100
0000
0000
0010
0000
0001
0000
0100
0000
0000
0010
0000
,
1000
0002
0013
0200
,
1300
0001
0020
0000
0130
1000
0002
0000
,
0100
0000
0013
0000
0100
1000
0010
0000
,
1000
0001
0200
0000
0000
0000
0300
0010
,
1000
0100
2000
0000
0000
0000
3002
0000
,
0000
0000
0013
0000
0100
0000
1000
0010
,
0100
0001
0010
0100
0000
0000
1000
0000
0000
0100
0000
0000
,
0001
0000
0100
0000
0010
0000
0000
0100
0000
0000
0000
0000
0001
0000
0000
0000
,
0100
0010
1000
0000
0100
0000
0001
0000
,
0100
1000
0100
0001
,
0100
1000
0000
2002
,
0000
0000
0000
3003
,
0100
0000
0010
0000
0001
0000
0010
0100
,
1000
0000
0100
0010
0001
0000
0100
0010
,
1000
0100
2002
0000
0000
0000
0000
0000
,
0000
3003
0000
0000
0010
0001
0100
0000
,
0002
0000
1003
0000
0100
1000
0001
0000
,
0100
0000
0010
0000
0100
0001
1000
0000
,
0010
1000
0001
0000
0010
0000
0100
0000
,
1000
0001
0000
0100
0000
0010
0000
0100
,
0001
1000
0100
0000
0010
0000
0001
0000
,
0010
0100
0000
1000
0001
0000
0100
0010
,
1000
0001
0010
0100
0000
1000
0001
0000
,
0100
0001
0010
0000
0001
0000
1000
0000
,
0001
0100
0000
0010
1000
0000
0001
0000
,
1000
0100
0010
0000
0001
1000
0010
0100
,
0001
0010
0100
0000
1000
0010
0000
0100
,
0000
0010
1000
0000
0100
0000
0010
0000
,
0100
0000
1000
0000
0001
0000
0100
0010
,
0000
1000
0001
0010
0001
0000
1000
0010
,
0100
0000
0001
1000
0010
1000
0100
0010
,
0000
0001
0010
0001
0100
0000
0010
1000
,
0001
0000
0000
0000
1000
0000
0100
0000
0010
0000
0000
0001
0000
0100
0010
0000
,
0100
0000
0000
0000
0001
0000
0010
0000
0000
0001
0000
1000
0000
0001
0000
0010
,
0100
0000
1000
0000
0010
0000
0000
0000
1000
0000
0010
0100
0000
0000
0001
0000
,
1000
0000
0000
0100
0010
0000
0001
0000
1000
0000
0001
0000
0100
0000
0010
0000
,
1000
0000
0001
1000
0000
0000
0000
0000
0000
0000
0000
0000
0200
0000
0000
0000
,
0000
0000
0300
0000
;

//---------------dance-single - D. D'Amato----------------
#NOTES:
     dance-single:
     D. D'Amato:
     Easy:
     3:
     0.276,0.347,0.108,0.260,0.000,174.000,12.000,29.000,0.000,0.000,0.000:
0000
0000
0000
0000
,
0000
0000
0000
0000
,
0000
0010
1000
0000
,
0100
0001
0100
0000
,
0010
1000
0001
0000
,
0010
0001
0010
0100
,
1000
0001
0100
0000
,
0010
1000
0010
0000
,
0100
0001
1000
0000
,
0100
1000
0100
0010
,
0002
0000
1003
0000
0000
0110
0000
0000
,
1001
0000
0010
0000
0000
1001
0000
0000
,
0110
0010
1000
0100
,
1000
0010
1000
0100
,
2000
0000
3001
0000
0000
0110
0000
0000
,
1001
0000
0010
0000
0000
1001
0000
0000
,
0110
0010
0001
0100
,
0001
0010
0001
0100
,
0001
0000
2000
0000
0000
3200
0000
0000
,
0320
0000
0000
0032
0000
0000
2003
0000
,
0010
3001
1002
0103
,
0010
2000
3020
0230
,
0301
0000
0002
0000
0000
0203
0000
0000
,
0320
0000
0000
2030
0000
0000
3002
0000
,
0010
1003
2001
3100
,
0010
0002
0023
0230
,
1300
2000
0000
3002
,
0000
0103
0001
1000
,
1000
1000
0001
0100
,
0000
0001
1000
0100
,
0000
1000
0100
0001
,
0000
1000
0010
0001
,
0000
0100
0000
2002
,
0000
0000
0000
3003
,
0010
0100
1000
0000
,
0010
0100
0001
0000
,
0010
2002
0000
0000
,
0000
3003
0100
0010
,
0002
1003
0100
0010
,
0000
0001
1000
0100
,
0010
0001
0000
0010
,
0100
0000
1000
0000
,
0001
0100
0010
1000
,
0010
0000
1000
0010
,
0100
0001
0000
1000
,
0001
0010
0000
0100
,
0010
0000
0001
1000
,
0100
0010
0100
1000
,
0001
0100
0001
0000
,
1000
0100
0000
1000
,
0010
1000
0001
0000
,
0100
0010
1000
0000
,
0100
0010
0001
0000
,
0100
0001
1000
0000
,
0001
1000
0010
0000
,
1000
0100
0000
0010
,
0001
0010
0100
0000
,
1000
0020
0000
0000
,
0000
0000
0000
0030
0000
0000
0000
0000
0000
0000
0000
0000
0200
0000
0000
0000
,
0000
0000
0300
0000
;

//---------------dance-double - M.Emirzian----------------
#NOTES:
     dance-double:
     M.Emirzian:
     Easy:
     3:
     0.205,0.211,0.018,0.063,0.000,151.000,2.000,7.000,0.000,0.000,0.000:
00000000
00000000
00000000
00000000
,
00000000
00000000
00000000
00000000
,
00000000
01000000
01000000
00000000
,
00010000
01000000
00100000
00000000
,
00000010
00000010
00000000
00000100
,
00000000
00000010
00000100
00001000
,
00000000
00000001
00000000
00000100
,
00000010
00001000
00000000
00001000
,
00000000
00010000
00010000
00010000
,
00000000
00001000
00000000
01000000
,
00001000
00010000
00000000
00001000
,
00000000
00100000
00010000
10000000
,
00000000
01000000
01000000
01000000
,
00000000
00100000
00100000
00100000
,
00000000
00001000
00010000
00000100
,
00000000
00002000
00000100
00003100
,
00000000
00000002
00000100
00000103
,
00000000
00000010
00001000
00000100
,
00000000
00010000
00010000
00000000
,
00001000
00001000
00000000
01000000
,
01000000
00000000
00010000
00010000
,
00000000
10000000
00100000
01000000
,
00000000
00010000
00010000
00000000
,
00100000
00100000
00000000
00001000
,
00001000
00000000
00010000
00010000
,
00000000
00000100
00000100
00000000
,
00001000
00000010
00000000
00000100
,
00000000
01000000
00000000
00100000
,
00000000
00000010
00000000
00000000
,
00000001
00000100
00000100
00000000
,
00000010
00000010
00000000
00010000
,
00001000
00001000
00000000
01000000
,
00010000
00010000
00000000
00100000
,
00000000
00001000
00000000
01000000
,
00000000
00000000
00001000
00000000
,
00000000
00010000
00000000
00000010
,
00000000
00000000
00001000
00000000
,
00000100
00000020
00000000
00000000
,
00000031
00001000
00000010
00000100
,
00000000
00000100
00000100
00001000
,
00000000
00010000
00010000
00001000
,
00000000
01000000
01000000
00000000
,
00010000
00010000
00000000
10000000
,
01000000
00100000
00000000
00010000
,
00100000
00100000
00000000
00001000
,
00010000
00022000
00000000
00033000
,
00010000
00000100
00000000
00001000
,
00001000
00000100
00000000
00000010
,
00000100
00001000
00000000
00000001
,
00000001
00000000
00000100
00000010
,
00001000
00000000
00000100
00000100
,
00000000
00010000
00010000
00001000
,
00000000
01000000
01000000
00000000
,
00010000
10000000
01000000
00000000
,
00100000
00100000
00010000
00000000
,
01000000
00000000
00001000
00000000
,
00010000
00000100
00001000
00000100
,
00000010
00000000
00000001
00001000
,
00000220
00000000
00000000
00000000
00000000
00000000
00000000
00000330
;

//---------------dance-double - M.Emirzian----------------
#NOTES:
     dance-double:
     M.Emirzian:
     Medium:
     6:
     0.327,0.343,0.108,0.045,0.000,238.000,12.000,5.000,0.000,0.000,0.000:
00000000
00000000
00000000
00000000
,
00000000
00000000
00000000
00000000
,
00000000
01000000
01000000
00000000
,
00100000
00000000
00010000
10000000
00000000
10000000
00000000
00000000
,
01000000
00000000
00100000
00010000
00000000
00010000
00000000
00100000
,
00001000
00010000
00100000
00010000
,
00001000
00000000
00000010
00000100
00001000
00000000
00000001
00000000
,
00000010
00000100
00001000
00000001
,
00000100
00000000
00001000
00000100
00000000
00000100
00000000
00001000
,
00010000
00000000
00001000
01000000
00010000
00000000
00100000
00000000
,
00000000
00000000
11000000
00000000
00000000
01010000
00000000
00000000
,
01001000
00010000
00001000
00000010
,
00000001
00000000
00001000
00000010
00000100
00000000
00000001
00000000
,
00000100
00000000
00000010
00001000
00000001
00000000
00000100
00000000
,
00000000
00000000
00001010
00000000
00000000
00010010
00000000
00000000
,
00101000
00000000
00001000
00000000
00010000
00000000
00100000
01000000
,
00010000
10000000
01000000
00010000
,
00001000
00000100
00000001
00000010
,
00000100
00000000
00001000
00000001
00000100
00000010
00001000
00000000
,
00000010
00010000
00001000
01000000
00010000
00000000
01000000
00100000
,
10000000
01000000
00110000
10000000
,
01010000
00000000
00100000
01000000
00001000
00000000
00010000
00000000
,
00000100
00000000
00010000
00001000
01000000
00010000
01000000
00000000
,
00001000
00010000
00000010
00001000
00000001
00000000
00000010
00000100
,
00001000
00000010
00000101
00000010
,
00001100
00000010
00001000
00000000
,
00001000
00000000
00000100
00010000
00001000
00000000
00000100
00001000
,
01000000
00000000
00100000
00010000
00000010
00000000
00001000
00000100
,
00000010
00000001
00001000
00000000
00000000
00001000
00000100
00000000
,
00000010
00000010
00000000
00000001
,
00000001
00000100
00000000
00001000
,
00000000
01000000
00000000
00100000
,
00000000
10000000
00000000
01000000
,
00100000
00001000
00010000
00000000
,
00000100
00000000
00000010
00000000
,
00000001
00000001
00000000
00000100
,
00000000
00000010
00001000
00000100
,
00001000
00000002
00000000
00000000
,
00001003
00000000
00000010
00000000
00001000
00000100
00000000
00010000
,
00001000
00000100
00001000
00010000
,
00100000
00010000
00001000
00000010
,
00000000
00000000
00001000
00000000
00010000
00000000
00001000
01000000
,
00010000
00000000
01000000
00000000
00100000
00000000
10000000
00010000
,
00000000
10000000
01000000
00000000
00100000
00000000
00010000
00100000
,
00001000
01000000
00100000
00010000
,
00001000
00022000
00000000
00000000
,
00033000
00000000
00010000
00000000
00000100
00000000
00001000
00000100
,
00000000
00000100
00000000
00000010
00000001
00000000
00000100
00000000
,
00001000
00000000
00000100
00000000
00000001
00000000
00000100
00000010
,
00000000
00001000
00000001
00000000
00001000
00000000
00000100
00010000
,
00000000
00001000
00010000
00000000
00100000
00000000
00010000
00000000
,
00001000
00000000
01000000
00001000
00010000
00000000
00100000
00000000
,
01000000
00010000
10000000
00000000
01000000
00000000
00100000
00010000
,
00000000
10000000
01000000
00000000
00010000
00000000
00001000
00000000
,
00000100
00000000
00000001
00001000
00000000
00000100
00000010
00000000
,
00000100
00000000
00001000
00000001
00000100
00000000
00000010
00000000
,
00001000
00000000
00000100
00010000
00001000
00000000
01000000
00100000
,
00000000
00100000
00000000
01000000
00010000
00000000
00100000
00000000
,
20020000
00000000
00000000
00000000
00000000
00000000
00000000
30030000
;

//---------------dance-double - M.Emirzian----------------
#NOTES:
     dance-double:
     M.Emirzian:
     Hard:
     9:
     0.609,0.740,0.287,0.126,0.520,429.000,32.000,14.000,11.000,0.000,0.000:
00000000
00000000
00000000
00000000
,
00000000
00000000
00001000
00010000
01000000
00010000
00001000
00022000
,
00000000
00000000
00033000
00000000
00000110
00000000
00000000
00000000
00000010
00000001
00000000
00000100
00000000
00000010
00000000
00000000
,
00000010
00000000
00000100
00000000
00000001
00000000
00000000
00000000
00000100
00001000
00000000
00010000
00000000
00001000
00000000
00000000
,
01001000
00000000
00000000
00000000
01010000
00000000
00000000
00000000
01000000
00100000
00000000
10000000
00000000
00000000
01000000
00000000
,
00010000
00000000
00000000
00000000
00011000
00000000
00000000
00001000
00010000
00000000
00100000
00000000
00010000
00000000
00001000
00000000
,
00000010
00000000
00000000
00000000
00001100
00000000
00000000
00000000
00001000
00000100
00000000
00000010
00000000
00000100
00000000
00000000
,
00001000
00000000
00000010
00000000
00000100
00000000
00000000
00000000
00000001
00000100
00000000
00000010
00000000
00001000
00000000
00000000
,
00010010
00000000
00000000
00000000
00011000
00000000
00000000
00000000
00001000
00010000
00000000
01000000
00000000
00000000
10000000
00000000
,
00100000
00000000
00000000
00000000
01010000
00000000
00000000
01000000
00001000
00000000
00010000
00000000
00100000
00000000
01000000
00000000
,
00010000
00000000
10100000
00000000
00000000
00011000
00000000
00000000
,
00000011
00000000
00000000
00000000
00000001
00000000
00000001
00000100
00000000
00000000
00000100
00000000
00000010
00000000
00001000
00000000
,
00000100
00012000
000M3100
00021000
,
0013M000
00000000
00010000
00001000
00010000
01000000
10000000
00100000
,
10000000
00000000
11000000
00000000
00000000
00011000
00000000
00000000
,
00000101
00000000
00000000
00000000
00000010
00000000
00000010
00000100
00000000
00000000
00000100
00000000
00001000
00000000
00000001
00000000
,
00000100
00021000
0013M000
00012000
,
000M3100
00000000
00001000
00010000
00100000
00010000
00001000
00000000
,
00101000
00000000
00010000
01000000
00100000
01000000
00010000
01000000
,
00100000
01000000
00010000
01000000
00001000
00010000
00001000
00000100
,
00001000
00010000
00100000
00010000
00001000
00000010
00001000
00010000
,
00100000
00010000
00001000
00010000
00000010
00000000
00000100
00000010
,
00000100
00000001
00000100
00000010
00000100
00001000
00000100
00000010
,
00000100
00001000
00000100
00000010
00010000
00001000
00000010
00001000
,
00010000
00100000
00010000
00001000
00000100
00001000
00010000
01000000
,
10000000
00100000
01000000
00100000
10000000
00010000
00100000
00000000
,
01000000
00000000
00000000
00000000
00000000
00000000
00000000
00000000
10000000
00000000
01000000
00000000
00100000
00000000
00010000
00000000
00100000
00000000
00000000
00100000
00001000
00000000
00010000
00000000
00100000
00000000
00000000
00100000
00010000
00000000
00001000
00000000
,
00000100
00000000
00000000
00000100
00000001
00000000
00000010
00000000
00000001
00000000
00000000
00000000
00001100
00000000
00000000
00000000
00000010
00001000
00000000
00001000
00000100
00000000
00000000
00000000
00000110
00000000
00000000
00000000
00011000
00000000
00000000
00000000
,
01100000
00000000
00000000
00010000
01000000
00000000
00100000
00000000
10000000
00000000
00000000
00000000
00000000
00000000
01000000
00000000
10000000
00000000
00000000
00000000
00100000
00000000
00000000
00000000
01000000
00000000
00000000
00000000
00010000
00000000
00000000
00000000
,
01000000
00000000
00100000
00000000
10000000
00000000
00100000
00000000
00000000
00000000
01000000
00000000
00000000
00000000
00000000
00010000
00000000
00000000
01000000
00000000
00000000
00001000
00000000
00000000
,
00010000
00000000
00000100
00000000
00001000
00000000
00000000
00000010
00001000
00000000
00000000
00000001
00000100
00000000
00000000
00000010
,
00000100
00000000
00000000
00001000
00010000
00000000
01000000
00000000
00010000
00000000
00001000
00000000
01000000
00010000
00000000
00010000
,
00100000
10020000
M0130000
20010000
,
301M0000
00000000
00000000
00000000
00021000
00000000
00000000
00000000
0013M000
00000000
00000000
00100000
01000000
00000000
00000000
00001000
,
00010000
00000000
00000000
00000100
00000010
00000000
00000100
00000000
00001000
00000000
00000001
00000000
00000100
00000010
00000000
00000010
,
00001000
00000000
00000000
00000100
00010000
00000000
00000000
00001000
01000000
00000000
00000000
00010000
10000000
00000000
00010000
00000000
,
01000000
00012000
000M3100
00021000
,
0013M000
00000000
00000000
00000000
01000000
00100000
01000000
00000000
00000000
00010000
00000000
11000000
00000000
00000000
00000000
00000000
,
00100000
00010000
00100000
00000000
01000000
00000000
00000000
00000000
01000000
00100000
00000000
00100000
00001000
00000000
00000000
00000000
,
00001000
00000100
00000000
00000100
00000010
00000000
00000000
00000000
00001000
00000100
00000000
00000100
00000010
00000000
00000000
00000001
,
00000100
00000010
00000100
00001000
00000100
00000010
00010000
00001000
,
00000010
00000000
00001000
00000000
00010000
00001000
00000000
00000000
01000000
00010000
00000000
10000000
00000000
00010000
10000000
00000000
,
01000000
00000000
00000000
00000000
01000000
00100000
00000000
00100000
00001000
00000000
00000000
00000000
00010000
00000100
00000000
00000100
,
00000010
00000001
00001000
00000010
00000100
00000100
00000001
00000100
,
00001000
00010000
00100000
00010000
00001000
00001000
01000000
00100000
,
01000000
02001000
0310M000
12000000
,
M3010000
00000000
10000000
00000000
01000000
00100000
00000000
00100000
00010000
00100000
00000000
00001000
00000000
01000000
00001000
00000000
,
00010000
00000000
00000100
00000000
00001000
00000010
00000000
00000000
00000010
00001000
00000000
00000100
00000000
00000010
00000100
00000000
,
00001000
00000000
00000001
00000000
00000100
00000000
00000000
00000000
00000100
00000010
00000000
00001000
00000000
00000100
00010000
00000000
,
00001000
00000000
01000000
00000000
00100000
00000000
10000000
00000000
00000000
00010000
00000000
01000000
00000000
00001000
00010000
00000000
,
00001000
00000000
00010000
00000000
00001000
00000100
00000000
00000100
00000010
00000000
00000000
00000000
00000001
00000100
00000000
00000100
,
00001000
00000000
00000000
00000000
00010000
00000000
00001000
00000000
00000000
01000000
00000000
01000000
00000000
00001000
00010000
00000000
,
00000100
00000010
00000100
00001000
00000100
00000010
00000100
00001000
,
00000010
00000100
00001000
00010000
00100000
00010000
00001000
00000010
,
00001000
00000000
00010000
00000000
00001000
00010000
00001000
01000000
00000000
00010000
00000000
00010000
00000000
10000000
00000000
01000000
,
00000000
01000000
00100000
00000000
00010000
00000000
00010000
00000000
01000000
00001000
00000000
00010000
00001000
00010000
00000000
00000100
,
00001000
00000100
00000010
00000000
00000100
00000010
00000100
00000010
00000000
00000001
00000000
00000001
00000000
00000100
00000000
00000010
,
00000000
00000010
00001000
00000000
00000100
00000000
00010000
00000000
00001000
01000000
00000000
01000000
00010000
10000000
00000000
01000000
,
00000000
00100000
00010000
20000000
00000000
00000000
00000000
00000000
00000000
00000000
00000000
00000000
00000000
00000000
30000000
00000000
;

//---------------dance-double - M.Emirzian----------------
#NOTES:
     dance-double:
     M.Emirzian:
     Challenge:
     10:
     0.677,0.977,0.224,0.072,0.731,495.000,25.000,8.000,4.000,1.000,0.000:
00000000
00000000
00000000
00000000
,
00000000
00000000
00000100
00001000
00100000
00001000
00000100
00022000
,
00000000
00000000
00133010
00000000
01100000
00000000
00000000
00000000
01000000
00010000
00000000
00010000
00000000
01000000
00000000
01000000
,
00100000
00000000
10000000
00000000
01000000
00000000
00100000
00000000
00010000
01000000
00000000
01000000
00001000
00000000
00001000
00010000
,
00000000
00010000
00000100
00000000
00000010
00000000
00000001
00000000
00000100
00000000
00001000
00000000
00000100
00000000
00000001
00000000
,
00000010
00000100
00001000
00000100
00000010
00000100
00001000
00000001
,
00001000
00000000
00000000
00000000
00001010
00000000
00000000
00000000
00000100
00000001
00000000
00000001
00000000
00001000
00000000
00001000
,
00000100
00000000
00000010
00000000
00000100
00000000
00001000
00000000
00000010
00010000
00000000
00010000
00001000
00000000
00001000
01000000
,
00000000
01000000
00010000
00000000
01000000
00000000
00100000
00000000
00010000
00000000
00100000
00000000
01000000
00000000
00010000
00000000
,
10000000
00000000
01000000
00100000
00010000
01000000
00001000
00010000
,
00100000
00000000
01100000
00000000
00000000
00000110
00000000
00000000
,
00100010
00000000
00000000
00000000
00010000
00000000
00010000
00001000
00000000
00000000
00001000
00000000
00000100
00000000
00000001
00000000
,
00000100
00020010
001300M0
01002000
,
0M003100
00000000
00000000
00000000
00001000
00000000
00010000
00001000
00000000
00001000
00010000
00000000
00000100
00000000
00001000
00000000
,
00000001
00000000
00000110
00000000
00000000
01100000
00000000
00000000
,
01000100
00000000
00000000
00000000
01000000
00000000
00010000
01000000
00000000
00000000
01000000
00000000
00100000
00000000
10000000
00000000
,
00010000
00102000
00M03010
00020100
,
01030M00
00000000
00000000
00000000
00010000
00000000
00001000
00000000
00000000
00010000
00000000
00000010
00000000
00001000
00000000
00000010
,
00000100
00000000
00000000
00000100
00000001
00000000
00000100
00000000
00000010
00000000
00000100
00000000
00000001
00000000
00000100
00000000
,
00001000
00000100
00000010
00001000
00000100
00000010
00000100
00001000
,
00000010
00010000
00100000
01000000
00100000
00010000
00000100
00010000
,
01000000
00000000
00100000
00000000
01000000
00000000
10000000
00000000
00010000
00000000
00000000
00010000
00100000
00000000
01000000
00000000
,
10000000
01000000
00100000
00010000
01000000
00100000
01000000
00001000
,
00000100
00001000
01000000
00001000
00010000
00000010
00001000
00000100
,
00000010
00000100
00001000
00000001
00000100
00000010
00000100
00001000
,
00000100
00000010
00010000
00001000
00000010
00001000
00010000
00000000
,
00100000
00000000
00000000
00000000
00000000
00000000
00000000
00000000
10000000
01000000
00100000
00000000
01000000
00000000
00100000
00010000
00000000
00010000
00100000
00000000
01000000
00000000
00100000
00010000
00000000
01000000
00001000
00000000
00010000
00000000
00000100
00010000
,
00000000
00000000
00000000
00000000
00000000
00000000
00010000
00000000
00000000
00000000
00000000
00000000
00001000
00000000
00000000
00000000
00000000
00000000
00000000
00000000
00000000
00000000
00000000
00000000
00000010
00000000
00000000
00000000
00000000
00000000
00000000
00000000
00000000
00000000
00000000
00000000
00000001
00000000
00000000
00000000
00000000
00000000
00001000
00000000
00000000
00000000
00000000
00000000
00000000
00000000
00000000
00000000
00000000
00000000
00000010
00000000
00000000
00000000
00000000
00000000
00001000
00000000
00000000
00000000
00000000
00000000
00000000
00000000
00000000
00000000
00000000
00000000
00000100
00000000
00000000
00000000
00000000
00000000
00000000
00000000
00000000
00000000
00000000
00000000
00000010
00000000
00000000
00000000
00000000
00000000
00000100
00000000
00000000
00000000
00000000
00000000
00001000
00000000
00000000
00000000
00000000
00000000
00000000
00000000
00000000
00000000
00000000
00000000
00000001
00000000
00000000
00000000
00000000
00000000
00000000
00000000
00000000
00000000
00000000
00000000
00000100
00000000
00000000
00000000
00000000
00000000
00000000
00000000
00000000
00000000
00000000
00000000
00001000
00000000
00000000
00000000
00000000
00000000
00000000
00000000
00000000
00000000
00000000
00000000
00010000
00000000
00000000
00000000
00000000
00000000
00000000
00000000
00001000
00000000
00000000
00000000
00000000
00000000
00000000
00000000
01000000
00000000
00000000
00000000
00000000
00000000
00000000
00000000
00001000
00000000
00000000
00000000
00000000
00000000
00000000
00000000
01000000
00000000
00000000
00000000
00000000
00000000
00000000
00000000
00010000
00000000
00000000
00000000
00000000
00000000
00000000
00000000
,
01000000
00000000
00000000
00000000
10100000
00000000
00000000
00000000
10010000
00000000
00000000
00000000
11000000
00000000
00000000
00000000
00000000
00000000
00000000
00000000
00000000
01000000
00000000
00000000
00100000
00000000
00000000
00010000
00000000
00000000
00000000
00000000
00000000
00100000
00000000
00000000
00000000
00000000
00000000
01000000
00000000
00000000
00000000
00000000
00000000
00100000
00000000
00000000
,
00010000
00000000
00000000
00000000
01000000
00000000
01001000
00000000
00010000
00000000
00000000
00100000
00001000
00010000
00000000
00010000
,
00001000
00000000
00000100
00000000
00000010
00000000
00010000
00000000
00001000
00000000
00000000
00000000
00000010
00000100
00000010
00000000
,
00001100
00000000
00000000
00000000
00000010
00010000
00000010
00000000
00001010
00000000
00000000
00000000
00010000
00001000
00010000
00000000
,
01001000
00000000
00000000
00000000
00100000
00000000
10010000
00000000
01000000
00000000
00000000
00100000
10000000
00010000
00000000
00010000
,
01000000
10000000
01000000
00001000
00010000
00000000
00000010
00001100
,
00000010
00000000
00000001
00000100
00001000
00000100
00000010
00001000
,
00000100
00000010
00000100
00001000
00000010
00010000
00001000
00000100
,
00001000
00010000
00100000
00010000
00001000
00000010
00001000
00010000
,
00100000
00000000
01000000
00000000
00010000
10000000
00010000
00000000
00000000
11000000
00000000
10010000
00000000
00000000
00000000
00000000
,
00100000
00010000
00100000
00000000
01000000
00000000
10000000
00000000
00100000
01000000
00000000
00010000
00000000
01000000
00001000
00000000
,
00010000
00000000
00100000
00000000
00010000
00001000
00000000
01000000
00001000
00010000
00000000
00001000
00000000
00010000
00000100
00000000
,
00000000
00000100
00001000
00000100
00000010
00000000
00000001
00000000
00001000
00000000
00000100
00000000
00000010
00000000
00000100
00000000
,
00010000
00000000
00001000
00000000
00010000
00000010
00000000
00000010
00000100
00000010
00000000
00001000
00000000
00000100
00000010
00000000
,
00000010
00000100
00010000
00000000
00010000
00001000
00000000
00000000
01000000
00001000
00000000
00010000
00000000
00001000
00010000
00000000
,
01000000
10000000
01000000
00000000
01000000
00100000
00000000
01000000
00100000
00010000
00000000
00100000
00001000
00010000
00001000
00010000
,
00001000
01000000
00001000
00000000
00010000
00000000
00100000
00000000
00010000
00000000
00001000
00000000
01000000
00000000
00010000
00000000
,
00100000
00000000
00001000
00000000
00000010
00000000
00000100
00000000
00001000
00000100
00000000
00000100
00000000
00000010
00000001
00000000
,
00001000
00000010
00001000
00000000
00000001
00000100
00000000
00000010
00001000
00000010
00000000
00000010
00000000
00010000
00000010
00000000
,
00001000
00000010
00000100
00000000
00000010
00001000
00000000
00000000
00000100
00010000
00000000
00000100
00000000
00001000
00000100
00000000
,
00000010
00000100
00001000
00000000
00000010
00000000
00010000
00000000
00100000
00000000
00010000
00000000
00001000
00000000
01000000
00000000
,
10000000
00000000
01000000
00000000
00010000
00000000
10000000
00000000
00000000
00010000
00000000
01000000
00000000
00010000
10000000
00000000
,
01000000
00000000
00100000
00000000
00010000
01000000
00000000
01000000
00001000
00010000
00000000
00000100
00000000
00010000
00000100
00000000
,
00001000
00000100
00001000
00000000
00000010
00000000
00010000
00000000
00000000
00001000
00000000
00000100
00000000
00000010
00000100
00000000
,
00000001
00000100
00000010
00000000
00001000
00000000
00000100
00000000
00000000
00010000
00000000
00001000
00000000
00010000
00000100
00000000
,
00001000
00000010
00001000
00000000
00000100
00000000
00010000
00000000
00000000
00000100
00000000
00001000
00000000
00000100
00010000
00000000
,
00001000
00000000
01000000
00000000
00100000
00000000
00000000
00000000
10000000
00000000
00010000
10000000
00010000
00000000
00100000
00000000
00000000
00000000
00010000
00000000
00000000
00000000
01000000
00000000
00000000
00000000
00000100
00000000
00000000
00000000
00010000
00000000
,
00000000
00001000
01000000
00000000
00001000
00000000
00010000
00000000
00000010
00010000
00000000
00001000
01000000
00010000
00000000
00010000
,
01000000
00000000
00001000
00000000
00010000
00000000
00000000
00000000
00000010
00000000
00001000
00000010
00001000
00000000
00000010
00000000
00000000
00000000
00010000
00000000
00000000
00000000
00001000
00000000
00000000
00000000
00010000
00000000
00000000
00000000
00010000
00000000
,
00000000
00000100
00001000
00000000
00000010
00000000
00000100
00000000
00000001
00000100
00000000
00000100
00001000
00000100
00000000
00001000
,
00000000
00010000
00200000
02000000
00000000
00000000
00000000
00000000
00000000
00000000
00000000
00000000
00000000
00000000
03300000
00000000
;

//---------------dance-single - M. Emirzian----------------
#NOTES:
     dance-single:
     M. Emirzian:
     Edit:
     10:
     0.754,1.000,0.269,0.036,1.000,554.000,30.000,4.000,0.000,1.000,0.000:
0000
0000
0000
0000
,
0000
0000
1000
0100
0001
0100
1000
2200
,
0000
0000
3311
0000
0110
0000
0000
0000
0010
0100
0000
1000
0000
0100
0000
0010
,
0100
0000
1000
0000
0001
0000
0100
0000
0010
1000
0000
1000
0100
0000
0100
0010
,
0000
0010
0001
0000
0100
0000
1000
0000
0100
0000
0001
0000
0010
0000
0001
0100
,
0000
0100
0001
0000
0010
0000
0100
0000
1000
0010
0000
0010
0100
0000
0100
0001
,
0000
0001
1000
0000
0110
0000
0000
0000
0001
1000
0000
0100
0000
0010
0000
0100
,
1000
0000
0001
0000
0010
0000
0100
0000
1000
0010
0000
0010
0100
0000
0100
0001
,
0000
0001
0010
0000
0100
0000
1000
0001
0000
1000
0010
0000
0000
0100
0000
0100
,
0000
0100
0001
0100
0010
0000
1000
0000
0000
0110
0000
0000
0010
0000
0001
0000
,
1000
0000
1100
0010
0000
0110
1000
0000
,
0011
0000
0001
0000
0010
0000
0010
0100
0000
0000
1000
0000
0001
0000
0100
0000
,
0010
0000
1000
0000
0100
0000
0100
0010
0000
0001
1000
0000
0000
0001
0010
0001
,
0000
0001
1000
0001
1000
0000
0010
0100
0000
0100
0001
0000
0010
0000
0100
0000
,
1000
0001
0101
1000
0000
0110
0001
0000
,
0101
0000
0100
0000
0001
0000
0001
0100
0000
0000
0100
0000
0010
0000
1000
0000
,
0100
0000
0000
0000
0010
0000
0010
0001
0000
1000
0001
0000
0000
0100
0010
0100
,
0000
0100
0010
1000
0010
0000
1000
0100
0000
0100
0010
0000
0001
0000
0100
0000
,
0010
0000
0000
0010
1000
0000
0100
0000
0010
0000
0001
1000
0100
0010
0001
0000
,
0010
0000
0100
0000
1000
0000
0001
0010
0100
1000
0001
0000
0010
0000
0100
0000
,
1000
0000
0010
0000
0100
0001
0100
0000
0010
0000
0010
0000
1000
0100
1000
0000
,
0001
0000
0001
0000
0100
0000
0010
0000
1000
0000
0000
1000
0100
0000
0010
0000
,
0001
0000
0100
0000
0010
0000
0100
0000
0001
0000
0100
0010
1000
0001
0100
0000
,
0010
0000
1000
0000
0010
0000
0100
0001
1000
0010
0100
0000
0001
0000
0100
0000
,
0010
0000
0100
0000
0001
1000
0001
0000
0010
0000
0010
0000
0001
1000
0001
0000
,
0100
0000
0100
0000
0010
1000
0100
0010
0001
0000
1001
0000
0000
0000
0000
0000
,
0100
0000
0000
0000
0010
0000
0000
0000
1000
0001
1000
0000
0100
0000
0010
0001
0000
0001
0100
0000
0010
0000
1000
0100
0000
0100
0010
0000
0001
0000
1000
0010
,
0000
0000
0000
0000
0000
0000
0010
0000
0000
0000
0000
0000
0100
0000
0000
0000
0000
0000
0000
0000
0000
0000
0000
0000
0001
0000
0000
0000
0000
0000
0100
0000
0000
0000
0000
0000
0010
0000
0000
0000
0000
0000
1000
0000
0000
0000
0000
0000
0000
0000
0000
0000
0000
0000
1000
0000
0000
0000
0000
0000
0100
0000
0000
0000
0000
0000
0010
0000
0000
0000
0000
0000
0001
0000
0000
0000
0000
0000
0100
0000
0000
0000
0000
0000
0010
0000
0000
0000
0000
0000
1000
0000
0000
0000
0000
0000
0100
0000
0000
0000
0000
0000
0000
0000
0000
0000
0000
0000
0010
0000
0000
0000
0000
0000
0000
0000
0000
0000
0000
0000
0001
0000
0000
0000
0000
0000
0000
0000
0000
0000
0000
0000
1000
0000
0000
0000
0000
0000
0000
0000
0000
0000
0000
0000
0010
0000
0000
0000
0000
0000
0000
0000
1000
0000
0000
0000
0000
0000
0000
0000
0100
0000
0000
0000
0000
0000
0000
0000
1000
0000
0000
0000
0000
0000
0000
0000
0010
0000
0000
0000
0000
0000
0000
0000
0100
0000
0000
0000
0000
0000
0000
0000
,
0001
0000
0000
0000
1001
0000
0000
0000
0110
0000
0000
0000
1100
0000
0000
0000
0000
0000
0000
0000
0000
0010
0000
0000
0100
0000
0000
0010
0000
0000
0000
0000
0000
1000
0000
0000
0000
0000
0000
1000
0000
0000
0000
0000
0000
0100
0000
0000
,
0010
0000
0000
0000
0001
0000
1000
0000
0100
0010
0000
0010
0001
0000
1000
0010
,
0000
0100
0001
0000
1000
0000
0100
0000
0010
0000
0000
0000
0100
1000
0001
0000
,
1100
0000
0000
0000
0010
0001
1000
0000
0011
0000
0000
0000
0100
0010
1000
0000
,
0101
0000
0000
0000
0010
0000
0101
0000
0010
0000
0000
0100
1000
0001
1000
0100
,
0010
0001
1000
0010
0100
0000
0001
1100
,
0010
0000
0001
0100
0010
1000
0100
0010
,
0001
0000
0100
0000
0010
0000
1001
0000
0000
1100
0000
0000
1001
0000
0000
0010
,
0000
0010
0000
0100
0001
0000
1000
0000
0100
0000
0010
0000
0001
0000
0100
0000
,
0010
0000
1000
0000
0010
1000
0100
0000
0000
1001
0000
0011
0000
0000
0000
0000
,
0100
0010
1000
0100
0010
0000
0001
0000
1000
0100
0000
0010
0001
0000
0010
0100
,
0000
1000
0001
0000
0100
0010
0000
0010
1000
0010
0000
0010
0000
0010
0100
0000
,
0001
1000
0100
0010
0001
0000
1000
0000
0100
0000
0010
0000
0001
0000
0100
0000
,
0010
0000
1000
0000
0100
0010
0000
0010
0001
0010
0000
0010
0000
0010
0100
0000
,
1000
0001
0100
0010
1000
0100
0000
0010
0100
1000
0000
0001
0000
0100
0010
0000
,
0100
0001
1000
0100
0010
0001
0000
1000
0100
0010
0000
0001
0010
0100
1000
0100
,
0010
0001
0100
0010
1000
0000
0001
0000
0100
0000
0010
0000
1000
0000
0100
0000
,
0010
0000
0001
0000
0010
0100
0000
0100
1000
0100
0000
0100
0000
0100
0010
0000
,
0001
1000
0001
0000
0100
0010
0000
1000
0100
0010
0000
0001
0000
0010
0100
0000
,
1000
0010
0100
0000
0001
0100
0000
0000
0100
0010
0000
0010
0000
0010
1000
0000
,
0100
1000
0010
1000
0100
0000
0010
0000
0001
1000
0000
0100
0000
1000
0001
0000
,
0000
0001
0100
0000
1000
0000
0100
0000
0000
0100
0000
0110
0000
0100
0001
0000
,
0010
0000
0100
0000
1000
0001
0000
0100
0010
1000
0000
1001
0000
1000
0100
0000
,
0010
0001
0100
0010
1000
0100
0010
0000
0000
0010
0000
0110
0000
0010
0001
0000
,
0100
0000
0010
1000
0010
0100
0001
0000
0000
0010
0000
1001
0000
0100
1000
0000
,
0100
0010
0001
0000
0100
0000
0010
0000
0000
0100
0000
0110
0000
0100
0001
0000
,
0010
0000
0000
0000
0001
0000
0000
0000
0010
0000
0001
0010
0001
0000
0010
0000
0000
0000
0001
0000
0000
0000
0100
0000
0000
0000
1000
0000
0000
0000
0100
0000
,
0000
0001
1000
0000
0100
0000
0010
0000
0001
0100
0000
0100
1000
0100
0000
0100
,
0010
0000
1000
0000
0100
0000
0000
0000
1000
0000
0100
1000
0100
0000
1000
0000
0000
0000
0010
0000
0000
0000
0001
0000
0000
0000
0010
0000
0000
0000
1000
0000
,
0000
0100
0010
0000
0001
0000
0100
0000
0010
1000
0000
1000
0100
0010
0000
0001
,
0000
1000
0200
0002
0000
0000
0000
0000
0000
0000
0000
0000
0303
0000
0000
0000
;

//---------------dance-single - S. Bauer----------------
#NOTES:
     dance-single:
     S. Bauer:
     Beginner:
     1:
     0.247,0.295,0.206,0.045,0.000,165.000,23.000,5.000,0.000,0.000,0.000: // measure 1
0000
0000
0000
0000
,  // measure 2
0000
0000
0000
0000
,  // measure 3
0000
0000
0000
0000
,  // measure 4
1001
0000
0001
0000
,  // measure 5
1001
0000
0001
0000
,  // measure 6
1001
0000
0010
0000
,  // measure 7
0100
0000
0100
0000
,  // measure 8
0010
0000
1001
0000
,  // measure 9
0001
0000
0001
0000
,  // measure 10
1000
0000
0100
0000
,  // measure 11
0010
0000
0010
0000
,  // measure 12
0100
0000
0100
0000
,  // measure 13
0100
0000
0010
0000
,  // measure 14
0010
0000
0100
0000
,  // measure 15
0100
0010
0010
1000
,  // measure 16
1000
0001
0001
1000
,  // measure 17
1000
0010
0100
0001
,  // measure 18
0001
0010
0100
0100
,  // measure 19
0010
0001
0000
0100
,  // measure 20
0000
0010
0000
0000
,  // measure 21
1001
0000
0001
0000
,  // measure 22
1001
0000
0010
0000
,  // measure 23
0110
0000
0100
0000
,  // measure 24
0110
0000
0010
0000
,  // measure 25
1000
0000
0010
0000
,  // measure 26
0100
0000
0010
0000
,  // measure 27
0001
2002
0000
0000
,  // measure 28
0000
0000
0000
0000
,  // measure 29
0000
0000
3003
0000
,  // measure 30
1000
0000
0110
0000
,  // measure 31
0010
0000
0000
0000
,  // measure 32
0100
0000
1000
0100
,  // measure 33
1000
1000
0000
0100
,  // measure 34
0000
1001
0000
0001
,  // measure 35
0001
0001
0100
0001
,  // measure 36
1001
0001
0100
0010
,  // measure 37
0010
1000
0100
0100
,  // measure 38
0010
0100
1000
0100
,  // measure 39
1100
0100
0100
0100
,  // measure 40
1100
0100
0100
0010
,  // measure 41
0100
0010
1001
0001
,  // measure 42
1001
0010
0110
0010
,  // measure 43
1010
0010
0100
0001
,  // measure 44
0001
0010
0100
0010
,  // measure 45
0001
0100
0010
1000
,  // measure 46
0001
1001
0110
1000
,  // measure 47
0100
1001
0010
0100
,  // measure 48
0001
0001
1000
0010
,  // measure 49
0100
0001
0001
0001
,  // measure 50
0100
0100
0010
1000
,  // measure 51
1000
0100
0010
0001
,  // measure 52
0010
0100
1000
0100
,  // measure 53
0010
1000
0100
0100
,  // measure 54
0001
1000
0010
0100
,  // measure 55
0001
0010
0100
0010
,  // measure 56
1000
1000
0100
0010
,  // measure 57
0010
1001
0001
0100
,  // measure 58
0010
1000
0001
0100
,  // measure 59
2002
0000
0000
3003
,  // measure 60
0020
0000
0000
0030
;
