#TITLE:The Last Kiss;
#SUBTITLE:;
#ARTIST:Missing Heart;
#TITLETRANSLIT:Last Kiss;
#SUBTITLETRANSLIT:;
#ARTISTTRANSLIT:;
#GENRE:Dance;
#CREDIT:;
#BANNER:The Last Kiss-bn.png;
#BACKGROUND:The Last Kiss-bg.png;
#LYRICSPATH:;
#CDTITLE:;
#MUSIC:The Last Kiss.ogg;
#OFFSET:-0.024;
#SAMPLESTART:78.300;
#SAMPLELENGTH:11.840;
#SELECTABLE:YES;
#BPMS:0.000=123.999;
#STOPS:;
#BGCHANGES:0.072=The Last Kiss.mpg=1.000=1=0=0=StretchNoLoop==CrossFade==,
99999=-nosongbg-=1.000=0=0=0 // don't automatically add -songbackground-;
#KEYSOUNDS:;

//---------------dance-single - K. Ward----------------
#NOTES:
     dance-single:
     K. Ward:
     Hard:
     8:
     0.450,0.456,0.175,0.295,0.074,291.000,19.000,32.000,0.000,0.000,0.000,0.450,0.456,0.175,0.295,0.074,291.000,19.000,32.000,0.000,0.000,0.000:
0000
0000
0000
0000
,
0000
0000
0000
0000
,
0000
0000
0000
0000
,
0220
0000
0330
0000
,
0001
1000
0100
0010
0000
0010
0100
1000
,
0000
1000
0100
0001
0000
0000
2002
3003
,
0100
0010
1000
0100
0000
0100
0010
0001
,
0000
0001
0100
1000
0000
0000
2200
3300
,
0001
1000
0001
0100
0001
0010
0001
0100
,
0001
1000
0100
0010
0100
0000
2200
3300
,
0001
0100
0010
0000
1000
0100
0010
0000
,
0001
0010
0100
0000
1000
0100
0020
0030
,
1001
0100
0010
0001
0010
0100
1000
0000
,
0100
0010
1000
0001
0010
0100
2000
3000
,
0001
1000
0100
0010
0100
1000
0100
0001
,
0010
0100
0001
0010
0100
0000
2000
3000
,
0001
1000
0100
0010
0001
0010
0100
1000
,
0001
0100
0010
1000
0100
0010
0002
0003
,
1000
0001
0010
0100
,
2002
0000
0000
0000
0000
3003
0000
0000
,
1000
0000
0100
0000
1000
0000
0100
1000
0000
0000
0100
0000
0100
0000
0000
0000
,
0010
0000
0100
0000
0010
0000
0100
0010
0000
0000
0100
0000
0100
0000
0000
0000
,
1000
0000
0001
0000
1000
0000
0001
1000
0000
0000
0001
0000
0001
0000
0000
0000
,
1100
0011
0110
1001
,
0200
0000
0000
0300
,
0001
0100
1000
0000
1000
0100
0010
0000
,
0010
0100
1000
0000
1000
0100
0002
0003
,
1000
0001
0010
0000
0100
0001
0010
0000
,
0100
0001
0010
0000
0010
0100
2002
3003
,
0100
0010
0100
0001
0100
0010
0100
1000
,
0100
0010
0001
0010
0100
1000
0200
0300
,
0001
0000
1000
0000
0001
0010
0000
0001
0100
0000
0010
0100
0000
0001
0010
0000
,
0001
0100
0000
0010
1000
0000
0100
0010
0000
0000
0100
0000
2000
0000
3000
0000
,
0001
0010
0100
1000
0001
0010
0100
1000
,
0001
0010
0100
1000
0010
0100
0002
0003
,
1000
0100
0010
0001
1000
0100
0010
0001
,
1000
0100
0010
0001
0100
0010
2000
3000
,
0001
0100
0010
0100
0001
0100
0010
0000
,
1000
0100
0010
0100
1000
0100
0020
0030
,
0001
0100
1000
0000
1000
0100
0001
0000
,
2002
0000
0000
3003
,
0100
0000
0010
0000
0100
0000
0010
0100
0000
0000
0010
0000
0010
0000
0000
0000
,
1000
0000
0001
0000
1000
0000
0001
1000
0000
0000
0001
0000
0001
0000
0000
0000
,
0010
0000
0100
0000
1000
0000
0100
1000
0000
0000
0100
0000
0100
0000
0000
0000
,
0001
0100
1000
0000
1000
0100
0001
0000
,
1000
0000
1000
0000
1000
0000
0100
1000
0000
0000
0100
0000
0010
0000
0000
0000
,
0001
0000
0001
0000
0001
0000
0100
0010
0000
0000
0100
0000
0100
0000
0000
0000
,
0001
0000
1000
0000
0001
0000
1000
0001
0000
0000
0010
0000
0010
0000
0000
0000
,
1100
0011
0110
1001
,
2002
0000
3003
0000
,
0020
0000
0030
0000
,
0100
1000
0010
0001
,
2002
0000
3003
0000
,
0220
0000
0000
0000
,
0000
0000
0000
0000
,
0330
0000
0000
0000
;

//---------------dance-single - K. Ward----------------
#NOTES:
     dance-single:
     K. Ward:
     Challenge:
     9:
     0.500,0.507,0.240,0.516,0.138,298.000,26.000,56.000,24.000,14.000,21.000,0.500,0.507,0.240,0.516,0.138,298.000,26.000,56.000,24.000,14.000,21.000: // measure 1
0000
0000
0000
0000
,  // measure 2
0000
0000
0000
0000
,  // measure 3
0000
0000
0000
0000
,  // measure 4
2002
0000
0000
3003
,  // measure 5
1000
0010
0100
0001
0010
0100
1000
0010
,  // measure 6
0100
0001
0010
0000
2200
0000
0020
3330
,  // measure 7
0001
0100
0010
1000
0010
0100
0001
1000
,  // measure 8
0100
0010
0001
0200
0002
0000
0020
0333
,  // measure 9
1000
0100
0001
0100
1000
0010
0001
0010
,  // measure 10
0100
0000
0001
0000
0010
0000
0100
0010
0000
0000
0001
0000
0002
0000
0003
0000
,  // measure 11
1000
0000
0100
0000
0010
0000
0001
1000
0000
0000
0100
0000
0010
0000
0001
1000
,  // measure 12
0000
0000
0100
0000
0010
0000
0001
1000
0000
0000
0100
0000
0020
0000
0030
0000
,  // measure 13
1001
0010
0100
1000
0100
0010
0001
0010
,  // measure 14
0100
1000
0100
0020
0200
0000
0002
0333
,  // measure 15
1000
0001
0010
0100
0010
0001
0010
0100
,  // measure 16
1000
0100
0010
0002
0200
0000
2000
3303
,  // measure 17
0001
0100
1000
0100
0001
0010
0100
1000
,  // measure 18
0100
0000
0010
0000
0001
0000
1000
0001
0000
1000
0001
0000
2002
0000
3003
0000
,  // measure 19
0040
0400
0000
0000
0000
0000
0000
0000
0000
0000
0000
0000
0330
0000
0000
0000
,  // measure 20
2002
0000
0000
3003
0010
0101
0010
0100
,  // measure 21
4000
0000
3040
M000
0430
00M0
0304
0M00
,  // measure 22
0043
000M
0430
00M0
1300
0M01
1000
0000
,  // measure 23
2000
0000
0200
0000
0020
0000
0002
3333
,  // measure 24
1100
0110
1001
0110
,  // measure 25
2M02
0000
0000
0000
0000
0000
00M0
0000
0000
0000
0000
0000
3M03
0000
0000
M00M
0000
0000
1000
0001
1000
0001
0000
0000
,  // measure 26
0100
0000
0100
0000
0010
0000
0100
0001
0000
0000
0010
0000
0001
0000
0010
0000
,  // measure 27
0010
0000
0100
0000
1000
0000
0100
0010
0000
0000
0100
0000
2200
0000
3300
0000
,  // measure 28
0001
0000
1000
0000
0010
0000
0100
0010
0000
0000
0100
0000
1000
0000
0100
0000
,  // measure 29
0100
0000
0010
0000
1000
0000
0100
0010
0000
0000
0100
0000
2002
0000
3003
0000
,  // measure 30
0010
0100
0010
1000
0010
0100
0010
0001
,  // measure 31
0010
0000
0100
0000
1000
0000
0100
0010
0000
0000
0100
0000
2002
0000
3003
0000
,  // measure 32
1000
0000
0001
0000
0010
0100
0000
1000
0010
0000
0100
0001
0000
0010
0100
0000
,  // measure 33
1000
0010
0000
0100
0002
0000
0000
0000
2000
0000
0000
0000
0020
0000
3033
0000
,  // measure 34
1000
0000
0100
0000
0010
0000
0001
1000
0000
0001
1000
0000
0001
0000
0001
0000
,  // measure 35
0100
0000
0010
0000
1000
0000
0010
1000
0000
0010
1000
0000
0200
0000
0300
0000
,  // measure 36
0001
0000
0010
0000
0100
0000
1000
0001
0000
1000
0001
0000
1000
0000
1000
0000
,  // measure 37
0010
0000
0100
0000
0001
0000
0100
0001
0000
0100
0001
0000
0020
0000
0030
0000
,  // measure 38
0001
0100
1000
0100
0001
0010
0100
0010
,  // measure 39
0000
0202
0000
0000
0300
0000
0013
0100
,  // measure 40
4000
0004
0000
0000
0000
0000
0000
0000
0000
0000
0000
0000
0000
0000
0000
3003
,  // measure 41
2002
0000
0000
3003
0100
1010
M10M
0010
,  // measure 42
0004
0000
4003
000M
3400
M000
0304
0M00
,  // measure 43
0403
000M
4300
0M00
3040
M000
0034
00M0
,  // measure 44
0043
000M
0430
00M0
0304
0M00
1003
000M
,  // measure 45
2000
0000
0200
0000
0020
0000
0002
3333
,  // measure 46
1010
1000
0010
0010
0100
0100
0001
0001
,  // measure 47
1000
0000
1000
0000
0001
0000
0001
0010
0000
0000
0100
0000
0010
0000
0100
0000
,  // measure 48
1002
0000
0200
0000
0020
0000
2000
3333
,  // measure 49
0101
0110
1001
0110
,  // measure 50
2002
0000
0000
0010
3003
0000
0000
0000
,  // measure 51
0200
0000
0000
1000
0300
0000
0000
0000
,  // measure 52
0001
1000
0100
0010
0001
0000
0010
0000
,  // measure 53
2200
0000
0000
0000
0010
3300
0000
0000
,  // measure 54
2002
0000
0000
0010
0000
0000
0000
0000
,  // measure 55
0000
0000
0000
0000
,  // measure 56
3003
0000
0000
0000
;

//---------------dance-single - J. Frederick----------------
#NOTES:
     dance-single:
     J. Frederick:
     Beginner:
     1:
     0.072,0.098,0.055,0.000,0.000,49.000,6.000,0.000,0.000,0.000,0.000,0.072,0.098,0.055,0.000,0.000,49.000,6.000,0.000,0.000,0.000,0.000:
0000
0000
0000
0000
,
0000
0000
0000
0000
,
0000
0000
0000
0000
,
0110
0000
0000
0000
,
1000
0000
0000
0000
,
0001
0000
0000
0000
,
0010
0000
0000
0000
,
0100
0000
0000
0000
,
1000
0000
0000
0000
,
0001
0000
0000
0000
,
0010
0000
0000
0000
,
0100
0000
0000
0000
,
1001
0000
0000
0000
,
0100
0000
0000
0000
,
0010
0000
0000
0000
,
1000
0000
0000
0000
,
0001
0000
0000
0000
,
0100
0000
0000
0000
,
0010
0000
0000
0000
,
1001
0000
0000
0000
,
0100
0000
0000
0000
,
0010
0000
0000
0000
,
1000
0000
0000
0000
,
0001
0000
0000
0000
,
0010
0000
0000
0000
,
0100
0000
0000
0000
,
1000
0000
0000
0000
,
0001
0000
0000
0000
,
0010
0000
0000
0000
,
0100
0000
0000
0000
,
1000
0000
0000
0000
,
0001
0000
0000
0000
,
0010
0000
0000
0000
,
0100
0000
0000
0000
,
1000
0000
0000
0000
,
0001
0000
0000
0000
,
0010
0000
0000
0000
,
0100
0000
0000
0000
,
1000
0000
0000
0000
,
0001
0000
0000
0000
,
0110
0000
0000
0000
,
1001
0000
0000
0000
,
0100
0000
0000
0000
,
1000
0000
0000
0000
,
0001
0000
0000
0000
,
0010
0000
0000
0000
,
0100
0000
0000
0000
,
1000
0000
0000
0000
,
0001
0000
0000
0000
,
0110
0000
0000
0000
,
0000
0000
0000
0000
,
0010
0000
0000
0000
,
0000
0000
0000
0000
,
1000
0000
0000
0000
;

//---------------dance-single - J. Frederick----------------
#NOTES:
     dance-single:
     J. Frederick:
     Easy:
     3:
     0.192,0.203,0.092,0.175,0.000,117.000,10.000,19.000,0.000,0.000,0.000,0.192,0.203,0.092,0.175,0.000,117.000,10.000,19.000,0.000,0.000,0.000:
0000
0000
0000
0000
,
0000
0000
0000
0000
,
0000
0000
0000
0000
,
2002
0000
0000
3003
,
0100
0010
1000
0000
,
0001
0010
0100
0000
,
1000
0000
0010
0000
,
0100
0001
0010
0000
,
0100
1000
0100
0000
,
0010
0001
0100
0000
,
0010
0000
1000
0000
,
0001
0000
0010
0000
,
0110
0000
1000
0000
,
0001
0100
0001
0000
,
0010
0000
0100
0000
,
1000
0100
1000
0000
,
0010
0000
0100
0000
,
0001
0010
0100
0000
,
1000
0000
0001
0000
,
0220
0000
0000
0330
,
0110
1000
0001
0000
,
0100
1000
0010
0000
,
0001
0000
0100
0000
,
0010
1000
0010
0100
,
0002
0000
0000
0003
,
0100
1000
0010
0000
,
0100
0000
0001
0000
,
0010
0100
1000
0000
,
0001
0000
0100
0000
,
0010
1000
0010
0000
,
0100
0000
0001
0000
,
0020
0030
0200
0300
,
2002
0000
0000
3003
,
1000
0001
0100
0000
,
0010
0000
1000
0000
,
0100
0010
0001
0000
,
0100
0000
0010
0000
,
1000
0010
0100
0000
,
0001
0000
0010
0000
,
0002
0003
2000
3000
,
0220
0000
0000
0330
,
0110
1000
0010
0000
,
0100
0001
0010
0000
,
0100
1000
0100
0000
,
0010
0001
0100
0000
,
1000
0010
0100
0000
,
0010
0100
0001
0000
,
0001
1000
0100
0000
,
0100
0010
0001
0100
,
2002
0000
0000
0000
,
0000
0000
0000
3003
,
0220
0000
0000
0000
,
0000
0000
0000
0330
,
2002
0000
0000
0000
,
0000
0000
0000
0000
,
3003
0000
0000
0000
;

//---------------dance-single - J. Frederick----------------
#NOTES:
     dance-single:
     J. Frederick:
     Medium:
     5:
     0.303,0.279,0.064,0.101,0.000,212.000,7.000,11.000,0.000,0.000,0.000,0.303,0.279,0.064,0.101,0.000,212.000,7.000,11.000,0.000,0.000,0.000:
0000
0000
0000
0000
,
0000
0000
0000
0000
,
0000
0000
0000
0000
,
2002
0000
0000
0000
0000
0000
0000
3003
,
1000
0001
0100
0010
,
1000
0000
0010
0000
0100
0000
0010
0100
,
0001
1000
0010
0100
,
0001
0000
0010
0000
0100
0000
1000
0100
,
0010
0001
0100
0010
,
1000
0000
0010
0000
0100
0000
0001
0010
,
0100
1000
0010
0100
,
0001
0000
0010
0000
0100
0000
1000
0010
,
0001
0010
1000
0100
,
0010
0000
0001
0000
0100
0000
0001
1000
,
0100
0010
0100
1000
,
0010
0000
0100
0000
0001
0000
0010
0001
,
0100
0001
1000
0010
,
0100
0000
0010
0000
0001
0000
0010
1000
,
0100
0010
0001
0100
,
0220
0000
0000
0330
,
0110
0000
1000
0000
0001
0010
0100
0000
,
1000
0000
0100
0000
0010
0000
0001
0100
,
0010
0000
1000
0000
0010
0000
0100
0001
,
0010
0000
0100
0000
1000
0000
0100
0010
,
0001
0100
0001
1000
,
1001
0010
0100
0010
,
1000
0000
0100
0000
0010
0000
0001
0100
,
0010
1000
0010
0010
,
0100
0000
1000
0000
0001
0000
0100
0001
,
0010
0100
1000
0100
,
0010
0000
0001
0000
1000
0000
0010
1000
,
0100
1000
0010
0100
,
0001
0000
0010
0000
0100
1000
0100
0010
,
0001
0100
0001
1000
,
0010
0000
0100
0000
0010
0000
1000
0010
,
0001
0010
0100
0001
,
0010
0000
0001
0000
1000
0000
0001
0010
,
1000
0010
0001
0100
,
0010
0000
1000
0000
0001
0000
0010
0001
,
0100
0001
1000
0010
,
0220
0000
0000
0000
0000
0000
0000
0330
,
1001
0000
0010
0000
0100
1000
0100
0000
,
0010
0000
0001
0000
0100
0000
0001
1000
,
0001
0000
0010
0000
0100
0000
1000
0100
,
0010
0000
0001
0000
0100
0000
0010
1000
,
0010
0000
0100
0000
0001
0000
0010
0100
,
1000
0000
0100
0000
0010
0000
0001
0100
,
0001
0010
0100
1000
,
0010
0100
0010
1000
,
0001
0010
0100
1000
,
0200
0000
0000
0300
,
0010
0001
0100
0010
,
2000
0000
0002
3003
,
2002
0000
0000
0000
,
0000
0000
0000
0000
,
3003
0000
0000
0000
;

//---------------dance-double - A. Phillips----------------
#NOTES:
     dance-double:
     A. Phillips:
     Easy:
     4:
     0.282,0.329,0.230,0.138,0.000,174.000,25.000,15.000,2.000,1.000,0.000:
00000000
00000000
00000000
00000000
,
00000000
00000000
00000000
00000000
,
00000000
00000000
00000000
00000000
,
M002200M
00000000
00000000
00033000
,
00011000
00010000
00001000
00010000
,
00000100
00001000
00000100
00000000
,
00000001
00000010
00000100
00001000
,
00010000
00100000
01000000
00000000
,
01000000
00100000
00010000
00001000
,
00010000
00100000
00000000
00000100
,
00010000
00100000
01000000
00010000
,
00000100
00010000
00000100
00010000
,
00010100
00100000
00010000
00001000
,
00000100
00000010
00001000
00010000
,
00100000
01000000
00100000
00001000
,
00100000
01000000
10000000
00000000
,
00010000
00000100
00000010
00001000
,
00100000
00001000
00000000
00000010
,
00000010
00001000
00100000
01000000
,
10000000
00100000
00010000
00001000
,
00100100
00000010
00000001
00000010
,
00000001
00000010
00001000
00000100
,
00010000
00100000
00001000
00000010
,
00011000
00101000
01010000
01100000
,
00202000
00000000
00000000
00303000
,
00010100
00010000
01000000
10000000
,
00100000
00001000
00000100
00000000
,
00000100
00000010
00000001
00000100
,
00001000
00000100
00100000
00001000
,
00100000
00001000
00100000
00001000
,
00100000
01000000
00000000
00100000
,
00001000
01000000
00010000
00001000
,
00100000
01000000
00010000
00010000
,
00101000
00001000
00100000
01000000
,
00100000
01000000
00100000
00000000
,
00010000
01000000
10000000
00100000
,
00010000
00000100
00001000
00000000
,
00000010
00000100
00010000
00100000
,
00001000
00100000
00000000
00100000
,
00010000
00000100
00000010
00000100
,
00010100
00101000
01010000
00110000
,
00010100
00000010
00000100
00000010
,
00001000
00000010
00000100
00000010
,
00000100
00000010
00000001
00000010
,
00000001
00000100
00001000
00000100
,
00001000
00000100
00000010
00000100
,
00000010
00001000
00000010
00001000
,
00000100
00001000
00100000
00001000
,
00100100
00101000
01100000
10010000
,
00220000
00000000
00000000
00330000
,
00000220
00000000
00000000
00000330
,
00202000
00000000
00000000
00303000
,
02002000
00000000
00000000
03003000
,
02000200
00000000
00020000
00000000
,
00000000
00000000
00000000
00000000
,
03030300
00000000
00000000
00000000
;

//---------------dance-double - D. Bernardone----------------
#NOTES:
     dance-double:
     D. Bernardone:
     Medium:
     6:
     0.421,0.431,0.120,0.230,0.074,282.000,13.000,25.000,0.000,0.000,0.000:
00000000
00000000
00000000
00000000
,
00000000
00000000
00000000
00000000
,
00000000
00000000
00000000
00000000
,
02200000
00000000
00000000
03300000
,
10000000
00000000
01000000
00000000
00010000
00001000
00010000
00000000
,
00000010
00000000
00000100
00000000
00000010
00010000
00001000
00010000
,
00100000
00000000
01000000
00000000
00010000
00000000
00100000
01000000
,
10000000
00000000
00100000
00000000
01000000
00010000
00100000
01000000
,
00010000
00000000
00001000
00000000
00000010
00000100
00001000
00000000
,
00000001
00000100
00001000
00000000
00010000
01000000
10000000
00200000
,
01000000
10000000
01000000
10000000
01000000
10000000
01000000
10000000
,
02300000
00010000
00100000
00010000
00100000
00010000
00100000
00010000
,
03100000
10000000
01000000
00000000
00010000
00000000
00010000
00000000
,
00001000
00000100
00000000
00000001
00000000
00000010
00000100
00000000
,
00001000
00000001
00000100
00000000
00000010
00000000
00000010
00000000
,
00000100
00001000
00010000
00000000
01000000
10000000
00100000
01000000
,
00100000
00100000
00100000
00000000
10000000
01000000
00010000
00000000
,
00001000
00010000
00000010
00000100
00000100
00000001
00001000
00000000
,
00000100
00000010
00001000
00010000
01000000
00010000
00001000
00000010
,
00000012
00000000
00000000
00000000
00001000
00001000
00001000
00001003
,
00000001
00000000
00000100
00000000
00000001
00000000
00000000
00001000
00000000
00001000
00000000
00000000
00000010
00000000
00000000
00000000
,
00001000
00000000
00000100
00000000
00010000
00000000
00000000
00001000
00000000
00001000
00000000
00000000
01000000
00000000
00000000
00000000
,
00010000
00000000
00100000
00000000
01000000
00000000
00000000
00100000
00000000
00100000
00000000
00000000
00010000
00000000
00000000
00000000
,
01100000
10010000
01010000
00101000
,
00022000
00000000
00000000
00033000
,
00010000
00000100
00010000
00000000
00000010
00001000
00000010
00000000
,
00000100
00000001
00000100
00000000
00000010
00010000
00000010
00000000
,
00001000
00000100
00001000
00000000
00000001
00000010
00000001
00000000
,
00000100
00000010
00000100
00000010
00000010
00010000
00000010
00000000
,
00010000
00001000
00010000
00000000
00001000
01000000
00001000
00000000
,
01000000
00010000
01000000
00000000
00100000
10000000
00100000
00000000
,
10000000
01000000
00010000
00000000
00001000
00000100
00000001
00000000
,
00000001
00000010
00001000
00000000
00010000
00100000
10000000
00000000
,
00010000
01000000
00000000
00001000
00000000
00010000
00000100
00001000
,
00000000
00000010
00000000
00000100
00000001
00000010
00000001
00000000
,
00001000
00000100
00000000
00010000
00000000
00001000
01000000
00010000
,
00000000
00100000
00000000
01000000
10000000
00010000
00010000
00010000
,
01000000
00000000
00100000
00000000
00010000
00001000
00000100
00000000
,
00001000
00000000
00010000
00000000
00001000
00000010
00001000
00000000
,
00010000
01000000
10000000
01000000
00010000
00001000
00000010
00001000
,
00012000
00000000
00000000
00000000
00010000
00010000
00010000
00013000
,
00000010
00000000
00001000
00000000
00000010
00000000
00000000
00000100
00000000
00000100
00000000
00000000
00000001
00000000
00000000
00000000
,
00000010
00000000
00000100
00000000
00000010
00000000
00000000
00000001
00000000
00000001
00000000
00000000
00000100
00000000
00000000
00000000
,
00000010
00000000
00010000
00000000
00001000
00000000
00000000
00100000
00000000
00100000
00000000
00000000
00010000
00000000
00000000
00000000
,
01000000
00100000
10000000
00100000
01000000
00001000
00010000
00000000
,
00000100
00000000
00000010
00000000
00000100
00000000
00000000
00001000
00000000
00000001
00000000
00000000
00000010
00000000
00000000
00000000
,
00000100
00000000
00001000
00000000
00000100
00000000
00000000
00000010
00000000
00000001
00000000
00000000
00000100
00000000
00000010
00000000
,
00000110
00000000
00000010
00010000
00001000
01000000
00001000
00000000
,
00011000
00101000
01100000
11000000
,
00020000
02030000
03200000
00320000
,
00032000
00003020
00000230
00002300
,
00003002
00000203
00002300
00023000
,
02030000
00000000
03020000
00000000
00032000
00000000
00200000
00300000
,
00020000
00000000
00000000
00000000
,
00000000
00000000
00000000
00000000
,
00033000
00000000
00000000
00000000
;

//---------------dance-double - D. Bernardone----------------
#NOTES:
     dance-double:
     D. Bernardone:
     Challenge:
     10:
     0.492,0.481,0.120,0.240,0.009,329.000,13.000,26.000,6.000,17.000,0.000:
00000000
00000000
00000000
00000000
,
00000000
00000000
00000000
00000000
,
00000000
00000000
00000000
00000000
,
02011200
000MM300
00000000
00000000
,
03010000
00100000
00010000
00000000
00000100
00000010
00000100
00000000
,
00100000
01000000
00100000
00000000
10000000
01000000
00001000
00000010
,
00000100
00000001
00000100
00000000
00001000
00000100
00001000
00000000
,
10000000
00010000
10000000
00100000
00001000
00000010
00000001
00000010
,
00000100
00010000
00100000
01000000
10000000
00010000
00100000
01000000
,
00000010
00000100
00010000
00100000
01000000
10000000
01000000
00100000
,
10000000
00010000
00001000
00000001
00001000
00010000
10000000
00100000
,
01000000
00000010
00000100
00000010
00100000
01000000
00100000
00000010
,
00001000
00000001
00001000
00000000
00010000
10000000
00010000
00000000
,
00001000
00000001
00001000
00000010
00000100
00000010
00100000
01000000
,
10000000
00010000
10000000
00000000
00010000
00001000
00010000
00000000
,
00001000
00000001
00001000
00010000
10000000
00010000
01000000
00100000
,
10000000
01000000
00001000
00000100
00001000
01000000
00100000
00000010
,
00000100
00000010
01000000
00100000
01000000
00000100
00000010
00000010
,
00000001
01000000
10000000
01000000
00000001
01000000
00001000
00000000
,
12102000
00000000
00000000
00000000
M0M03000
00000000
00000000
00000000
00010000
00000000
00010000
00000000
00010000
00000000
00010000
03010000
,
10000000
01000000
00001000
00000010
00000100
00010000
01000000
00100000
,
01000000
00000100
00000010
00000100
00010000
00000001
00001000
00000010
,
00000100
00010000
00000100
00000010
01000000
00100000
00001000
00100000
,
01100000
00011000
00000110
01100000
,
00022000
00003000
00000000
00000000
,
00030001
00000100
00000001
00000000
00000100
00010000
00000100
00000000
,
00010000
00100000
01000000
00001000
00000100
00000010
00000001
00000000
,
00000100
00000010
00001000
00000000
01000000
10000000
00010000
00000000
,
01000000
00100000
00001000
00000010
00000001
00000010
00000100
00000000
,
00010000
01000000
10000000
00000000
01000000
00001000
00000010
00000000
,
00000001
00000100
00010000
00100000
01000000
00001000
00000100
00000000
,
00000010
00000001
00000010
01000000
10000000
01000000
00001000
00000010
,
00001000
00000010
01000000
00010000
01000000
00100000
00001000
00000100
,
00000010
00000001
00000100
00000000
00000100
00001000
00000001
00000000
,
00000001
00001000
00010000
01000000
00100000
00010000
10000000
00000000
,
01000000
10000000
00100000
00000000
00100000
00010000
10000000
00000000
,
10000000
00010000
00001000
00000010
00000100
00001000
00000001
00000000
,
00000100
00001000
00000001
00000000
00000010
00010000
00100000
00000000
,
01000000
00001000
00000100
00000010
00010000
00001000
10000000
00000000
,
10000000
00000010
00000100
00000010
01000000
00000001
01000000
00000000
,
02110002
00000000
00000000
00000000
00MM0003
00000000
00000000
00000000
00001000
00000000
00001000
00000000
00001000
00000000
00001000
03001000
,
10000000
01000000
00010000
10000000
00010000
00000010
00000100
00001000
,
00000001
00001000
00010000
01000000
00100000
00001000
00000100
00000010
,
00010000
00100000
10000000
01000000
00001000
01000000
10000000
00100000
,
00010000
10000000
00010000
00000010
00000100
00000001
00000010
00000001
,
00000100
00001000
00000001
00010000
00100000
01000000
10000000
00100000
,
00010000
10000000
00001000
00000100
00000010
00010000
01000000
00100000
,
00001000
00000010
00000100
00010000
10000000
01000000
00010000
00000000
,
10010000
00011000
00001001
10010000
,
20000000
00000000
00020000
00000000
00200000
00000000
00002000
30030000
,
02000000
00000000
00000200
00303000
00000020
00000000
00000002
03000300
,
00020000
00000000
00002000
00000033
00000200
00000000
00000020
00033000
,
00200000
00000000
02000000
00300330
20000000
00000000
00200000
00300000
,
00022000
00000000
00000000
00000000
,
00033000
00000000
00000000
00000000
,
33000000
00000000
00000000
00000000
;

//---------------dance-double - D. Bernardone----------------
#NOTES:
     dance-double:
     D. Bernardone:
     Hard:
     9:
     0.544,0.608,0.138,0.184,0.244,378.000,15.000,20.000,0.000,0.000,0.000: // measure 1
00000000
00000000
00000000
00000000
,  // measure 2
00000000
00000000
00000000
00000000
,  // measure 3
00000000
00000000
00000000
00000000
,  // measure 4
00022000
00000000
00000000
00033000
,  // measure 5
00010000
00000100
00000001
00000100
00000010
00000100
00010000
00000000
,  // measure 6
00001000
00000100
00001000
00000000
00010000
00001000
00010000
00000000
,  // measure 7
00001000
01000000
10000000
01000000
00100000
01000000
00001000
00010000
,  // measure 8
01000000
00010000
00001000
01000000
00100000
00000000
10000000
10000000
,  // measure 9
01000000
00010000
00001000
00000010
00000000
00001000
00010000
01000000
,  // measure 10
00000000
00100000
00010000
01000000
10000000
01000000
00010000
00000000
,  // measure 11
00100000
00001000
00010000
00000000
00000010
00001000
00000010
00001000
00000001
00000000
00000100
00000010
00000000
00000100
00000001
00000000
,  // measure 12
00000010
00000100
00000010
00000001
00001000
00000000
00000010
00010000
00000000
00001000
00010000
00000000
00001000
00000000
01001000
00000000
,  // measure 13
01000000
00100000
10000000
00100000
01000000
00001000
00010000
00000010
,  // measure 14
00000100
00000001
00000010
00001000
00000000
00000010
00000001
00000000
,  // measure 15
00000100
00001000
00010000
01000000
00000000
00100000
00001000
01000000
,  // measure 16
00000000
10000000
01000000
00100000
00000000
10000000
01000000
00000000
,  // measure 17
00100000
00001000
01000000
00010000
00100000
00001000
00010000
00000010
,  // measure 18
00000000
00000100
00000001
00000010
00001000
00000010
00000001
00000000
,  // measure 19
00000100
00000010
00001000
00000000
00000100
00010000
00000100
00010000
00001000
00000000
01000000
00010000
00000000
00010000
00100000
00000000
,  // measure 20
20020000
00000000
30000000
00000000
10000000
10000000
10000000
10030000
,  // measure 21
01000000
00100000
00010000
01000000
00001000
00010000
00000100
00000010
,  // measure 22
00000001
00000000
00000100
00000000
00001000
00000000
00000100
00000010
00010000
00000010
00001000
00000000
00000100
00000000
00000100
00000000
,  // measure 23
00010000
00000000
00001000
00000000
01000000
00000000
00010000
00100000
00010000
01000000
00010000
00000000
10000000
00000000
00100000
00000000
,  // measure 24
01100000
00000000
01100000
00000000
10010000
00000000
10010000
01000000
,  // measure 25
02002000
00000000
00000000
03003000
,  // measure 26
10000000
00000000
01000000
00000000
00010000
00000000
00001000
00000000
00010000
00000010
00010000
00000000
00000010
00000000
00000000
00000000
,  // measure 27
00000100
00000000
00001000
00000000
00010000
00000000
01000000
00000000
10000000
00010000
10000000
00000000
00010000
00000000
00000000
00000000
,  // measure 28
01000000
00000000
00100000
00000000
10000000
00000000
01000000
00000000
00100000
00010000
00100000
00000000
00001000
00000000
00000000
00000000
,  // measure 29
00010000
00000000
00000010
00000000
00000100
00000000
00000010
00000000
00001000
00000001
00001000
00000000
00000100
00000000
00000000
00000000
,  // measure 30
00000010
00001000
00010000
01000000
00010000
00001000
00000010
00000100
,  // measure 31
00010000
00001000
01000000
00100000
00010000
00001000
00000100
00001000
,  // measure 32
00010000
00000100
00010000
00000000
00001000
01000000
00001000
01000000
00010000
00000000
00100000
01000000
00000000
01000000
10000000
00000000
,  // measure 33
00100000
01000000
00000000
00010000
10000000
00000000
00100000
01000000
00000000
00010000
01000000
00000000
00001000
00000000
00011000
00000000
,  // measure 34
00010000
00000010
00000001
00000010
00000100
00000010
00010000
00000000
,  // measure 35
00001000
00000000
01000000
00000000
00100000
00000000
01000000
00000000
00010000
10000000
00010000
00000000
01000000
00000000
00000000
00000000
,  // measure 36
00001000
00100000
10000000
00100000
01000000
00100000
00001000
00000000
,  // measure 37
00010000
00000000
00000100
00000000
00001000
00000000
00000010
00000000
00000100
00000001
00000100
00000000
00000010
00000000
00000000
00000000
,  // measure 38
00010000
00001000
00010000
00001000
00000000
01000000
00010000
00100000
,  // measure 39
00000000
01000000
10000000
00100000
00010000
00001000
00000010
00000001
,  // measure 40
00001000
00000100
00010000
00000000
00001000
01000000
00001000
01000000
00100000
00000000
10000000
01000000
00000000
01000000
00100000
00000000
,  // measure 41
20020000
00000000
00030000
00000000
00010000
00010000
00010000
30010000
,  // measure 42
10000000
01000000
00100000
00010000
01000000
00001000
00100000
00001000
,  // measure 43
00010000
00000000
00000010
00000000
00001000
00000000
00000001
00000100
00001000
00000100
00000001
00000100
00001000
00000000
00010000
00000000
,  // measure 44
00010000
00000000
00001000
00000000
00100000
00000000
00010000
01000000
10000000
01000000
00010000
01000000
10000000
00000000
01000000
00000000
,  // measure 45
00010000
00000000
00100000
00000000
00001000
00000000
00010000
00001000
00000100
00001000
00010000
00001000
00000100
00000000
00001000
00000000
,  // measure 46
00010000
00000000
00000010
00000000
00000100
00000000
00000001
00000010
00001000
00000010
00000001
00000010
00001000
00000000
00001000
00000000
,  // measure 47
00010000
00000000
01000000
00000000
00100000
00000000
00001000
00010000
00100000
00010000
00001000
00010000
00100000
00000000
00010000
00000000
,  // measure 48
00011000
00000000
01000000
10000000
00100000
00000000
01000000
00001000
,  // measure 49
00011000
00000000
00010010
00000000
00000101
00000000
00001001
00000001
,  // measure 50
00000200
00002300
00023000
02030000
,  // measure 51
03200000
10000000
01000000
00010000
,  // measure 52
00302000
00023000
00030020
00002030
,  // measure 53
00003200
00000000
00000001
00000000
00000010
00000000
00002000
00003000
,  // measure 54
00020300
00000000
00000000
00000000
,  // measure 55
00000000
00000000
00000000
00000000
,  // measure 56
00030000
00000000
00000000
00000000
;
