#TITLE:Sundance;
#SUBTITLE:;
#ARTIST:Hit 'N' Hide;
#TITLETRANSLIT:;
#SUBTITLETRANSLIT:;
#ARTISTTRANSLIT:;
#GENRE:Reggae;
#CREDIT:;
#BANNER:Sundance-bn.png;
#BACKGROUND:Sundance-bg.png;
#LYRICSPATH:;
#CDTITLE:;
#MUSIC:Sundance.ogg;
#OFFSET:-0.032;
#SAMPLESTART:66.140;
#SAMPLELENGTH:11.840;
#SELECTABLE:YES;
#BPMS:0.000=116.010;
#STOPS:;
#BGCHANGES:0.500=Sundance.mpg=1.000=1=0=0=StretchNoLoop==CrossFade==,
99999=-nosongbg-=1.000=0=0=0 // don't automatically add -songbackground-;
#KEYSOUNDS:;

//---------------dance-double - J.Casarino----------------
#NOTES:
     dance-double:
     J.Casarino:
     Hard:
     7:
     0.445,0.474,0.319,0.055,0.123,301.000,35.000,6.000,0.000,0.000,0.000,0.445,0.474,0.319,0.055,0.123,301.000,35.000,6.000,0.000,0.000,0.000:
00000000
00000000
00000000
00000000
,
00000000
00000000
00000000
00000000
,
01000000
01000000
01000000
01000000
,
00100000
00000000
00100000
00000000
00100000
01000000
00100000
00000000
,
10000000
01000000
00100000
00010000
01000000
00000000
00110000
00000000
,
00001000
01000000
00001000
00000000
00001000
00010000
00001000
00000000
,
00100000
00010000
01000000
00001000
00010000
00000000
01010000
00000000
,
01001000
00011000
00020200
00030300
,
00000110
00000000
00000000
00000000
00011000
00000000
00000000
00011000
00000000
00000000
00000100
00000000
00001000
00000000
00000010
00000000
,
00000100
00000000
00000000
00000000
00000101
00000000
00000000
00001001
00000000
00000000
00000100
00000000
00000010
00000000
00001000
00000000
,
00020000
00000000
00000000
00001000
00000000
00000000
00001000
00000000
00000000
00000000
00001000
00000000
00030000
00000000
00000000
00000000
,
00002000
00000000
00000000
01000000
00000000
00000000
01000000
00000000
00000000
00000000
01000000
00000000
00003000
00000000
00000000
00000000
,
00011000
00000000
00000000
00000110
00000000
00000000
00000110
00000000
00000000
00000000
00010000
00000000
00001000
00000000
00100000
00000000
,
00001000
00000000
00000000
00000000
00110000
00000000
00000000
10010000
00000000
00000000
00100000
00000000
00010000
00000000
00001000
00000000
,
00020000
00000000
00000000
00001000
00000000
00000000
00001000
00000000
00000000
00000000
00001000
00000000
00030000
00000000
00000000
00000000
,
00000200
00000000
00000000
00001000
00000000
00000000
00001000
00000000
00000000
00000000
00001000
00000000
00000300
00000000
00000000
00000000
,
00010000
00001000
00001000
00000000
00001000
01000000
01000000
00000000
,
00000100
00010000
00001000
01000000
00001000
00010000
01000000
00000000
,
10000000
00010000
01000000
00000000
01000000
00100000
00010000
00000000
,
00000010
00010000
00001000
00010000
00000100
00001000
00000010
00000000
,
00001001
00001001
00000110
00000100
00000010
00001000
00000000
00000000
,
00011000
00000000
00011000
00000000
00101000
00000000
00100000
00000000
00010000
00000000
10000000
00000000
01000000
00000000
00000000
01000000
,
00100000
01000000
00100000
00010000
00001000
00010000
00001000
00000100
,
00000100
00001000
00000001
00000010
00000001
00001000
00001100
00000000
,
00000001
00000100
00000001
00000100
00000001
00000000
00000000
00000000
00000001
00001000
00000001
00001000
00000001
00000000
00000000
00000000
,
00000100
00000010
00010000
00000010
00000100
00000010
00010000
00000010
,
00001000
00000000
00010100
00000000
00100000
00001000
00100000
00000000
,
00100000
00001000
00010000
01000000
00010000
00001000
00001000
00000000
,
00100000
00010000
00010000
00000000
00100000
10000000
10000000
00000000
,
00100000
00010000
10000000
01000000
00100000
01000000
10000000
00010000
,
00100000
00011000
00000010
00011000
,
01000000
00001000
00010000
00000100
00010000
00001000
01000000
00000000
,
00011000
00000000
00010100
00000000
00000010
00000001
00000010
00000100
,
00001000
00000000
00000000
00000000
00010010
00000000
00000000
00011000
00000000
00000000
00001000
00000000
00000010
00000000
00001000
00000000
,
00000001
00000000
00000000
00000010
00000000
00000000
00000100
00000000
00000000
00000000
00010000
00000000
00000000
00000000
00000000
00000000
,
00001000
00000000
00000000
00100000
00000000
00000000
01000000
00000000
00000000
00000000
10000000
00000000
10000000
00000000
00000000
00000000
,
00011000
00000000
00000000
00101000
00000000
00000000
00011000
00000000
00000000
00000000
01000000
00000000
00010000
00000000
00100000
00000000
,
01000000
10000000
00100000
01000000
00010000
00100000
01000000
00000000
,
10000000
00000000
00000000
01000000
00000000
00000000
00010000
00000000
00000000
00000000
00001000
00000000
00000000
00000000
00000000
00000000
,
00010000
00000000
00000000
00001000
00000000
00000000
00000100
00000000
00000000
00000000
00000001
00000000
00000001
00000000
00000000
00000000
,
00000010
00000001
00000010
00000001
00000010
00000001
00000010
00000001
,
00000010
00001000
00000010
00001000
00000010
00001000
00000010
00001000
,
00010000
01000000
00010000
01000000
00010000
01000000
00010000
01000000
,
10000000
01000000
10000000
01000000
10000000
01000000
10000000
00000000
,
00010000
00000000
00100000
00000000
00010000
00000000
00000000
01000000
00000000
00000000
00010000
00000000
00100000
00000000
10000000
00000000
,
00100000
00000000
00010000
00000000
01000000
00000000
00000000
00001000
00000000
00000000
00010000
00000000
00000100
00000000
00000010
00000000
,
00001000
00000000
00000000
00000010
00000000
00000000
00001000
00000000
00000000
00000000
00000010
00000000
00000000
00000000
00000000
00000000
,
00000001
00000000
00000000
00000100
00000000
00000000
00000010
00000000
00000000
00000000
00001010
00000000
00001000
00000000
00000000
00000000
,
00001000
00000000
00000100
00000000
00000010
00000000
00000000
00001000
00000000
00000000
00000010
00000000
00000100
00000000
00001000
00000000
,
00000010
00000000
00000100
00000000
00001000
00000000
00000000
00010000
00000000
00000000
00001000
00000000
00010000
00000000
01000000
00000000
,
00100000
00000000
00000000
00010000
00000000
00000000
00100000
00000000
00000000
00000000
10000000
00000000
00000000
00000000
00000000
00000000
,
00010000
00000000
00000000
01000000
00000000
00000000
10000000
00000000
00000000
00000000
10010000
00000000
10000000
00000000
00000000
00000000
,
00101000
00000000
00000000
00000000
;

//---------------dance-double - J.Casarino----------------
#NOTES:
     dance-double:
     J.Casarino:
     Challenge:
     9:
     0.549,0.498,0.319,0.182,0.401,367.000,35.000,20.000,4.000,12.000,0.000,0.549,0.498,0.319,0.182,0.401,367.000,35.000,20.000,4.000,12.000,0.000:
00000000
00000000
00000000
00000000
,
00000000
00000000
00000000
00000000
,
00010010
00001010
00010010
00001010
,
00001100
00000000
00010100
00000000
00000100
00000010
00000100
00001000
,
00000010
00001000
00000100
00001000
00010000
00001000
00000100
00001000
,
00000010
00001000
00010000
00001000
00000010
00010000
00001000
00100000
,
00010000
00001000
00010000
00100000
00010000
01000000
00010000
00001000
,
00010000
00000000
01000000
00000000
00010000
00000000
10000000
00000000
11000000
00000000
00000000
00100000
00010000
00000000
00010000
00000000
,
01001000
00000000
00010000
00000000
00000100
00000000
00001000
00000001
00000000
00000000
00000001
00000000
00000100
00000000
00000010
00000000
,
00001000
00000000
00000100
00000000
00000010
00000000
00001000
00010000
00000000
00000000
00010000
00000000
01000000
00000000
00100000
00000000
,
01100000
00000000
00000000
10001000
00000000
00000000
01100000
00000000
00000000
00000000
10001000
00000000
00000000
00000000
00000000
00000000
,
00011000
00000000
00000000
01001000
00000000
00000000
00010010
00000000
00000000
00000000
01010000
00000000
00100000
00000000
00000000
00000000
,
00010000
00000000
00000100
00000000
00010000
00000000
00000010
00000100
00000000
00000000
00000010
00000000
00000100
00000000
00000001
00000000
,
00001000
00000000
00000010
00000000
00010000
00000000
00001000
00100000
00000000
00000000
01000000
00000000
00010000
00000000
01000000
00000000
,
20000000
00000000
00000000
02000000
00000000
00000000
00020000
00000000
00000000
00000000
33130000
00000000
00000000
00000000
00000000
00000000
,
00002000
00000000
00000000
02000000
00000000
00000000
00020000
00000000
00000000
00000000
03133000
00000000
00000000
00000000
00000000
00000000
,
00001000
00010000
00002000
00000000
00000010
00000000
00000000
00000000
00013000
00000000
00001000
00010000
00000000
00000000
00000000
00000000
,
00000010
00001000
00010000
01000000
00010000
00001000
00000010
00100000
,
00010000
00001000
00000100
00001000
00010000
00100000
01000000
00010000
,
10000000
00000000
01000000
00100000
00000000
00000000
00010000
00001000
00010000
00000000
00000100
00001000
00000000
00000010
00000000
00000000
,
00000100
00000000
00000010
00000100
00000010
00000000
00001000
00000010
00001000
00000010
00001000
00000000
00000100
00000000
00000000
00000000
,
00010000
00000000
00001000
01000000
00001000
00000000
00100000
00000000
00010000
10000000
00000000
00100000
01000000
00000000
00000000
00010000
,
00100000
00000000
01000000
10000000
01000000
00000000
00100000
00000000
00001000
00000000
00010000
00000100
00000000
00000100
00000000
00000000
,
01000000
00001000
01000000
00020000
00100000
00000000
10000000
00000000
01000000
00030000
00010000
00100000
00000000
00100000
00000000
00000000
,
00010000
01000000
00001000
00010000
00000010
00000000
00000000
00000000
00000010
00010000
00001000
01000000
00010000
00000000
00000000
00000000
,
10000000
01000000
10000000
00000000
00100000
00000000
01000000
00010000
00100000
00000000
00001000
00010000
00000000
00010000
00000010
00000000
,
00010010
00000000
00000000
00000000
01001000
00000000
00000000
00000000
00010010
00000000
00000010
00010000
00000000
00000000
00000000
00000000
,
00000100
00000000
00001000
00000010
00000100
00000000
00000001
00000010
00000100
00000000
00001000
00000100
00000000
00010000
00001000
00000000
,
00101000
00000000
00000000
00000000
00010010
00000000
00000000
00000000
01001000
00000000
01000000
00010000
00000000
00000000
00000000
00000000
,
00010000
00000000
00001000
01000000
00000000
00010000
00000000
00000000
01000000
00000000
00100000
01000000
00000000
01000000
00010000
00000000
,
11000000
00000000
00000000
00000000
00011000
00000000
00000000
00000000
00000011
00000000
00000000
00011000
00000000
00000000
00000000
00000000
,
00001000
00000000
00100000
00001000
00000000
00000000
00000010
00000000
00010000
00000000
00001000
00010000
00000000
00000000
00000000
00000000
,
10000000
00000000
01000000
00000000
00100000
00000000
00001000
00010000
00000000
00000000
00100000
00000000
00010000
00000000
00001000
00000000
,
10000000
00000000
00100000
00000000
01000000
00000000
00001000
00010000
00000000
00000000
01000000
00000000
00010000
00000000
00001000
00000000
,
00000110
00000000
00000000
00011000
00000000
00000000
01100000
00000000
00000000
00000000
10010000
00000000
00000000
00000000
00000000
00000000
,
20000000
00000000
00000000
00020000
00000000
00000000
02000000
00000000
00000000
00000000
33130000
00000000
00000000
00000000
00000000
00000000
,
01000000
00000000
00001000
00000000
00010000
00000000
00000010
00001000
00000000
00000000
00010000
00000000
01000000
00000000
00000100
00000000
,
00010000
00000000
00001000
00000000
00100000
00000000
00001000
00010000
00000000
00000000
00000100
00000000
01000000
00000000
00100000
00000000
,
10010000
00000000
00000000
01100000
00000000
00000000
00011000
00000000
00000000
00000000
00000110
00000000
00000000
00000000
00000000
00000000
,
00020000
00000000
00000000
00000002
00000000
00000000
00002000
00000000
00000000
00000000
00033013
00000000
00000000
00000000
00000000
00000000
,
00000010
00000000
00000001
00000000
00000100
00000001
00000000
00000010
00000000
00000001
00000000
00000100
00001000
00000000
00010000
00000000
,
00001000
00000000
00000100
00000000
00001000
00010000
00000000
00100000
00000000
00010000
00000000
00001000
00010000
00000000
00100000
00000000
,
10000000
00000000
01000000
00000000
10000000
00100000
00000000
10000000
00000000
01000000
00000000
00100000
00001000
00000000
00000010
00000000
,
00001000
00000000
00100000
00000000
00001000
00010000
00000000
00001000
00000000
00000000
00000000
00000000
00MMM0M0
00000000
00000000
00000000
,
00010000
00000000
00100000
00000000
01000000
00000000
00010000
00100000
00000000
00100000
10000000
00000000
01000000
00000000
00100000
00000000
,
00001000
00000000
00010000
00000000
00000010
00000000
00001000
00000100
00000000
00000100
00000010
00000000
00000001
00000000
00001000
00000000
,
00000200
00000000
00000000
00020000
00000000
00000000
00002000
00000000
00000000
00000000
00033310
00000000
00000000
00000000
00000000
00000000
,
00020000
00000000
00000000
00002000
00000000
00000000
00200000
00000000
00000000
00000000
00333010
00000000
00000000
00000000
00000000
00000000
,
00010000
00000000
00001000
00000000
00000100
00000000
00000010
00000100
00000000
00000001
00000100
00000000
00000010
00000000
00001000
00000000
,
00000100
00000000
00000010
00000000
00001000
00000000
00010000
00001000
00000000
00010000
00100000
00000000
01000000
00000000
00100000
00000000
,
10000000
00000000
01000000
00100000
00000000
00100000
00010000
00000000
00000000
01000000
00001000
00000000
00010000
00000000
00010000
00000000
,
00100000
00000000
10000000
00010000
00000000
00010000
00001000
00000000
00000000
00001000
00000001
00000000
00000100
00000000
00000010
00000000
,
00000110
00000000
00000000
00000000
;

//---------------dance-double - J.Casarino----------------
#NOTES:
     dance-double:
     J.Casarino:
     Medium:
     4:
     0.324,0.308,0.100,0.255,0.000,210.000,11.000,28.000,0.000,0.000,0.000,0.324,0.308,0.100,0.255,0.000,210.000,11.000,28.000,0.000,0.000,0.000:
00000000
00000000
00000000
00000000
,
00000000
00000000
00000000
00000000
,
00000000
00000000
00000000
00000000
,
00000000
00000000
00000000
00000000
,
10010000
00100000
10010000
00100000
,
00010000
00001000
00010000
00000100
,
00001100
00000010
00000101
00000010
,
00000100
00020000
00030100
00000000
,
00000001
00000001
00001000
00001000
,
00000010
00000000
00010000
00000000
00001000
00010000
00002000
00000000
,
01000000
00023000
00000100
00032000
,
01000000
00023000
00000100
00031000
,
10000000
10000000
00010000
00010000
,
00100000
00000000
00001000
00000000
00010000
00001000
00020000
00000000
,
00000100
00032000
01000000
00023000
,
00000100
00032000
01000000
00013000
,
00010100
00000000
00101000
00000000
,
00010000
00000100
00010000
00001000
,
00100000
00000000
01000000
01000000
,
00100000
00100000
01000000
01000000
,
10000000
10010000
00010000
10010000
,
10000000
01000000
00010000
00001000
,
00010000
00001000
00000100
00000001
,
00001000
00000010
00010000
00001000
,
00010000
00001000
01000000
00000000
00001000
00020000
00000100
00000000
,
00032000
00100000
00023000
00000100
,
00031000
00100000
00010000
00000000
10000000
01000000
00100000
00000000
,
00010000
00010000
00010000
00000000
00100000
00100000
00100000
00000000
,
00101000
00000000
00010100
00000000
00010000
00001000
00010000
00000000
,
00000100
00001000
00000100
00000010
,
00000001
00001000
00000100
00000000
00000010
00000001
00001000
00000000
,
00000001
00000100
00000100
00000000
00001000
00000100
00000100
00000000
,
00000001
00000001
00001000
00001000
,
00000100
00000000
00010000
00000000
00001000
00010000
00002000
00000000
,
00100000
00023000
00000010
00032000
,
00100000
00023000
00000010
00031000
,
10000000
10000000
00010000
00010000
,
01000000
00000000
00001000
00000000
00010000
00001000
00020000
00000000
,
00000010
00032000
00100000
00023000
,
00000010
00032000
00100000
00013000
,
00001000
00010000
00000100
00000000
00010000
00001000
01000000
00000000
,
00001000
00010000
00000010
00000000
00010000
00001000
00100000
00000000
,
00010000
10000000
00010000
01000000
,
00001000
00010000
00000010
00001000
,
00000001
00000001
00001000
00001000
,
00000100
00000000
00010000
00000000
00001000
00010000
00002000
00000000
,
01000000
00023000
00000100
00032000
,
00100000
00023000
00000010
00031000
,
10000000
10000000
00010000
00010000
,
00100000
00000000
00001000
00000000
00010000
00001000
00020000
00000000
,
00000100
00032000
01000000
00023000
,
00000010
00032000
00100000
00013000
,
00011000
00000000
00000000
00000000
;

//---------------dance-double - J.Casarino----------------
#NOTES:
     dance-double:
     J.Casarino:
     Easy:
     2:
     0.150,0.190,0.009,0.055,0.000,108.000,1.000,6.000,0.000,0.000,0.000,0.150,0.190,0.009,0.055,0.000,108.000,1.000,6.000,0.000,0.000,0.000:
00000000
00000000
00000000
00000000
,
00000000
00000000
00000000
00000000
,
00000000
00000000
00000000
00000000
,
00000000
00000000
00000000
00000000
,
10000000
00000000
00010000
00000000
,
10000000
00000000
00010000
00000000
,
01000000
00000000
00001000
00000000
,
01000000
00000000
00001000
00000000
,
00010000
00000000
00010000
00000000
,
00010000
00000000
00010000
00000000
,
00001000
00000000
00000100
00000000
,
00000001
00000000
00000010
00000000
,
00001000
00000000
00001000
00000000
,
00001000
00000000
00001000
00000000
,
00010000
00000000
01000000
00000000
,
10000000
00000000
00100000
00000000
,
00010000
00000000
00001000
00001000
,
00001000
00000000
01000000
00000000
,
00010000
00000000
00100000
00000000
,
00001000
00001000
00010000
00000000
,
00001000
01000000
00001000
00000000
,
00010000
00000100
00010000
00000000
,
00001000
00001000
00000001
00000000
,
00000100
00000100
00000010
00000000
,
00002000
00000000
00003002
00000000
,
00001003
00000100
00010000
00000000
,
00002000
00000000
00023000
00000000
,
00030010
00000000
00001000
00000000
,
00000100
00010000
00001000
01000000
,
00001000
00010000
00000100
00010000
,
00001000
00000000
00100000
00000000
,
00002000
00000000
00023000
00000000
,
00031000
00000000
00001000
00000000
,
00001000
00000000
00001000
00000000
,
00010000
00000000
00100000
00000000
,
10000000
00000000
01000000
00000000
,
00010000
00000000
00010000
00000000
,
00010000
00000000
00010000
00000000
,
00001000
00000000
00000010
00000000
,
00000001
00000000
00000100
00000000
,
00000001
00000000
00000001
00000000
,
00001000
00000000
00001000
00000000
,
00010000
00000000
00010000
00000000
,
10000000
00000000
10000000
00000000
,
00001000
00000000
00001000
00000000
,
00001000
00000000
00001000
00000000
,
10000000
00000000
00010000
00000000
,
10000000
00000000
00001000
00000000
,
00010000
00000000
00010000
00000000
,
00010000
00000000
00010000
00000000
,
00000001
00000000
00001000
00000000
,
00000001
00000000
00001000
00000000
,
00011000
00000000
00000000
00000000
;

//---------------dance-single - J. Frederick----------------
#NOTES:
     dance-single:
     J. Frederick:
     Beginner:
     1:
     0.069,0.071,0.018,0.000,0.000,51.000,2.000,0.000,0.000,0.000,0.000,0.069,0.071,0.018,0.000,0.000,51.000,2.000,0.000,0.000,0.000,0.000:
0000
0000
0000
0000
,
0000
0000
0000
0000
,
1000
0000
0000
0000
,
0001
0000
0000
0000
,
0010
0000
0000
0000
,
0100
0000
0000
0000
,
1000
0000
0000
0000
,
0001
0000
0000
0000
,
0100
0000
0000
0000
,
0010
0000
0000
0000
,
1000
0000
0000
0000
,
0001
0000
0000
0000
,
0010
0000
0000
0000
,
0100
0000
0000
0000
,
1000
0000
0000
0000
,
0001
0000
0000
0000
,
0100
0000
0000
0000
,
0010
0000
0000
0000
,
1000
0000
0000
0000
,
0001
0000
0000
0000
,
0010
0000
0000
0000
,
0100
0000
0000
0000
,
1000
0000
0000
0000
,
0001
0000
0000
0000
,
0100
0000
0000
0000
,
0010
0000
0000
0000
,
1000
0000
0000
0000
,
0001
0000
0000
0000
,
0010
0000
0000
0000
,
0100
0000
0000
0000
,
1000
0000
0000
0000
,
0001
0000
0000
0000
,
0110
0000
0000
0000
,
1000
0000
0000
0000
,
0001
0000
0000
0000
,
0010
0000
0000
0000
,
0100
0000
0000
0000
,
1000
0000
0000
0000
,
0001
0000
0000
0000
,
0100
0000
0000
0000
,
0010
0000
0000
0000
,
1000
0000
0000
0000
,
0001
0000
0000
0000
,
0010
0000
0000
0000
,
0100
0000
0000
0000
,
1000
0000
0000
0000
,
0001
0000
0000
0000
,
0010
0000
0000
0000
,
1000
0000
0000
0000
,
0001
0000
0000
0000
,
1000
0000
0000
0000
,
0100
0000
0000
0000
,
1001
0000
0000
0000
;

//---------------dance-single - J. Frederick----------------
#NOTES:
     dance-single:
     J. Frederick:
     Easy:
     3:
     0.229,0.213,0.082,0.201,0.000,145.000,9.000,22.000,0.000,0.000,0.000,0.229,0.213,0.082,0.201,0.000,145.000,9.000,22.000,0.000,0.000,0.000:
0000
0000
0000
0000
,
0000
0000
0000
0000
,
1000
1000
0010
0010
,
0100
0100
0001
0001
,
0010
0100
1000
0001
,
0010
0100
1000
0010
,
0100
0001
0010
0100
,
2002
0000
0000
3003
,
0100
0010
1000
0000
,
0001
0010
0100
0000
,
1000
0100
0010
0001
,
2002
0000
0000
3003
,
0100
0010
1000
0000
,
0010
0100
0001
0000
,
0010
0100
1000
0000
,
0220
0000
0000
0330
,
1000
0100
1000
0000
,
0001
0010
0001
0000
,
0010
0100
0010
0000
,
1000
0010
1000
0000
,
0010
0100
0010
0000
,
0001
0100
0001
0000
,
0001
0010
0001
0000
,
0010
0100
0020
0030
,
0100
1000
0200
0300
,
0010
0001
0020
0030
,
0001
0100
0020
0030
,
1000
0100
0010
0001
,
0100
0010
2000
3000
,
0100
0010
0001
0200
,
1300
0001
0010
0000
,
0100
1000
0220
0330
,
1000
0010
1000
0000
,
0001
0100
0001
0000
,
0010
0100
0010
0000
,
2002
0000
0000
3003
,
0100
0010
1000
0000
,
0001
0100
0001
0000
,
0010
0100
1000
0000
,
2002
0000
0000
3003
,
0100
0010
1000
0000
,
0001
0010
0001
0000
,
0100
0010
0100
0000
,
1000
0010
0100
0000
,
0001
0010
0100
0000
,
1000
0100
1000
0000
,
0010
0100
0001
0000
,
0022
0000
0000
0033
,
1000
0010
0100
0000
,
0001
1000
0100
0000
,
0010
0001
0100
0000
,
2020
0000
0000
3030
,
1010
0000
0000
0000
;

//---------------dance-single - J. Frederick----------------
#NOTES:
     dance-single:
     J. Frederick:
     Medium:
     6:
     0.355,0.381,0.301,0.109,0.000,228.000,33.000,12.000,0.000,0.000,0.000,0.355,0.381,0.301,0.109,0.000,228.000,33.000,12.000,0.000,0.000,0.000:
0000
0000
0000
0000
,
0000
0000
0000
0000
,
1010
1010
0101
0101
,
0110
0110
1001
1001
,
0100
0000
0010
0000
1000
0010
0100
0000
,
0001
0000
0010
0000
0001
0010
0100
0000
,
1000
0000
0010
0000
0100
0010
0100
0000
,
0001
0000
1000
0000
0100
0010
0001
0000
,
1001
0000
0100
0000
0010
1000
0010
0000
,
0100
0000
0001
0000
0010
0100
1000
0000
,
0010
0100
0001
1000
,
0220
0000
0000
0330
,
1000
0000
0010
0000
0100
0001
0010
0000
,
0001
0000
1000
0000
0010
0100
0010
0000
,
1000
0010
0001
0010
,
2020
0000
0000
3030
,
0100
0000
0010
0000
1000
0100
1000
0000
,
0001
0000
0010
0000
0100
1000
0100
0000
,
0010
0000
0001
0000
0100
0010
0100
0000
,
0010
0000
1000
0000
0010
0100
0001
0000
,
0010
0000
0001
0000
0010
0100
1000
0000
,
0100
0000
0010
0000
0001
0100
0010
0000
,
1000
0000
0010
0000
0100
0001
0010
0000
,
0100
1000
1001
1001
,
0100
0010
1000
0000
0010
0000
0010
0000
,
0100
0001
0010
0000
0100
0000
0100
0000
,
0010
0000
0001
0000
1000
0010
0100
0000
,
0010
1000
0001
0000
0010
0100
1000
0000
,
0010
0000
0100
0000
0001
0010
0100
0000
,
1000
0010
0100
0000
0001
0010
0100
0000
,
1000
0000
0100
0000
0010
0001
0100
0000
,
0010
1000
0010
0000
0100
0001
0010
0000
,
1001
0000
1001
0000
0100
0010
1000
0000
,
1010
0000
1010
0000
0100
0001
0010
0000
,
0011
0000
0011
0000
0010
0100
1000
0000
,
2200
0000
0000
3300
,
0011
0000
0101
0000
1000
0010
0100
0000
,
0101
0000
1010
0000
0100
0010
0001
0000
,
0110
1010
1001
0010
,
0220
0000
0000
0330
,
1000
0000
0100
0000
0010
0001
0100
0000
,
0001
0000
1000
0000
0010
0100
0001
0000
,
0010
0000
0100
0000
1000
0100
0010
0000
,
0001
0000
0100
0000
0010
1000
0010
0000
,
1010
0000
0001
0000
0010
0100
1000
0000
,
0110
0000
0010
0000
0001
1000
0010
0000
,
0110
0000
1000
0000
0010
0100
0001
0000
,
0220
0000
0000
0330
,
1000
0000
0010
0000
0100
0001
0010
0000
,
0001
0000
1000
0000
0100
0010
0001
0000
,
0100
0000
0010
0000
1000
0010
0001
0000
,
0010
0000
1000
0000
0100
0010
0100
0000
,
2002
3003
0000
0000
;

//---------------dance-single - J. Frederick----------------
#NOTES:
     dance-single:
     J. Frederick:
     Hard:
     7:
     0.500,0.427,0.401,0.036,0.000,336.000,44.000,4.000,0.000,0.000,0.000,0.500,0.427,0.401,0.036,0.000,336.000,44.000,4.000,0.000,0.000,0.000:
0000
0000
0000
0000
,
0000
0000
0000
0000
,
1010
0101
0110
0110
,
1010
0101
0011
0110
,
1000
0010
0100
0001
0010
0001
1000
0100
,
0010
0001
1000
0010
0001
0010
1000
0100
,
0010
0001
0010
0100
1000
0010
0100
0001
,
0010
0100
1000
0100
0010
0001
1001
0000
,
0100
0010
1000
0010
0100
0001
0010
0001
,
1000
0010
0001
0010
1000
0100
0010
0001
,
0010
0100
1000
0100
0010
0001
1000
0001
,
1001
0000
1001
0000
0100
0010
0110
0000
,
1000
0010
0100
0001
0010
0100
1000
0100
,
0010
0001
1000
0010
0001
0010
1000
0100
,
0010
0001
0010
0100
1000
0010
0100
0010
,
0110
0110
1001
1001
,
0010
0100
1000
0000
1000
0010
0100
0000
,
0100
0001
0010
0100
1000
0100
0010
0000
,
0010
0001
0100
0010
1000
0010
0001
0010
,
1000
0100
0010
0001
0101
0101
0101
0000
,
1000
0010
0100
0001
0010
0100
1000
0000
,
1000
0100
0010
0001
1000
0010
0001
0000
,
0001
0010
1000
0100
0010
0001
0100
0000
,
1001
0000
0110
0000
1010
0100
0001
0000
,
0010
0100
1000
0100
0010
0000
0010
0000
,
0001
1000
0010
0001
0010
0010
0010
0000
,
2000
0000
0200
3300
0010
0001
0100
0000
,
0100
0010
1000
0100
0010
0001
0001
0000
,
1010
0100
0010
0000
1000
0100
0010
0000
,
0010
0001
0100
0001
1000
0010
0001
0010
,
1000
1000
0100
0000
0010
0001
0100
0000
,
1001
0110
2020
3030
,
0010
0001
0010
0100
1000
0100
0010
0001
,
1000
0010
0001
0010
1000
0100
0010
0001
,
0100
0001
1000
0001
0100
0010
0100
0010
,
0110
0110
1001
1001
,
0010
0001
0010
0100
1000
0100
0010
0001
,
0100
0010
1000
0010
0001
0010
1000
0100
,
0010
0001
0010
0100
1000
0100
0010
0001
,
0011
0011
1100
1100
,
1000
0010
0100
0010
0100
0000
0001
0000
,
0010
0100
1000
0100
0010
0000
0001
0000
,
1000
0010
1000
0000
0001
0100
0001
0000
,
0010
0100
1000
0100
0010
0001
1001
0000
,
0100
0010
1000
0010
0100
0001
0010
0001
,
0010
0100
1000
0010
0001
0010
1000
0100
,
0010
0001
0100
0001
1000
0010
0100
0010
,
0110
1010
0101
0011
,
0010
0100
1000
0100
0010
0001
0100
0010
,
1000
0010
0001
0010
1000
0100
0010
0001
,
0010
0100
1000
0100
0010
0001
1000
0001
,
1001
1010
0110
0101
,
1010
0000
0000
0000
;

//---------------dance-single - M. Calfin----------------
#NOTES:
     dance-single:
     M. Calfin:
     Challenge:
     9:
     0.559,0.545,0.365,0.374,0.369,347.000,40.000,41.000,0.000,17.000,0.000,0.559,0.545,0.365,0.374,0.369,347.000,40.000,41.000,0.000,17.000,0.000: // measure 1
0000
0000
0000
0000
,  // measure 2
0000
0000
0000
0000
,  // measure 3
1010
0101
0011
1100
,  // measure 4
0011
1010
0220
0330
,  // measure 5
1000
0000
0001
0010
0000
0000
0100
0000
1000
0000
0010
0100
0000
0000
0010
0000
,  // measure 6
1000
0000
0100
0010
0000
0000
0001
0000
0100
0000
0001
1000
0000
0000
0001
0000
,  // measure 7
0100
0000
0010
1000
0000
0000
0010
0000
0100
0000
0010
0001
0000
0000
0010
0000
,  // measure 8
0100
0000
1000
0100
0000
0000
0010
0000
0100
0000
0000
0001
0010
0000
0100
0000
,  // measure 9
1000
0000
0010
0000
0100
0000
0001
0010
0000
0000
0100
0000
1000
0000
0100
0000
,  // measure 10
0010
0000
0001
0000
0100
0000
0001
0100
0000
0000
0010
0000
1000
0000
0010
0000
,  // measure 11
1010
0000
0000
0101
0000
0000
0110
0000
0000
0000
0220
0000
0000
0000
0330
0000
,  // measure 12
1000
0000
0000
0010
0000
0000
0220
0000
0000
0000
1001
0000
0000
0330
0000
0000
,  // measure 13
0010
0000
0100
0000
1000
0000
0100
0010
0000
0000
1000
0000
0100
0000
0010
0000
,  // measure 14
1000
0000
0010
0000
0001
0000
0010
0100
0000
0000
0010
0000
1000
0000
0010
0000
,  // measure 15
0001
0000
0000
0010
0000
0000
0220
0000
0000
0000
1001
0000
0000
0330
0000
0000
,  // measure 16
0002
0000
0000
0200
0000
0000
0020
0000
0000
0000
1333
0000
0000
0000
0000
0000
,  // measure 17
1001
0000
0001
0000
0100
0000
0010
0000
0100
0000
0010
1000
0000
0000
0010
0000
,  // measure 18
1000
0000
0010
0000
0100
0000
0010
0000
0001
0000
0010
0100
0000
0000
0010
0000
,  // measure 19
1000
0000
0100
0000
1000
0000
0100
0000
0010
0000
0100
0010
0000
0000
0001
0000
,  // measure 20
0010
0000
0001
0000
0100
0000
0001
0000
0100
0000
0010
0100
0010
0000
1000
0000
,  // measure 21
0010
0000
1000
0010
0100
0000
0010
0000
0100
0001
0100
0000
0100
0000
0001
0000
,  // measure 22
0010
0000
0010
0001
0010
0000
0100
0000
0010
0000
0100
0010
0000
0000
0000
0001
,  // measure 23
1000
0100
0000
0010
0001
0000
0010
0000
0100
0000
1000
0000
0100
0000
0000
0000
,  // measure 24
0010
0001
0100
0001
0100
0000
0001
0000
0100
0000
0010
1000
0000
0010
0000
0000
,  // measure 25
1000
0100
0010
0001
0100
0000
0000
0000
0001
0000
1000
0100
0010
0000
0000
0000
,  // measure 26
0001
0010
0001
0010
0001
0000
0100
0001
0100
0000
0010
0100
0000
0000
0010
0000
,  // measure 27
2020
0000
3030
0000
0220
0000
0330
0000
0101
0000
0001
1000
0000
0000
0000
0000
,  // measure 28
0100
0000
0010
0001
0100
0000
0001
0010
0100
0000
0010
0100
0000
0100
0010
0000
,  // measure 29
0100
0000
0000
0000
1000
0000
0000
0000
0100
0000
1000
0010
0000
0000
0000
0000
,  // measure 30
1000
0000
0010
0100
0000
0000
0010
0000
0100
0000
0001
0100
0000
0001
0010
0000
,  // measure 31
0220
0000
0330
0000
2200
0000
3300
0000
0100
0000
1000
0100
0000
0000
0000
0000
,  // measure 32
1000
0000
0010
1000
0000
0000
0010
0000
0100
0000
0001
0100
0000
0001
0100
0000
,  // measure 33
0001
0000
0000
0000
0100
0000
0100
0010
0000
0000
1000
0000
0010
0000
0100
0000
,  // measure 34
0001
0000
0100
0000
0010
0000
1000
0100
0000
0000
1000
0000
0100
0000
0010
0000
,  // measure 35
0011
0000
0000
0101
0000
0000
0220
0000
0000
0000
1001
0000
0000
0000
0330
0000
,  // measure 36
0002
0000
0000
0200
0000
0000
0020
0000
0000
0000
1333
0000
0000
0000
0000
0000
,  // measure 37
0001
0000
1000
0000
0100
0000
1000
0100
0000
0000
1000
0000
0010
0000
0100
0000
,  // measure 38
0001
0000
0100
0000
0010
0000
1000
0100
0000
0000
1000
0000
0100
0000
1000
0000
,  // measure 39
1100
0000
0000
0011
0000
0000
0220
0000
0000
0000
1001
0000
0000
0330
0000
0000
,  // measure 40
2000
0000
0000
0200
0000
0000
0002
0000
0000
0000
3313
0000
0000
0000
0000
0000
,  // measure 41
1000
0000
0100
0000
1000
0010
0000
0100
0000
0001
0000
0100
0001
0000
0100
0000
,  // measure 42
0010
0000
1000
0000
0100
1000
0000
0100
0000
1000
0000
0010
0100
0000
0010
0000
,  // measure 43
0001
0000
0010
0000
0100
0010
0000
1000
0000
0100
0000
1000
0100
0000
0010
0000
,  // measure 44
1000
0000
0010
0000
0001
0020
0000
0002
0000
0000
0000
0000
0000
0000
0033
0000
,  // measure 45
0011
0000
0000
0000
0101
0000
0001
0100
0000
0000
0010
0000
1000
0000
0100
0000
,  // measure 46
0010
0000
0001
0000
0100
0000
0001
0100
0000
0000
0010
0000
1000
0000
0100
0000
,  // measure 47
1100
0000
0000
0011
0000
0000
0220
0000
0000
0000
1001
0000
0000
0000
0330
0000
,  // measure 48
0002
0000
0000
0200
0000
0000
2000
0000
0000
0000
3313
0000
0000
0000
0000
0000
,  // measure 49
0001
0000
0000
0000
1000
0000
0100
1000
0000
0000
0100
0000
0010
0000
0001
0000
,  // measure 50
0100
0000
0010
0000
0100
0000
0010
1000
0000
0000
0100
0000
1000
0000
0100
0000
,  // measure 51
1100
0000
0000
0110
0000
0000
2200
0000
0000
0000
0011
0000
0000
0000
3300
0000
,  // measure 52
0002
0000
0000
0200
0000
0000
0020
0000
0000
0000
1333
0000
0000
0000
0000
0000
,  // measure 53
1110
0000
0000
0000
;
