#TITLE:Riders, Unite!;
#SUBTITLE:;
#ARTIST:Andreas Viklund;
#TITLETRANSLIT:;
#SUBTITLETRANSLIT:;
#ARTISTTRANSLIT:;
#GENRE:Techno;
#CREDIT:;
#BANNER:Riders Unite!-bn.png;
#BACKGROUND:Riders Unite!-bg.png;
#LYRICSPATH:;
#CDTITLE:;
#MUSIC:Riders Unite!.ogg;
#OFFSET:-0.023;
#SAMPLESTART:78.080;
#SAMPLELENGTH:11.860;
#SELECTABLE:YES;
#BPMS:0.000=136.004;
#STOPS:;
#BGCHANGES:0.093=Riders Unite!.mpg=1.000=1=0=0=StretchNoLoop==CrossFade==,
99999=-nosongbg-=1.000=0=0=0 // don't automatically add -songbackground-;
#KEYSOUNDS:;

//---------------dance-single - D. D'Amato----------------
#NOTES:
     dance-single:
     D. D'Amato:
     Hard:
     8:
     0.501,0.432,0.009,0.018,0.379,395.000,1.000,2.000,0.000,0.000,0.000,0.501,0.432,0.009,0.018,0.379,395.000,1.000,2.000,0.000,0.000,0.000:
0000
0000
0000
0000
,
0000
0000
0000
0000
,
0000
0000
0000
0000
,
0000
0000
0000
0000
,
0000
0000
0000
0000
1000
0000
0001
0000
0100
0000
0000
0010
0000
1000
0000
0001
,
0000
0000
0000
0000
1000
0000
0001
0000
0010
0000
0000
0100
0000
1000
0000
0001
,
0000
0000
0100
0000
0001
0000
1000
0000
0100
0000
0000
0010
0000
0001
0000
1000
,
0000
0000
0000
0000
0001
0000
1000
0000
0010
0000
0000
0100
0000
0001
0000
1000
,
0000
0000
0100
0000
1000
0000
0001
0000
0010
0000
0000
0100
0000
1000
0000
0001
,
0000
0000
0000
0000
1000
0000
0001
0000
0100
0000
0000
0010
0000
1000
0000
0001
,
0000
0000
0010
0000
0001
0000
1000
0000
0010
0000
0000
0100
0000
0001
0000
1000
,
0000
0000
0000
0000
0001
0000
1000
0000
0100
0000
0000
0010
0000
0001
0000
1000
,
0000
0000
0010
0000
1000
0000
0001
0000
1000
0000
0000
0010
0000
1000
0000
0000
,
0001
0000
0100
0000
0001
0000
1000
0000
0001
0000
0000
0100
0000
0001
0000
0000
,
1000
0000
0100
0000
1000
0000
0001
0000
1000
0000
0000
0100
0000
1000
0000
0000
,
0001
0000
0010
0000
0001
0000
1000
0000
0001
0100
0000
0010
0000
1000
0000
0000
,
0001
0000
0010
0000
0001
0000
1000
0000
0001
0000
0000
0010
0000
0001
0000
0000
,
1000
0000
0100
0000
1000
0000
0001
0000
1000
0000
0000
0100
0000
1000
0000
0000
,
0001
0000
0100
0000
0001
0000
1000
0000
0001
0000
0000
0100
0000
0001
0000
0000
,
1000
0000
0010
0000
1000
0000
0001
0000
1000
0100
0000
0010
0000
0001
0000
0000
,
1000
0000
0001
0000
0100
0000
0001
0000
1000
0000
0100
0000
0010
0000
0000
0010
,
0000
0000
0010
0000
0100
0000
1000
0000
0010
0000
0100
0000
0001
0000
0000
0001
,
0000
0000
0001
0000
0010
0000
0100
0000
1000
0000
0001
0000
0100
0000
0000
0100
,
0000
0000
0100
0000
0010
0000
1000
0000
0001
0010
0000
0100
0000
0010
0000
0000
,
0100
0000
0010
0000
0100
0000
1000
0000
0001
0000
0100
0000
0010
0000
0000
0010
,
0000
0000
0010
0000
0100
0000
0001
0000
0010
0000
0100
0000
1000
0000
0000
1000
,
0000
0000
1000
0000
0010
0000
0100
0000
0001
0000
1000
0000
0100
0000
0000
0100
,
0000
0000
0100
0000
0010
0000
0001
0000
1000
0010
0000
0100
0000
0010
0000
0000
,
0100
0000
0010
0000
0100
0000
0000
0001
0000
0000
0001
0000
0000
0000
0000
1000
,
0000
0000
1000
0000
0000
0000
0000
0100
0000
0000
0100
0000
0000
0000
0000
0010
,
0000
0000
0010
0000
0001
0000
0000
0100
0000
0000
0100
0000
0010
0000
0000
1000
,
0000
0000
1000
0000
0100
0000
0000
0010
0000
0000
0010
0000
0001
0000
0000
0100
,
0000
0100
0010
0100
0001
0100
0010
0000
,
1000
0010
0100
0000
0100
0010
1000
0000
,
1000
0100
0010
0100
1000
0100
0010
0000
,
0001
0010
0100
0000
0100
0010
0001
0000
,
0001
0100
0010
1000
0100
0010
0100
1000
,
0001
0100
0010
0100
0001
0010
0100
1000
,
0100
0010
0001
0100
0010
1000
0010
0100
,
0001
1000
0100
0010
0100
0010
0100
0010
,
0100
0000
0010
0000
0100
0000
1000
0000
0100
0000
1000
0001
0000
0010
0000
0000
,
0001
0000
0100
0000
0010
0000
1000
0000
0010
0000
1000
0001
0000
0010
0000
0000
,
0001
0000
1000
0000
0010
0000
0100
0000
0010
0000
0100
0001
0000
1000
0000
0000
,
0100
0000
0010
0000
0001
0000
0100
0000
0001
0000
0100
0010
0000
1000
0000
0000
,
0001
0010
0100
1000
0001
0100
0010
0000
,
1000
0010
0100
0001
0010
0100
1000
0000
,
0001
1000
0010
0100
0001
1000
0100
0000
,
0010
0000
0100
0000
0010
0000
0001
0000
1000
0010
0000
0100
0000
0010
0000
0000
,
0100
0010
0100
0001
1000
0100
0010
0000
,
0001
0010
0100
1000
0010
0100
0001
0000
,
1000
0001
0010
0100
1000
0001
0100
0000
,
0010
0000
0100
0000
0010
0000
1000
0000
0001
0010
0000
0100
0000
0010
0000
0000
,
0100
0000
0010
0000
0001
0000
1000
0000
0100
0000
0010
0000
0001
0000
0000
1000
,
0000
0000
0100
0000
1000
0000
0001
0000
0010
0000
0100
0000
1000
0000
0000
0001
,
0000
0000
0100
0000
0001
0000
1000
0000
0010
0000
0100
0000
0001
0000
0000
1000
,
0000
0000
0010
0000
1000
0000
0001
0000
1000
0100
0000
0010
0000
0001
0000
0000
,
1000
0000
0010
0000
1000
0000
0001
0000
0100
0000
0010
0000
1000
0000
0000
0001
,
0000
0000
0100
0000
0001
0000
1000
0000
0010
0000
0100
0000
0001
0000
0000
1000
,
0000
0000
0100
0000
1000
0000
0001
0000
0010
0000
0100
0000
1000
0000
0000
0001
,
0000
0000
0010
0000
0001
0000
1000
0000
0001
0000
0100
0000
0010
0000
0000
1000
,
0000
0100
2002
0000
0000
0000
0000
0000
,
0000
3003
0000
0000
;

//---------------dance-single - D. D'Amato----------------
#NOTES:
     dance-single:
     D. D'Amato:
     Challenge:
     10:
     0.700,0.702,0.009,0.018,0.833,553.000,1.000,2.000,0.000,0.000,0.000,0.700,0.702,0.009,0.018,0.833,553.000,1.000,2.000,0.000,0.000,0.000: // measure 1
0000
0000
0000
0000
,  // measure 2
0000
0000
0000
0000
,  // measure 3
0000
0000
0000
0000
,  // measure 4
0000
0000
0000
0000
,  // measure 5
0000
0000
0000
0000
0001
0010
0001
0000
0010
0001
0010
0100
0000
1000
0000
0001
,  // measure 6
0100
0000
0010
0000
1000
0010
1000
0000
0010
1000
0010
0100
0000
0001
0000
1000
,  // measure 7
0010
0000
0100
0000
0001
0100
0001
0000
0100
0001
0100
0010
0000
1000
0000
0001
,  // measure 8
0010
0000
0100
0000
1000
0100
1000
0000
0100
1000
0100
0010
0000
0001
0000
1000
,  // measure 9
0100
0000
0010
0000
0001
0010
0001
0010
0001
0010
0001
0100
0000
0001
0000
1000
,  // measure 10
0100
1000
0001
0000
1000
0010
1000
0010
1000
0010
1000
0100
0000
1000
0000
0001
,  // measure 11
0010
0001
1000
0000
0001
0100
0001
0100
0001
0100
0001
0010
0000
0001
0000
1000
,  // measure 12
0010
1000
0001
0000
1000
0100
1000
0100
1000
0100
1000
0010
0000
1000
0000
0001
,  // measure 13
0100
0001
1000
0000
0001
0000
0100
0000
0001
1000
0000
0100
0000
1000
0001
0000
,  // measure 14
1000
0000
0010
0000
1000
0000
0100
0000
1000
0001
0000
0010
0000
0001
1000
0000
,  // measure 15
0001
0000
0100
0000
0001
0000
0010
0000
0001
1000
0000
0010
0000
1000
0001
0000
,  // measure 16
1000
0000
0100
0000
1000
0000
0010
0000
1000
0001
0000
0100
0000
0001
1000
0000
,  // measure 17
0001
0000
0010
0000
0100
0000
1000
0000
0010
1000
0000
0001
0000
0100
0001
0000
,  // measure 18
0010
0000
0100
0000
0010
0000
0001
0000
0100
0001
0000
1000
0000
0100
1000
0000
,  // measure 19
0010
0000
0100
0000
0010
0000
1000
0000
0100
1000
0000
0001
0000
0010
0001
0000
,  // measure 20
0100
0000
0010
0000
0100
0000
0001
0000
0010
0001
0000
1000
0000
0010
1000
0000
,  // measure 21
0100
0000
0010
0000
0001
0000
1000
0000
0100
0000
0010
0000
0001
0000
0100
0001
,  // measure 22
0000
0010
0001
0000
0100
0000
0010
0000
1000
0000
0001
0000
0100
0000
0010
0100
,  // measure 23
0000
0001
0100
0000
0010
0000
1000
0000
0001
0000
0100
0000
0010
0000
1000
0010
,  // measure 24
0000
0100
0010
0000
1000
0000
0001
0000
0010
0100
0000
0010
0000
0001
1000
0000
,  // measure 25
0010
0100
0010
0000
1000
0000
0001
0000
0100
0000
0010
0000
1000
0000
0100
1000
,  // measure 26
0000
0010
1000
0000
0100
0000
0010
0000
0001
0000
1000
0000
0100
0000
0010
0100
,  // measure 27
0000
1000
0100
0000
0010
0000
0001
0000
1000
0000
0100
0000
0010
0000
0001
0010
,  // measure 28
0000
0100
0010
0000
0001
0000
1000
0000
0010
0100
0000
0010
0000
1000
0001
0000
,  // measure 29
0010
0100
0010
0000
0001
0000
1000
0000
0010
0000
1000
0000
0001
0000
1000
0000
,  // measure 30
0010
0000
1000
0000
0001
0000
0010
0000
0100
0000
0010
0000
0001
0000
0000
0001
,  // measure 31
0100
0010
1000
0001
0010
0001
1000
0001
,  // measure 32
0010
0000
0001
0000
1000
0000
0010
0000
0100
0000
0010
0000
1000
0000
0000
1000
,  // measure 33
0100
0000
0010
0000
0100
0000
0100
0000
0000
1000
0000
0000
0100
0000
0000
0100
,  // measure 34
1000
0000
0001
0000
0100
0000
0010
0100
0000
0010
1000
0000
0100
0000
0000
0100
,  // measure 35
1000
0000
0010
0000
0100
0000
0100
0000
0000
0001
0000
0000
0100
0000
0000
0100
,  // measure 36
0001
0000
1000
0000
0100
0000
0010
0100
0000
0010
0001
0000
0100
0000
0000
0100
,  // measure 37
0001
0000
0010
0000
0100
0000
0010
0000
0001
0000
0100
0010
0000
1000
0000
0100
,  // measure 38
0010
0000
0001
0000
0100
0000
0010
0000
1000
0000
0100
0010
0000
0001
0000
0100
,  // measure 39
0010
0000
1000
0000
0100
0000
0010
0000
0001
0000
0100
0010
0000
1000
0000
0100
,  // measure 40
0010
0001
0100
0010
0100
0010
0100
0010
,  // measure 41
0100
0000
0010
0000
0100
0001
1000
0000
0100
1000
0001
0100
0000
0010
0000
0100
,  // measure 42
0001
0000
1000
0000
0100
1000
0001
0000
0100
0001
1000
0010
0000
0100
0000
0010
,  // measure 43
1000
0000
0001
0000
0010
0001
1000
0000
0010
1000
0001
0010
0000
0100
0000
0010
,  // measure 44
0001
0000
1000
0000
0010
1000
0001
0000
0010
0001
1000
0100
0000
0010
0000
0100
,  // measure 45
1000
0000
0001
0000
0100
0000
0010
0000
1000
0010
0000
1000
0000
0100
0010
0000
,  // measure 46
0100
0000
1000
0000
0010
0000
0100
0000
0001
0100
0000
0001
0000
0100
0010
0000
,  // measure 47
0100
0000
0001
0000
0010
0000
0100
0000
1000
0100
0000
1000
0000
0010
0100
0000
,  // measure 48
0010
0000
1000
0000
0100
0000
0010
0000
0001
0010
0000
0001
0000
0010
0100
0000
,  // measure 49
0010
0000
0001
0000
0100
0000
0010
0000
1000
0010
0100
0001
1000
0100
0010
0000
,  // measure 50
0100
0000
1000
0000
0010
0000
0100
0000
0001
0100
0010
1000
0001
0100
0010
0000
,  // measure 51
0100
0000
0001
0000
0010
0000
0100
0000
1000
0100
0010
0001
1000
0010
0100
0000
,  // measure 52
0010
0000
1000
0000
0100
0000
0010
0000
0001
0010
0100
1000
0001
0010
0100
0000
,  // measure 53
0010
0000
0001
0000
0100
0010
1000
0000
0100
0010
0001
0000
0100
0010
0000
1000
,  // measure 54
0100
0000
0010
0000
0001
0010
0100
0000
1000
0010
0100
0000
0001
0010
0000
0100
,  // measure 55
1000
0000
0100
0000
0010
0100
1000
0000
0010
0100
0001
0000
0010
0100
0000
1000
,  // measure 56
0010
0000
0100
0000
0001
0100
0010
0000
1000
0100
0010
0000
0001
0100
0000
0010
,  // measure 57
1000
0000
0010
0000
0100
0001
0100
0010
1000
0010
0100
0000
0010
1000
0000
0100
,  // measure 58
0010
0000
0100
0000
0010
0001
0010
0100
1000
0100
0010
0000
0100
1000
0000
0010
,  // measure 59
0100
0000
0010
0000
1000
0001
1000
0100
0010
0100
1000
0000
0001
0100
0000
0010
,  // measure 60
0100
0000
0001
0000
1000
0000
0100
0000
0010
0000
0001
0000
0100
0000
0000
0100
,  // measure 61
0000
0100
0220
0000
0000
0000
0000
0000
,  // measure 62
0000
0330
0000
0000
;

//---------------dance-single - D. D'Amato----------------
#NOTES:
     dance-single:
     D. D'Amato:
     Medium:
     6:
     0.336,0.351,0.000,0.079,0.079,258.000,0.000,9.000,0.000,0.000,0.000,0.336,0.351,0.000,0.079,0.079,258.000,0.000,9.000,0.000,0.000,0.000:
0000
0000
0000
0000
,
0000
0000
0000
0000
,
0000
0000
0000
0000
,
0000
0000
0000
0000
,
0000
0000
0000
0000
0010
0000
0000
0000
0001
0000
0000
0000
0000
0000
0000
0010
,
0000
0000
0000
0000
0100
0000
0000
0000
1000
0000
0000
0000
0000
0000
0000
0010
,
0000
0000
0000
0000
0100
0000
0000
0000
0001
0000
0000
0000
0000
0000
0000
0100
,
0000
0000
0000
0000
0010
0000
0000
0000
1000
0000
0000
0000
0000
0000
0000
0100
,
0000
0000
0010
0000
0100
0000
0000
0000
1000
0000
0000
0000
0000
0000
0000
0100
,
0000
0000
0000
0000
0010
0000
0000
0000
0001
0000
0000
0000
0000
0000
0000
0100
,
0000
0000
0000
0000
0010
0000
0000
0000
1000
0000
0000
0000
0000
0000
0000
0010
,
0000
0000
0000
0000
0100
0000
0000
0000
0001
0000
0000
0000
0000
0000
0000
0010
,
0000
0100
0010
0000
0001
0000
1000
0000
,
0100
0010
0001
0000
1000
0000
0010
0100
,
0001
1000
0100
0000
1000
0000
0010
0100
,
0001
0000
1000
0000
0100
0010
0001
1000
,
0010
0100
0010
0000
1000
0000
0001
0000
,
0100
0010
1000
0000
0001
0000
0010
0100
,
1000
0001
0100
0000
0001
0000
0010
0100
,
1000
0000
0001
0000
0100
0010
1000
0001
,
0010
0100
0010
0000
0001
0000
0100
0000
,
0100
0100
0001
0010
,
0010
0010
0001
1000
,
1000
0000
0000
0000
1000
0000
0001
0000
0010
0000
0001
0000
0100
0000
0000
0010
,
0000
0100
0010
0000
1000
0000
0100
0000
,
0100
0100
1000
0010
,
0010
0010
1000
0001
,
0001
0000
0000
0000
0001
0000
1000
0000
0010
0000
1000
0000
0100
0000
0000
0010
,
0000
0100
1000
0000
0001
0000
0000
0000
,
0010
0000
0001
0000
,
1000
0000
0010
0000
,
1000
0000
0001
0000
,
0010
0200
0000
2300
,
0000
3002
0000
0203
,
0000
0320
0000
2030
,
0000
3002
0000
0023
,
0000
0000
0130
0100
1000
0000
0001
0001
,
0100
0000
0010
0010
1000
0000
0001
0001
,
0010
0000
0100
0100
0010
0000
0001
0001
,
1000
0010
0100
0001
,
0010
0000
0000
0000
0100
0000
0000
0000
1000
0000
0000
0000
0100
0000
0000
0100
,
0000
0000
0100
0000
0010
0000
0000
0000
0001
0000
0000
0000
0100
0000
0000
0100
,
0000
0000
0100
0000
0010
0000
0000
0000
1000
0000
0000
0000
0010
0000
0000
0010
,
0000
0000
0010
0000
0100
0000
0000
0000
0001
0000
0000
0000
0010
0000
0000
0010
,
0000
0100
0010
0000
0001
0000
1000
0000
,
0100
0010
0001
0000
1000
0000
0010
0100
,
0001
1000
0100
0000
1000
0000
0010
0100
,
0001
0000
0000
0000
1000
0000
0000
0000
0100
0000
0010
0000
0001
0000
0000
1000
,
0000
0010
0000
0000
1000
0000
0001
0000
,
0100
0010
1000
0000
0001
0000
0010
0100
,
1000
0001
0100
0000
0001
0000
0010
0100
,
1000
0000
0000
0000
0001
0000
0000
0000
0100
0000
0010
0000
1000
0000
0000
0001
,
0000
0100
0000
0000
0001
0000
0010
0100
,
0010
0100
0000
0000
1000
0000
0100
0010
,
0100
0010
0000
0000
0001
0000
1000
0001
,
1000
0000
0001
0000
1000
0000
0001
0000
0010
0000
0001
0000
0100
0000
0000
0010
,
0000
0100
0010
0000
1000
0000
0010
0100
,
0010
0100
0000
0000
0001
0000
0100
0010
,
0100
0010
0000
0000
1000
0000
0001
1000
,
0001
0000
1000
0000
0001
0000
1000
0000
0100
0000
1000
0000
0010
0000
0000
0100
,
0000
0010
0200
0000
0000
0000
0000
0000
,
0000
0300
0000
0000
;

//---------------dance-single - D. D'Amato----------------
#NOTES:
     dance-single:
     D. D'Amato:
     Easy:
     3:
     0.208,0.243,0.035,0.352,0.000,121.000,4.000,40.000,0.000,0.000,0.000,0.208,0.243,0.035,0.352,0.000,121.000,4.000,40.000,0.000,0.000,0.000:
0000
0000
0000
0000
,
0000
0000
0000
0000
,
0000
0000
0000
0000
,
0000
0000
0000
0000
,
0000
0200
0000
0301
,
0000
0002
0000
1003
,
0000
2000
0000
3100
,
0000
0200
0000
0310
,
0000
0001
0001
0001
,
0000
0010
0010
0010
,
0000
0100
0100
0100
,
0000
1000
1000
1000
,
0000
0002
0000
0003
,
0000
0200
0000
0300
,
0000
0020
0000
0030
,
0000
2000
0000
3100
,
0100
2000
0000
3000
,
0000
0200
0000
0300
,
0000
0020
0000
0030
,
0000
0002
0000
0103
,
0100
0010
0000
1000
,
0000
0100
0000
1000
,
0000
0010
0000
1000
,
0000
0100
0100
1000
,
0100
0010
0000
0001
,
0000
0100
0000
0001
,
0000
0010
0000
0001
,
0000
0100
0100
0001
,
0100
0010
0000
0000
,
0000
0000
0000
0000
,
0000
0000
0000
0000
,
0000
0000
0000
0000
,
0000
0020
0000
0000
,
0000
2030
0000
0000
,
0000
3200
0000
0000
,
0000
0320
0000
0000
,
0000
0032
0000
0000
,
0000
0203
0000
0000
,
0000
0320
0000
0000
,
0000
1030
0001
1000
,
0001
0020
0000
0031
,
0000
0002
0000
1003
,
0000
2000
0000
3010
,
0000
0020
0000
0130
,
0000
0002
0000
0103
,
0100
0200
0000
0310
,
0010
0020
0000
1030
,
1000
2000
0000
3100
,
0110
2000
0000
3100
,
0100
0200
0000
0310
,
0010
0020
0000
0031
,
0001
0002
0000
0103
,
0110
0002
0000
0103
,
0001
0200
0000
0310
,
0100
0020
0000
1030
,
0010
2000
0000
3100
,
1001
2000
0000
3100
,
1000
0200
0000
0310
,
0100
0020
0000
0031
,
0010
0002
0000
0103
,
1001
0200
0000
0000
,
0000
0300
0000
0000
;

//---------------dance-single - J. Frederick----------------
#NOTES:
     dance-single:
     J. Frederick:
     Beginner:
     1:
     0.074,0.080,0.018,0.000,0.000,57.000,2.000,0.000,0.000,0.000,0.000,0.074,0.080,0.018,0.000,0.000,57.000,2.000,0.000,0.000,0.000,0.000:
0000
0000
0000
0000
,
0000
0000
0000
0000
,
0000
0000
0000
0000
,
0000
0000
0000
0000
,
0000
1001
0000
0000
,
0000
0010
0000
0000
,
0000
0100
0000
0000
,
0000
1000
0000
0000
,
0000
0100
0000
0000
,
0000
0010
0000
0000
,
0000
0001
0000
0000
,
0000
1000
0000
0000
,
0000
0010
0000
0000
,
0000
0100
0000
0000
,
0000
1000
0000
0000
,
0000
0001
0000
0000
,
0000
0010
0000
0000
,
0000
0100
0000
0000
,
0000
1000
0000
0000
,
0000
0001
0000
0000
,
0000
0100
0000
0000
,
0000
0010
0000
0000
,
0000
1000
0000
0000
,
0000
0001
0000
0000
,
0000
0010
0000
0000
,
0000
0100
0000
0000
,
0000
1000
0000
0000
,
0000
0001
0000
0000
,
0000
0100
0000
0000
,
0000
0010
0000
0000
,
0000
1000
0000
0000
,
0000
0001
0000
0000
,
0000
0010
0000
0000
,
0000
0100
0000
0000
,
0000
1000
0000
0000
,
0000
0001
0000
0000
,
0000
0010
0000
0000
,
0000
0100
0000
0000
,
0000
1000
0000
0000
,
0000
0001
0000
0000
,
0000
0010
0000
0000
,
0000
0100
0000
0000
,
0000
1000
0000
0000
,
0000
0001
0000
0000
,
0000
0010
0000
0000
,
0000
0100
0000
0000
,
0000
1000
0000
0000
,
0000
0001
0000
0000
,
0000
0010
0000
0000
,
0000
0100
0000
0000
,
0000
1000
0000
0000
,
0000
0001
0000
0000
,
0000
0010
0000
0000
,
0000
0100
0000
0000
,
0000
1000
0000
0000
,
0000
0001
0000
0000
,
0000
0010
0000
0000
,
0000
0100
0000
0000
,
0000
1000
0000
0000
,
0000
0001
0000
0000
,
0000
0110
0000
0000
;

//---------------dance-double - J. Frederick----------------
#NOTES:
     dance-double:
     J. Frederick:
     Easy:
     3:
     0.169,0.220,0.070,0.159,0.000,108.000,8.000,18.000,0.000,0.000,0.000,0.169,0.220,0.070,0.159,0.000,108.000,8.000,18.000,0.000,0.000,0.000:
00000000
00000000
00000000
00000000
,
00000000
00000000
00000000
00000000
,
00000000
00110000
00000000
00000000
,
00000000
10010000
00000000
00000000
,
00000000
00010000
00000000
10000000
,
00000000
00100000
00000000
00010000
,
00000000
00001000
00000000
00000100
,
00000000
00000001
00000000
00000010
,
00000000
00000001
00000100
00000002
,
00000003
00000010
00000001
00002000
,
00003000
00010000
00100000
00020000
,
00030000
00100000
10000000
02000000
,
03000000
00010000
00000000
00001000
,
00000000
00100000
00000000
10000000
,
00000000
01000000
00000000
00010000
,
00000000
00001000
00000000
00000001
,
00000000
00000100
00000000
00000010
,
00000000
00001000
00000000
00000100
,
00000000
00000001
00000000
00001000
,
00000000
00000010
00000000
00001000
,
00000000
00010000
00000000
00100000
,
00000000
10000000
00000000
01000000
,
00000000
00010000
00000000
00100000
,
00000000
01000000
00000000
10000000
,
00000000
00010000
00000000
01000000
,
00000000
00100000
00000000
00010000
,
00000000
00001000
00000000
00000001
,
00000000
00000100
00000000
00000010
,
00000000
00002000
00000000
00000000
,
00003000
00000200
00000000
00000000
,
00000300
00000002
00000000
00000000
,
00000003
00000020
00000000
00000000
,
00000030
00002000
00000000
00000000
,
00003000
00020000
00000000
00000000
,
00030000
00200000
00000000
00000000
,
00300000
20000000
00000000
00000000
,
30000000
00020000
00000000
00000000
,
00030000
00002000
00000000
00000000
,
00003000
00000200
00000000
00000000
,
00000300
00000002
00000000
00000000
,
00000003
00000010
00000000
00001000
,
00000000
00000100
00000000
00000001
,
00000000
00001000
00000000
00000010
,
00000000
00001000
00000000
00010000
,
00000000
00100000
00000000
00010000
,
00000000
10000000
00000000
01000000
,
00000000
00010000
00000000
00100000
,
00000000
00010000
00000000
00001000
,
00000000
00000100
00000000
00000001
,
00000000
00000010
00000000
00000001
,
00000000
00000100
00000000
00001000
,
00000000
00010000
00000000
00100000
,
00000000
00110000
00000000
10000000
,
00000000
01000000
00000000
00010000
,
00000000
00100000
00000000
00010000
,
00000000
01000000
00000000
00010000
,
00000000
00001100
00000000
00000001
,
00000000
00000011
00000000
00000001
,
00000000
00001001
00000000
00001000
,
00000000
00011000
00000000
00001000
,
00010000
00022000
00000000
00000000
,
00000000
00000000
00000000
00000000
,
00000000
00000000
00033000
00000000
;

//---------------dance-double - J. Frederick----------------
#NOTES:
     dance-double:
     J. Frederick:
     Medium:
     6:
     0.409,0.437,0.326,0.018,0.000,286.000,37.000,2.000,18.000,0.000,0.000,0.409,0.437,0.326,0.018,0.000,286.000,37.000,2.000,18.000,0.000,0.000:
00000000
00000000
00000000
00000000
,
00000000
00000000
00000000
00000000
,
00000000
00000000
00000000
00000000
,
00000000
00000000
00000000
00000000
,
00000000
00000000
10000000
01000000
10000000
00000000
01000000
00000000
,
00100000
00000000
00010000
01000000
00010000
00000000
00100000
00000000
,
00010000
00000000
00001000
00010000
00001000
00000000
00000100
00000000
,
00000001
00000000
00000010
00000001
00000010
00000000
00000001
00000000
,
00000100
00000000
00000010
00001000
00000010
00000000
00001000
00000000
,
00000100
00000000
00000001
00000100
00000001
00000000
00000010
00000000
,
00001000
00000000
00010000
00001000
00010000
00000000
00001000
00000000
,
00010000
00000000
00100000
00010000
00100000
00000000
00010000
00000000
,
00100000
00000000
10000000
01000000
10000000
01000000
10000000
01000000
,
10000000
00000000
00010000
01000000
00010000
01000000
00010000
01000000
,
00010000
00000000
00100000
00010000
00100000
00010000
00100000
00010000
,
00100000
00000000
00010000
00001000
00010000
00001000
00010000
00001000
,
00010000
00000000
00001000
00000100
00001000
00000100
00001000
00000100
,
00001000
00000000
00000001
00000100
00000001
00000100
00000001
00000100
,
00000001
00000000
00000001
00000010
00000001
00000010
00000001
00000010
,
00000001
00000000
00000010
00001000
00000010
00001000
00000010
00001000
,
00000010
00000000
00000100
00000000
00000001
00000000
00000010
00000001
,
00000010
00000000
00000100
00000000
00000001
00000000
00000010
00001000
,
00000010
00000000
00001000
00000000
00010000
00000000
00001000
00010000
,
00001000
00000000
00010000
00000000
00100000
00000000
00010000
00100000
,
00010000
00000000
10000000
01000000
00000000
00100000
00010000
00000000
,
10000000
00000000
01000000
00100000
00000000
00010000
01000000
00000000
,
00010000
00000000
00001000
00000100
00000000
00000001
00000010
00000000
,
00000001
00000000
00000100
00000010
00001000
00000000
00000001
00000100
,
00000010
00000001
00000000
00000100
,
00000000
00000010
00000000
00001000
,
00000000
00010000
00000000
00100000
,
00000000
10000000
00000000
01000000
,
00000000
00010000
10000000
00100000
,
01000000
00010000
00001000
00000010
,
00000001
00000100
00000010
00001000
,
00000001
00001000
00000010
00000100
,
00000001
00000101
00000101
00001001
,
00001001
00001010
00001010
00011000
,
00011000
00110000
00110000
10100000
,
10100000
10010000
10010000
01010000
,
01010000
00010000
00001000
00010000
,
00001000
00100000
00010000
00100000
,
00010000
00001000
00000010
00001000
,
00000010
00000001
00000100
00000010
,
00001000
00000000
00001000
00010000
00001000
00010000
00001000
00010000
,
00001000
00000000
00010000
00100000
00010000
00100000
00010000
00100000
,
00010000
00000000
10000000
01000000
10000000
01000000
10000000
01000000
,
10000000
00000000
00010000
01000000
00010000
01000000
00010000
01000000
,
00010000
00000000
00010000
00001000
00010000
00001000
00010000
00001000
,
00010000
00000000
00001000
00000010
00001000
00000010
00001000
00000010
,
00001000
00000000
00000001
00000100
00000001
00000100
00000001
00000100
,
00000001
00000000
00000001
00001000
00000001
00001000
00000001
00001000
,
00000001
00001001
00001010
00001001
,
00000101
00001010
00001100
00001001
,
00001010
00011000
00101000
00011000
,
00010010
00101000
10010000
01100000
,
10010000
10100000
01010000
00110000
,
10010000
00000000
01000000
00010000
00100000
00000000
00001000
00000000
,
00010000
00000000
00000010
00001000
00000001
00000000
00000100
00000000
,
00000010
00000000
00001000
00000010
00001000
00000010
00001000
00000000
,
00000010
00000000
M002200M
00M00M00
00000000
M000000M
00000M00
00M00000
,
0000000M
M0000M00
00000000
00M0000M
00000M00
M0000000
0000000M
00M00M00
,
00033000
00000000
00000000
00000000
;

//---------------pump-single - M. Calfin----------------
#NOTES:
     pump-single:
     M. Calfin:
     Challenge:
     10:
     0.847,0.860,0.370,0.256,1.000,602.000,42.000,29.000,0.000,1.000,0.000,0.847,0.860,0.370,0.256,1.000,602.000,42.000,29.000,0.000,1.000,0.000:
00000
00000
00000
00000
,
00000
00000
00000
00000
,
10000
00100
10000
00000
10000
00100
10000
00000
00000
00000
00001
00100
00001
00000
00000
00000
,
00010
00100
00010
00000
00010
00100
00010
00000
00000
00000
01000
00100
01000
00000
00100
00000
,
00010
00000
00000
00000
01000
00000
00100
00000
00010
00000
00001
00100
00010
00100
00001
00000
,
00010
00000
00100
00000
01000
00000
00100
00000
10000
00000
01000
10000
00100
01000
10000
00000
,
01000
00000
00100
00000
10000
00000
01000
00000
00100
00000
00010
00100
00001
10000
00100
00000
,
01000
00100
10000
00010
00100
00010
10000
00100
,
10010
00000
00000
00000
00010
00000
00100
00000
01000
00000
10000
00100
01000
00100
10000
00000
,
01000
00000
00100
00000
00010
00000
00100
00000
00001
00000
00010
00001
00100
00010
00001
00000
,
00010
00000
00100
00000
00001
00000
00010
00000
00100
00000
01000
00100
10000
00001
00100
00000
,
00010
00100
00001
01000
00100
10000
00010
00100
,
01001
00000
00000
00000
10200
00000
10300
00000
20000
00100
00000
00100
00000
00100
30000
00200
,
00001
00000
00001
00000
00001
00000
00001
00000
00302
00100
00000
00100
00000
00100
00000
00200
,
01003
00000
01000
00000
01000
00000
01300
00000
02000
00100
00000
00100
00000
00100
03000
00200
,
00010
00000
00010
00000
00010
00000
00010
00000
00310
00100
00000
01000
00000
00010
00000
00100
,
00001
00000
00000
00000
00210
00000
00010
00000
00320
00100
00000
00100
00000
00100
00030
00200
,
01000
00000
01000
00000
01000
00000
01300
00000
02000
00001
00000
00001
00000
00001
03000
00002
,
00100
00000
00100
00000
00100
00000
00103
00000
00200
10000
00000
10000
00000
10300
00000
20000
,
00010
00000
00010
00000
00010
00000
30010
00000
00010
00100
00000
01000
00000
00100
00000
00001
,
10000
00000
00000
00000
01200
00000
01000
00000
02300
00100
00000
00100
00000
00100
03000
00000
,
00210
00000
00010
00000
00010
00000
00310
00000
00020
01000
00000
01000
00000
01000
00030
00000
,
02010
00000
00010
00000
00010
00000
03010
00000
00020
00100
00000
00100
00000
00100
00030
00200
,
10000
00000
10000
00000
10000
00000
10300
00000
10000
00100
00000
00001
00000
00100
00000
01000
,
10000
00000
00000
00000
00210
00000
00010
00000
00320
00100
00000
00100
00000
00100
00030
00200
,
01000
00000
01000
00000
01000
00000
01300
00000
02000
00100
00000
00100
00000
00100
03000
00200
,
10000
00000
10000
00000
10000
00000
10300
00000
20000
00100
00000
00100
00000
00100
30000
00200
,
00001
00000
00001
00000
00001
00000
00301
00000
00001
00100
00000
00010
00000
01000
00000
00100
,
00010
00000
01010
00000
00100
10000
00001
00000
,
00010
00100
01000
00000
00010
00100
01000
00000
,
00001
00100
10000
00000
00010
10000
10100
00000
,
01000
00001
00101
00000
01000
00100
10000
01000
,
00100
00000
00001
00000
00110
00000
00000
10000
00100
00000
01000
00000
00010
00000
00000
00001
,
00100
00000
00010
00000
01000
00000
00000
10000
00100
00000
00010
00000
00100
00000
00000
00001
,
00100
00000
00010
00000
00100
00000
00000
10000
00001
00000
00100
00000
01000
00000
00000
00000
,
00010
00000
00000
00000
10000
00001
10000
00100
01000
00100
01000
00010
00100
00001
01000
00100
,
10000
00010
10000
00100
01000
00010
00100
00010
00001
00100
10000
00100
01000
00001
00100
00010
,
01000
00010
01000
00100
00010
00001
00010
00100
01000
00010
00100
01000
10000
01000
00100
00010
,
01000
00100
10000
01000
00100
00010
10000
01000
00100
00010
01000
00100
00010
00100
01000
00010
,
00100
00001
10000
00001
00100
00010
00001
00010
00001
00100
10000
00001
01000
00100
10000
00001
,
00100
10000
00100
00010
01000
00000
00100
00000
00010
00000
00100
01000
00001
00100
00001
00000
,
00010
00000
01000
00000
00010
00000
00100
00000
01000
00000
00100
00010
10000
00100
01000
00000
,
10000
00000
00010
00000
00100
00000
00001
00000
01000
00000
00010
10000
01000
00100
00001
00000
,
00010
00000
01000
00000
00001
10000
00001
10000
00010
01000
00010
01000
00001
10000
00010
01000
,
00010
10000
00001
01000
00010
00100
00010
00100
00001
10000
00100
10000
00000
10001
00000
10000
,
00100
00000
00110
00000
01000
00100
01000
00100
10000
00001
00100
00001
00000
10001
00000
00001
,
00100
00000
01100
00000
00001
00100
00001
00100
00010
01000
00100
01000
00000
01010
00000
01000
,
00100
00000
00101
00000
10000
00100
10000
00100
01000
00010
00100
00010
00000
01010
00000
00010
,
00100
00000
10100
00000
01000
00100
10000
00010
01000
00100
00010
00001
00000
01100
00000
10000
,
00100
00000
01010
00000
00010
00100
00001
10000
00010
00100
01000
10000
00000
00110
00000
00001
,
00100
00000
01010
00000
10000
00100
01000
00010
10000
00100
00001
00010
00000
10100
00000
01000
,
00100
00000
10001
00000
00001
00100
00010
01000
00001
00100
10000
01000
00000
00101
00000
00010
,
00100
00000
10001
00000
00001
00100
00001
00100
10000
01000
00001
00100
00000
11000
00000
00010
,
00001
00000
01100
00000
10000
00100
10000
00100
00001
00010
10000
00100
00000
00011
00000
01000
,
10000
00000
00110
00000
00010
00100
00010
00100
01000
10000
00010
00100
00000
11000
00000
00001
,
00010
00000
10100
00000
01000
00100
01000
00100
00010
00001
01000
00100
00000
00011
00000
10000
,
01000
00000
00101
00000
10000
00100
00001
00010
00100
01000
00100
00010
00000
10010
00000
01000
,
00001
00000
10010
00000
00001
00100
10000
01000
00100
00010
00100
01000
00000
01001
00000
00010
,
10000
00000
01001
00000
00010
00100
01000
10000
00001
01000
00100
00001
00000
00011
00000
00100
,
10000
00000
10001
00000
01000
00100
01000
00100
00010
00001
10000
00100
01000
00010
00100
10000
,
01000
10000
00100
00010
00002
00000
00000
00000
00000
00000
00000
00000
00000
00000
00000
00000
,
00003
00000
00000
00000
;

//---------------dance-double - D. Sustar----------------
#NOTES:
     dance-double:
     D. Sustar:
     Edit:
     10:
     0.811,0.385,0.079,0.026,1.000: // measure 1
00000000
00000000
00000000
00000000
00011000
00000000
00000000
00000000
00000000
00000000
00000100
00000010
00000100
00000000
00000000
00000000
,  // measure 2
00001000
00000100
00001000
00000000
00000001
00000010
00000001
00000000
00000000
00000000
00000100
00000010
00000100
00000000
00000000
00000000
,  // measure 3
00000010
00001000
00000010
00000000
00010000
00000100
00010000
00000000
00000000
00000000
00001000
00100000
00001000
00000000
00000000
00000000
,  // measure 4
00100000
00010000
00100000
00000000
01000000
10000000
01000000
00000000
00000000
00000000
00100000
01000000
00100000
00000000
00000000
00000000
,  // measure 5
00010000
10000000
00010000
00000000
01000000
00010000
00100000
00010000
01000000
00010000
00100000
00001000
00000000
000M1000
00000000
00010000
,  // measure 6
00001000
00010000
00001000
00000000
00010000
00000010
00010000
00000100
00010000
00000010
00010000
00000100
00000000
000M0100
00000000
00001000
,  // measure 7
00000100
00001000
00000100
00000000
00001000
00000100
00000010
00000100
00001000
00000100
00000010
00000100
00000000
000001M0
00000000
00001000
,  // measure 8
00000001
00001000
00000001
00000000
00000010
00000001
00000010
00000100
00000010
00000001
00000010
00000100
00000000
000001M0
00000000
00010000
,  // measure 9
00000100
00010000
00000100
00000000
01000000
00001000
01000000
00010000
01000000
00001000
01000000
00010000
00000000
0M010000
00000000
00100000
,  // measure 10
01000000
00100000
01000000
00000000
10000000
01000000
10000000
00100000
10000000
01000000
10000000
00100000
00000000
M0100000
00000000
01000000
,  // measure 11
00010000
01000000
00010000
00000000
00100000
00010000
00100000
01000000
00100000
00010000
00100000
01000000
00000000
01M00000
00000000
10000000
,  // measure 12
00100000
10000000
00100000
00000000
01000000
00010000
01000000
00100000
01000000
00010000
01000000
00100000
00000000
0M100000
00000000
10000000
,  // measure 13
00010000
10000000
00010000
00000000
00100000
00000000
00100000
00000000
00010000
01000000
00000000
00001000
00000000
00001000
00000000
00010000
,  // measure 14
00000100
00000000
00000100
00000000
00001000
00000000
00001000
00000000
00000010
00000100
00000000
00000001
00000000
00000010
00000000
00000010
,  // measure 15
00000001
00000000
00000001
00000000
00001000
00000000
00001000
00000000
00000010
00100000
00000000
00100000
00000000
00100000
00000000
00001000
,  // measure 16
01000000
00000000
00010000
00000000
10000000
00000000
00010000
00000000
00100000
00010000
00000000
00100000
00000000
00100000
00000000
00001000
,  // measure 17
00010000
00000100
00010000
00000000
00000100
00000000
00000100
00000000
00010000
00000100
00000000
00001000
00000000
00001000
00000000
00000010
,  // measure 18
00000100
00000000
00000100
00000000
00001000
00000000
00001000
00000000
01000000
00010000
00000000
00010000
00000000
00010000
00000000
01000000
,  // measure 19
00100000
10000000
00100000
00000000
10000000
00000000
10000000
00000000
00010000
00100000
00000000
00001000
00000000
00001000
00000000
00010000
,  // measure 20
00000010
00000000
00000010
00000000
00001000
00000000
00001000
00000000
00000001
00000010
00000000
00000100
00000000
00000100
00000000
01000000
,  // measure 21
00001000
00000000
00001000
00000000
00100000
00000000
00100000
00000000
00010000
01000000
00000000
00010000
00000000
00010000
00000000
10000000
,  // measure 22
00100000
00000000
00100000
00000000
10000000
00000000
10000000
00000000
01000000
00010000
00000000
01000000
00000000
01000000
00000000
00100000
,  // measure 23
00010000
00000000
00010000
00000000
00100000
00000000
00100000
00000000
00000010
00010000
00000000
00001000
00000000
00001000
00000000
01000000
,  // measure 24
00100000
00000000
00100000
00000000
01000000
00000000
01000000
00000000
00010000
00100000
00000000
00001000
00000000
00001000
00000000
00010000
,  // measure 25
00000100
00010000
00000100
00000000
00001000
00000000
00001000
00000000
00000010
00000100
00000000
00000001
00000000
00000001
00000000
00001000
,  // measure 26
00000001
00000000
00000001
00000000
00010000
00000000
00010000
00000000
00001000
10000000
00000000
00010000
00000000
00010000
00000000
00100000
,  // measure 27
01000000
00000000
01000000
00000000
10000000
00000000
10000000
00000000
00100000
01000000
00000000
00010000
00000000
00010000
00000000
01000000
,  // measure 28
00100000
00000000
00100000
00000000
01000000
00000000
01000000
00000000
00010000
00100000
00000000
00001000
00000000
00001000
00000000
00010000
,  // measure 29
00000010
00010000
00000010
00000000
00001000
00000000
00000000
00000001
00000000
00000000
00000101
00000000
MMMMMMMM
00000000
00000000
00000010
,  // measure 30
00000000
00000000
00000000
00000000
00001010
00000000
00000000
00000000
00000000
MMMMMMMM
00000000
00000000
00000000
00000000
00010000
00000000
00000000
00000000
00000000
00000000
00010001
00000000
00000000
00000000
00000000
MMMMMMMM
00000000
00000000
00000000
00000000
00000100
00000000
,  // measure 31
00000000
00000000
00000000
00000000
01000100
00000000
00000000
00000000
00000000
MMMMMMMM
00000000
00000000
00000000
00000000
00100000
00000000
00000000
00000000
00000000
00000000
00100010
00000000
00000000
00000000
00000000
MMMMMMMM
00000000
00000000
00000000
00000000
00001000
00000000
,  // measure 32
00010000
00000000
00000000
00000000
00011000
00000000
00000000
00000000
00000000
MMMMMMMM
00000000
00000000
00000000
00000000
01000000
00000000
00000000
00000000
00000000
00000000
01001000
00000000
00000000
00000000
00000000
MMMMMMMM
00000000
00000000
00000000
00000000
00010000
00000000
,  // measure 33
01000000
00000000
01010000
00000000
00100000
00000000
10000000
00000000
00010000
01000000
00000000
01000000
00001000
00000000
00010000
00000100
,  // measure 34
00000000
00000100
00002000
00000000
00000000
00003000
00000010
00000000
00001000
00000001
00000000
00000001
00000100
00000000
00000010
00001000
,  // measure 35
00000000
00001000
00000100
00000000
00010000
00000000
00000100
00000000
01000000
00001000
00000000
00001000
00100000
00000000
00010000
10000000
,  // measure 36
00000000
10000000
02000000
00000000
00000000
03000000
00100000
00000000
00010000
01000000
00000000
01000000
00001000
00000000
00100000
00000010
,  // measure 37
00000000
00000010
00010000
00000000
00000100
00010000
00000100
00000000
00010000
00001000
00000000
00001000
01000000
00000000
00010000
00100000
,  // measure 38
00000000
00100000
01000000
00000000
10000000
01000000
10000000
00000000
10000000
00010000
00000000
00010000
01000000
00000000
00001000
00010000
,  // measure 39
00000000
00010000
00001000
00000000
00010000
00000010
00010000
00000000
00000100
00000000
00000100
00000000
00001000
00000001
00001000
00000000
,  // measure 40
00000010
00000000
00000010
00000000
00000100
00001000
00000100
00000000
00001000
01000000
00001000
00000000
00100000
00010000
10000000
01000000
,  // measure 41
00100000
01000000
10000000
00010000
01000000
00001000
00010000
00000100
00001000
00000100
00000010
00000001
00000000
000000M1
00000000
00000100
,  // measure 42
00000001
00000100
00000001
00000000
00000010
00001000
00000010
00001000
00000100
00010000
00000100
00010000
00000000
00010M00
00000000
00001000
,  // measure 43
00010000
00001000
00010000
00000000
00001000
00010000
00001000
00100000
00010000
00100000
01000000
10000000
00000000
1M000000
00000000
00100000
,  // measure 44
01000000
00100000
01000000
00000000
00010000
10000000
00100000
10000000
00010000
01000000
00001000
00010000
00000000
0001M000
00000000
00000100
,  // measure 45
00010000
00000100
00010000
00000000
00001000
00010000
00001000
00010000
00000010
00001000
00000010
00001000
00000000
000010M0
00000000
00000001
,  // measure 46
00000100
00000001
00000100
00000010
00001000
00000000
00001000
00000000
00000010
00000100
00000010
00001000
00000000
000010M0
00000000
00000100
,  // measure 47
00010000
00000100
00010000
00000000
00001000
00100000
00010000
00100000
01000000
10000000
01000000
10000000
00000000
1M000000
00000000
01000000
,  // measure 48
00100000
00010000
10000000
00000000
01000000
00100000
01000000
10000000
00010000
00100000
01000000
00100000
00000000
0M100000
00000000
00001000
,  // measure 49
00010000
00000100
00001000
00000000
00000001
00000000
00000001
00000000
00000100
00000010
00000100
00001000
00000000
00001M00
00000000
00000100
,  // measure 50
00000010
00001000
00000100
00010000
00001000
00000000
00001000
00000000
00010000
00001000
00010000
00100000
00000000
001M0000
00000000
01000000
,  // measure 51
00010000
01000000
00010000
00000000
00100000
00000000
00100000
00000000
00001000
00100000
00001000
00010000
00000000
0001M000
00000000
00000100
,  // measure 52
00010000
00000100
00001000
00000000
00000010
00000000
00000010
00000000
00001000
00000001
00000100
00000001
00000000
00000M01
00000000
00000100
,  // measure 53
00000010
00000100
00000010
00001000
00000100
00000000
00000100
00000000
00010000
00001000
00100000
00010000
00000000
00M10000
00000000
01000000
,  // measure 54
00010000
01000000
00010000
00000000
10000000
00000000
10000000
00000000
00100000
01000000
00010000
00100000
00000000
001M0000
00000000
00001000
,  // measure 55
00010000
00000010
00001000
00000000
00000001
00000000
00000001
00000000
00000100
00000001
00000100
00000010
00000000
00000M10
00000000
00001000
,  // measure 56
00000100
00001000
00000100
00000000
00010000
00000000
00010000
00000000
00001000
00010000
00001000
01000000
00000000
0100M000
00000000
00000000
,  // measure 57
00100000
10000000
00100000
00000000
10000000
00000000
10000000
01000000
00100000
01000000
00100000
00010000
00000000
00M10000
00000000
01000000
,  // measure 58
00001000
01000000
00001000
00000000
00010000
00000000
00010000
00000000
00000100
00000010
00000001
00000010
00000000
0000001M
00000000
00000001
,  // measure 59
00000100
00000001
00000100
00000000
00000010
00000000
00000010
00000000
00010000
00000010
00010000
00001000
00000000
000M1000
00000000
01000000
,  // measure 60
00010000
01000000
00010000
00000000
00100000
01000000
00100000
00010000
01000000
00001000
00010000
00000100
00001000
00000100
00000010
00000001
,  // measure 61
00000010
00000100
00001000
00000010
00000200
00000000
00000000
00000000
00000000
00000000
00000000
00000000
00000000
00000000
00000000
00000000
,  // measure 62
00000000
00000000
00000000
00000000
,  // measure 63
00000000
00000000
00000300
00000000
;

//---------------dance-double - M. Cerna----------------
#NOTES:
     dance-double:
     M. Cerna:
     Challenge:
     10:
     0.746,0.902,0.335,0.035,1.000,551.000,38.000,4.000,0.000,0.000,0.000: // measure 1
00000000
00000000
00000000
00000000
,  // measure 2
00000000
00000000
00000000
00000000
,  // measure 3
00000000
00000000
00000000
00000000
,  // measure 4
00000000
00000000
00000000
00000000
,  // measure 5
00000000
00000000
00000000
00000000
01000000
00000000
00001000
00000000
00100000
00001000
00010000
00000100
00000000
00001000
00000000
00000010
,  // measure 6
00000100
00000010
00001000
00000000
00000100
00000000
00000010
00000000
00000100
00001000
00000010
00000100
00000000
00001000
00000000
00010000
,  // measure 7
00001000
00010000
00000100
00000000
00000010
00000000
00000100
00000000
00001000
00000001
00000010
00000100
00000000
00001000
00000000
00000100
,  // measure 8
00010000
00000100
00001000
00000000
00000010
00000000
00010000
00000000
00001000
00010000
00001000
00100000
00000000
00010000
00000000
00100000
,  // measure 9
00010000
01000000
00001000
00000000
00010000
00000000
00001000
00000000
00010000
01000000
00100000
00010000
00000000
10000000
00000000
00100000
,  // measure 10
01000000
00100000
10000000
00000000
00010000
00000000
00100000
00000000
01000000
10000000
00010000
10000000
00000000
00010000
00000000
00100000
,  // measure 11
01000000
00100000
00010000
00000000
00100000
00000000
00010000
00000000
00001000
00000100
00000010
00000100
00000000
00001000
00000000
00000010
,  // measure 12
00010000
00001000
00010000
00000000
00001000
00000000
00100000
00000000
00010000
01000000
00100000
10000000
00000000
00010000
00000000
01000000
,  // measure 13
00010000
01000000
00010000
00000000
10010000
00000000
10000000
00000000
00100000
10000000
00000000
10000000
00000000
00010000
00000000
00100000
,  // measure 14
00001000
00000000
00010000
00000000
00001100
00000000
00000100
00000000
00001000
00000100
00000000
00000100
00000000
00001000
00000000
00000010
,  // measure 15
00000100
00000000
00001000
00000000
00011000
00000000
00010000
00000000
00001000
00010000
00000000
00001000
00000000
00010000
00000000
00001000
,  // measure 16
00010000
00000000
00001000
00000000
00011000
00000000
00010000
00000000
00000100
00010000
00000000
00001000
00000000
00000100
00000000
00000010
,  // measure 17
00001000
00000000
00000100
00000000
00001001
00000000
00001000
00000000
00000010
00000100
00000000
00000100
00000000
00000010
00000000
00001000
,  // measure 18
00000100
00000000
00010000
00000000
00011000
00000000
00001000
00000000
00010000
00001000
00000000
00001000
00000000
00100000
00000000
01000000
,  // measure 19
00100000
00000000
01000000
00000000
10010000
00000000
10000000
00000000
00100000
10000000
00000000
00100000
00000000
10000000
00000000
01000000
,  // measure 20
00010000
00000000
00001000
00000000
00011000
00000000
00010000
00000000
00000100
00001000
00000000
00000100
00000000
00010000
00000000
00001000
,  // measure 21
00100000
00000000
01000000
00000000
01100000
00000000
00100000
00000000
00010000
00100000
00000000
00001000
00000000
00010000
00000000
00000100
,  // measure 22
00001000
00000000
00000010
00000000
00000110
00000000
00000100
00000000
00001000
00010000
00000000
00001000
00000000
00000100
00000000
00000010
,  // measure 23
00000100
00000000
00000010
00000000
00001001
00000000
00001000
00000000
00000100
00010000
00000000
00001000
00000000
00100000
00000000
00010000
,  // measure 24
01000000
00000000
00100000
00000000
01010000
00000000
01000000
00000000
00100000
10000000
00000000
01000000
00000000
00010000
00000000
00001000
,  // measure 25
00010000
00000000
01000000
00000000
11000000
00000000
10000000
00000000
00100000
01000000
00000000
00010000
00000000
00100000
00000000
00001000
,  // measure 26
00010000
00000000
00000100
00000000
00001010
00000000
00001000
00000000
00000010
00000100
00000000
00001000
00000000
00010000
00000000
00001000
,  // measure 27
00010000
00000000
00000100
00000000
00001100
00000000
00001000
00000000
00000100
00000010
00000000
00000001
00000000
00000010
00000000
00000100
,  // measure 28
00001000
00000000
00000100
00000000
00010100
00000000
00000100
00000000
00010000
00001000
00000000
01000000
00000000
00100000
00000000
01000000
,  // measure 29
00010000
00000000
10000000
00000000
11000000
00000000
00000000
01000000
10000000
00000000
01000000
00000000
00100000
00000000
00000000
00010000
,  // measure 30
00100000
00000000
00001000
00000000
00010000
00000000
00000000
00001000
00010000
00000000
00001000
00000000
00000100
00000000
00000000
00000010
,  // measure 31
00000100
00000000
00001000
00000000
00010000
00000000
00000000
00001000
00010000
00000000
01000000
00000000
00100000
00000000
00000000
01000000
,  // measure 32
10000000
00000000
00100000
00000000
01000000
00000000
00000000
00010000
00100000
00000000
00001000
00000000
00010000
00000000
00000000
00000100
,  // measure 33
00001000
00000000
00000010
00000000
00000110
00000000
00000100
00000000
00000100
00000001
00000000
00000000
00000012
00000000
00000000
00001003
,  // measure 34
00000000
00000000
00000100
00010000
00001000
00000000
00100000
00010000
,  // measure 35
01000000
00000000
00010000
00000000
10010000
00000000
10000000
00000000
00010000
00100000
00000000
00000000
00020100
00000000
00000000
00031000
,  // measure 36
00000000
00000000
00010000
00000000
00000010
00001000
00000010
00001000
00000010
00000100
00000010
00000100
00001000
00010000
00001000
00100000
,  // measure 37
00010000
00100000
01000000
00100000
00010000
10000000
01000000
00100000
00010000
00100000
01000000
00100000
00001000
00010000
00001000
00000100
,  // measure 38
00000010
00001000
00000100
00001000
00000010
00000100
00001000
00010000
00001000
00010000
00000100
00001000
00000010
00000100
00000001
00000010
,  // measure 39
00000100
00000010
00000001
00000010
00000100
00010000
00001000
00010000
00001000
01000000
00100000
10000000
01000000
10000000
00100000
01000000
,  // measure 40
00010000
00100000
00001000
00010000
00001000
00000100
00000010
00001000
00000100
00001000
00000100
00010000
00001000
00100000
00010000
10000000
,  // measure 41
00010000
10000000
00010000
10000000
00100000
00000000
10000000
00000000
00010000
10000000
01000000
00100000
00000000
00010000
00000000
00100000
,  // measure 42
00001000
00010000
00001000
00000000
00010000
00000000
00000100
00000000
00001000
00000100
00010000
00001000
00000000
00010000
00000000
00000100
,  // measure 43
00001000
00000100
00010000
00000000
00001000
00000000
00100000
00000000
00010000
00100000
00010000
10000000
00000000
01000000
00000000
00010000
,  // measure 44
00001000
00010000
01000000
00000000
00100000
00000000
00001000
00000000
00010000
00001000
00000100
00000010
00000000
00001000
00000000
00000010
,  // measure 45
00000100
00001000
00010000
00000000
00101000
00000000
00100000
00000000
00010000
10000000
00000000
10000000
00000000
00100000
00000000
01000000
,  // measure 46
00010000
00000000
01000000
00000000
00110000
00000000
01000000
00000000
00100000
00001000
00000000
00010000
00000000
00001000
00000000
00000100
,  // measure 47
00000010
00000000
00000100
00000000
00001001
00000000
00001000
00000000
00000100
00010000
00000000
00001000
00000000
00100000
00000000
00010000
,  // measure 48
01000000
00000000
00100000
00000000
01010000
00000000
10000000
00000000
01000000
00100000
00000000
00001000
00000000
00010000
00000000
00000100
,  // measure 49
00010000
00000000
00001000
00000000
00011000
00000000
00001000
00000000
00000100
00000010
00000000
00001000
00000000
00000100
00000000
00010000
,  // measure 50
00001000
00000000
00100000
00000000
00110000
00000000
00100000
00000000
01000000
10000000
00000000
01000000
00000000
00010000
00000000
01000000
,  // measure 51
00100000
00000000
00010000
00000000
00101000
00000000
00010000
00000000
00001000
00010000
00000000
00000100
00000000
00001000
00000000
00000010
,  // measure 52
00000100
00000000
00000010
00000000
00001001
00000000
00001000
00000000
00000100
00010000
00000000
00001000
00000000
00010000
00000000
00001000
,  // measure 53
00100000
00000000
00010000
00000000
10010000
00000000
10000000
00000000
01000000
00100000
00000000
00010000
00000000
00100000
00000000
01000000
,  // measure 54
10000000
00000000
00100000
00000000
10010000
00000000
10000000
00000000
00010000
00100000
00000000
00001000
00000000
00010000
00000000
00001000
,  // measure 55
00000100
00000000
00000010
00000000
00001010
00000000
00001000
00000000
00000001
00000100
00000000
00001000
00000000
00010000
00000000
00001000
,  // measure 56
00010000
00000000
00001000
00000000
00101000
00000000
00100000
00000000
00010000
10000000
00000000
01000000
00000000
10000000
00000000
00100000
,  // measure 57
01000000
00000000
00010000
00000000
11000000
00000000
01000000
00000000
00010000
00001000
00000000
00100000
00000000
00010000
00000000
00100000
,  // measure 58
00001000
00000000
00010000
00000000
00010100
00000000
00000100
00000000
00010000
00000100
00000000
00010000
00000000
00001000
00000000
00100000
,  // measure 59
01000000
00000000
10000000
00000000
10010000
00000000
00010000
00000000
00100000
01000000
00000000
00010000
00000000
00001000
00000000
00010000
,  // measure 60
00000100
00000000
00001000
00000000
00001010
00000000
00000010
00000000
00001000
00000000
00000100
00000000
00010000
00000000
00000000
00000100
,  // measure 61
00000000
00010000
00022000
00000000
00000000
00000000
00000000
00000000
,  // measure 62
00000000
00000000
00000000
00000000
,  // measure 63
00000000
00000000
00000000
00000000
,  // measure 64
00000000
00000000
00000000
00000000
,  // measure 65
00033000
00000000
00000000
00000000
;

//---------------dance-double - M. Cerna----------------
#NOTES:
     dance-double:
     M. Cerna:
     Hard:
     7:
     0.546,0.457,0.062,0.026,0.520,424.000,7.000,3.000,0.000,0.000,0.000:
00000000
00000000
00000000
00000000
,
00000000
00000000
00000000
00000000
,
00000000
00000000
00000000
00000000
,
00000000
00000000
00000000
00000000
,
00020000
00000000
00000000
00000000
10030000
00000000
00010000
00000000
00100000
00000000
00000000
01000000
00000000
01000000
00000000
00000000
,
00010000
00000000
00001000
00000000
00010000
00000000
00000010
00000000
00001000
00000000
00000000
00000100
00000000
00000100
00000000
00000000
,
00010000
00000000
00001000
00000000
00100000
00000000
01000000
00000000
00100000
00000000
00000000
00010000
00000000
00010000
00000000
00000000
,
00100000
00000000
00001000
00000000
00010000
00000000
00000100
00000000
00001000
00000000
00000000
00000100
00000000
00000100
00000000
00000000
,
00001000
00000000
00000010
00000000
00000100
00000000
00000010
00000000
00001000
00000000
00000000
00000100
00000000
00010000
00000000
00000000
,
00001000
00000000
00100000
00000000
01000000
00000000
00100000
00000000
00010000
00000000
00000000
00100000
00000000
00001000
00000000
00000000
,
00010000
00000000
00000100
00000000
00001000
00000000
00000010
00000000
00000100
00000000
00000000
00000001
00000000
00000100
00000000
00000000
,
00000100
00000000
00001000
00000000
00010000
00000000
00001000
00000000
00000100
00000000
00000000
00000010
00000000
00001000
00000000
00000000
,
00000100
00000000
00010000
00000000
00011000
00000000
00001000
00000000
00100000
01000000
00000000
01000000
00000000
01000000
00000000
00000000
,
00100000
00000000
01000000
00000000
10000000
00000000
10000000
00000000
01000000
00100000
00000000
00100000
00000000
00100000
00000000
00000000
,
01000000
00000000
00100000
00000000
00001000
00000000
00001000
00000000
00010000
00000100
00000000
00000100
00000000
00000100
00000000
00000000
,
00001000
00000000
00000100
00000000
00000010
00000000
00000010
00000000
00000001
00000100
00000000
00000100
00000000
00000100
00000000
00000000
,
00000010
00000000
00001000
00000000
00001100
00000000
00000100
00000000
00010000
00001000
00000000
00010000
00000000
00001000
00000000
00000000
,
00100000
00000000
01000000
00000000
00010000
00000000
00001000
00000000
00010000
00000100
00000000
00001000
00000000
00000010
00000000
00000000
,
00000100
00000000
00000010
00000000
00001000
00000000
00000100
00000000
00010000
00001000
00000000
00100000
00000000
00010000
00000000
00000000
,
10000000
00000000
01000000
00000000
00010000
00000000
00001000
00000000
00010000
00000100
00000000
00010000
00000000
00001000
00000000
00000000
,
00010000
00000000
00001000
00000000
00000100
00000000
00000010
00000000
00001000
00000001
00000000
00001000
00000000
00000001
00000000
00000000
,
00001000
00000000
00000100
00000000
00010000
00000000
00001000
00000000
00010000
00001000
00000000
00100000
00000000
01000000
00000000
00000000
,
00100000
00000000
00010000
00000000
00100000
00000000
00001000
00000000
00010000
00000100
00000000
00001000
00000000
00000010
00000000
00000000
,
00001000
00000000
00000100
00000000
00010000
00000000
00001000
00000000
00100000
00010000
00000000
00100000
00000000
00001000
00000000
00000000
,
00010000
00000000
00001000
00000000
00000100
00000000
00000010
00000000
00000100
00001000
00000000
00010000
00000000
00100000
00000000
00000000
,
01000000
00000000
00100000
00000000
10000000
00000000
01000000
00000000
00100000
00010000
00000000
00100000
00000000
00010000
00000000
00000000
,
10000000
00000000
10000000
00000000
01000000
00000000
00100000
00000000
00010000
00100000
00000000
00001000
00000000
00010000
00000000
00000000
,
00001000
00000000
00000100
00000000
00000010
00000000
00000100
00000000
00000001
00001000
00000000
00000100
00000000
00010000
00000000
00000000
,
00001000
00010000
00011000
00000000
00001000
00000100
00000010
00000000
,
00000010
00000100
00001000
00000000
00001000
00010000
00100000
00000000
,
00100000
00010000
00001000
00000000
00001000
00010000
01000000
00000000
,
01000000
00010000
00001000
00000000
00001000
00000100
00000010
00000000
,
00000010
00000100
00001000
00010000
00001000
00100000
00010000
00000000
,
10000000
00000000
01000000
00100000
00010000
00000000
00010000
01000000
,
00100000
10000000
01000000
00100000
00010000
00100000
01000000
00000000
,
10000000
00000000
00010000
00100000
00010000
10000000
01000000
10000000
,
00001000
00100000
00001000
00010000
00000010
00010000
00000001
00000100
,
00000010
00001000
00000100
00010000
00001000
00100000
00010000
00100000
,
00001000
00010000
00000100
00001000
00000010
00000100
00000001
00000010
,
00000100
00001000
00000010
00000010
00010000
00010000
00001000
00001000
,
00100000
00000000
00100000
00000000
00011000
00000000
00001000
00000000
00010000
00000000
00000000
00000100
00000000
00000100
00000000
00000000
,
00010000
00000000
00001000
00000000
00000100
00000000
00000010
00000000
00001000
00000000
00000000
00000010
00000000
00000010
00000000
00000000
,
00001000
00000000
00000100
00000000
00010000
00000000
00001000
00000000
00100000
00000000
00000000
01000000
00000000
01000000
00000000
00000000
,
00100000
00000000
01000000
00000000
10000000
00000000
00100000
00000000
01000000
00000000
00000000
00010000
00000000
00010000
00000000
00000000
,
00100000
00000000
00001000
00000000
00011000
00000000
00010000
00000000
00000100
00001000
00000000
00001000
00000000
00001000
00000000
00000000
,
00000010
00000000
00000100
00000000
00000010
00000000
00001000
00000000
00000100
00010000
00000000
00010000
00000000
00010000
00000000
00000000
,
00001000
00000000
00100000
00000000
01000000
00000000
00100000
00000000
00010000
10000000
00000000
10000000
00000000
10000000
00000000
00000000
,
00100000
00000000
01000000
00000000
00010000
00000000
00100000
00000000
00001000
00010000
00000000
00010000
00000000
00010000
00000000
00000000
,
00000100
00000000
00001000
00000000
00000010
00000000
00000100
00000000
00000010
00001000
00000000
00000100
00000000
00001000
00000000
00000000
,
00000100
00000000
00010000
00000000
00001000
00000000
00000100
00000000
00000010
00001000
00000000
00000001
00000000
00001000
00000000
00000000
,
00000010
00000000
00000100
00000000
00001000
00000000
00000100
00000000
00000010
00001000
00000000
00000100
00000000
00010000
00000000
00000000
,
00001000
00000000
00100000
00000000
01000000
00000000
00100000
00000000
00010000
10000000
00000000
01000000
00000000
10000000
00000000
00000000
,
00100000
00000000
01000000
00000000
00010000
00000000
10000000
00000000
01000000
10000000
00000000
00100000
00000000
01000000
00000000
00000000
,
00010000
00000000
10000000
00000000
01000000
00000000
00100000
00000000
01000000
10000000
00000000
01000000
00000000
00100000
00000000
00000000
,
00010000
00000000
00100000
00000000
00001000
00000000
00010000
00000000
00000100
00001000
00000000
00000100
00000000
00001000
00000000
00000000
,
00000100
00000000
00001000
00000000
00000010
00000000
00000100
00000000
00000010
00001000
00000000
00000100
00000000
00010000
00000000
00000000
,
00001000
00000000
00100000
00000000
01000000
00000000
00100000
00000000
00010000
00100000
00000000
00001000
00000000
00010000
00000000
00000000
,
00001000
00000000
00010000
00000000
00001000
00000000
00000100
00000000
00001000
00000100
00000000
00000010
00000000
00001000
00000000
00000000
,
00000100
00000000
00001000
00000000
00000010
00000000
00001000
00000000
00000100
00010000
00000000
00001000
00000000
00000100
00000000
00000000
,
00000010
00000000
00000100
00000000
00001001
00000000
00000001
00000000
00001000
00000000
00001000
00000000
00000010
00000000
00000000
00000010
,
00000000
00010000
00022000
00000000
00000000
00000000
00000000
00000000
,
00033000
00000000
00000000
00000000
;
