#TITLE:Radius;
#SUBTITLE:;
#ARTIST:KURi-ZiLL;
#TITLETRANSLIT:;
#SUBTITLETRANSLIT:;
#ARTISTTRANSLIT:;
#GENRE:Techno;
#CREDIT:;
#BANNER:Radius-bn.png;
#BACKGROUND:Radius-bg.png;
#LYRICSPATH:;
#CDTITLE:;
#MUSIC:Radius.ogg;
#OFFSET:0.002;
#SAMPLESTART:44.040;
#SAMPLELENGTH:11.860;
#SELECTABLE:YES;
#BPMS:0.000=152.006;
#STOPS:;
#BGCHANGES:0.087=Radius.mpg=1.000=1=0=0=StretchNoLoop==CrossFade==,
99999=-nosongbg-=1.000=0=0=0 // don't automatically add -songbackground-;
#KEYSOUNDS:;

//---------------dance-single - D. D'Amato----------------
#NOTES:
     dance-single:
     D. D'Amato:
     Challenge:
     10:
     0.846,0.752,0.247,0.066,1.000,591.000,26.000,7.000,73.000,0.000,0.000,0.846,0.752,0.247,0.066,1.000,591.000,26.000,7.000,73.000,0.000,0.000: // measure 1
0000
0000
0000
0000
,  // measure 2
0000
0000
0000
0000
,  // measure 3
0000
0000
0000
0000
,  // measure 4
0000
0000
0000
0000
,  // measure 5
0010
0001
0100
0010
0100
0001
1000
1001
,  // measure 6
0000
0MM0
0000
0011
0000
1100
1000
0001
,  // measure 7
0100
0000
0010
1000
0100
0010
0100
1000
,  // measure 8
0001
0000
0100
0000
0010
0100
0000
0010
0000
1000
0001
0000
0100
0000
0001
0000
,  // measure 9
1000
0100
1000
0100
0010
0000
0001
0000
0100
0010
0100
0010
1000
0000
0001
0000
,  // measure 10
1000
0010
1000
0010
0100
0000
0001
0000
0010
0100
0010
0100
1000
0000
0001
0000
,  // measure 11
1000
0001
1000
0001
0100
0000
0010
0000
1000
0001
1000
0001
0010
0000
0002
0000
,  // measure 12
0100
0000
0000
0000
0013
0000
0000
1100
0000
0000
0011
0000
0100
0000
2000
0000
,  // measure 13
0010
0000
0000
0000
3100
0000
0000
00MM
0000
0000
0M00
0000
1100
0000
0000
0000
,  // measure 14
M021
0000
0130
000M
1000
0010
0100
0001
,  // measure 15
0M00
1000
0010
M000
0101
0000
1010
0000
,  // measure 16
1001
0000
0100
0000
0010
1000
0000
0001
0000
1000
0100
0010
0001
1000
0010
1000
,  // measure 17
0001
0100
0001
0100
0010
0000
1000
0000
0100
0010
0100
0010
0001
0000
1000
0000
,  // measure 18
0001
0010
0001
0010
0100
0000
1000
0000
0010
0100
0010
0100
0001
0000
1000
0000
,  // measure 19
0001
1000
0001
1000
0100
0000
0010
0000
0001
1000
0001
1000
0010
0000
2000
0000
,  // measure 20
0100
0000
0000
0000
3010
0000
0000
0101
0000
0000
1010
0000
0100
0000
0002
0000
,  // measure 21
0010
0103
M0M0
0101
,  // measure 22
1010
0000
0110
0000
0001
0010
0100
1000
,  // measure 23
0010
0M00
1001
00M0
0100
00M0
1001
0M00
,  // measure 24
0010
0M00
M00M
0010
0M00
0010
100M
0M00
,  // measure 25
0010
1000
1000
0001
0010
0010
0100
0010
,  // measure 26
0001
0000
1000
0000
1000
0000
0010
0000
0100
0000
0100
0000
0010
0000
1000
0001
,  // measure 27
1000
0100
0010
000M
1000
0100
0010
000M
,  // measure 28
1000
0100
0010
0001
M000
0100
0010
0001
,  // measure 29
0010
0001
0001
1000
0010
0010
0100
0010
,  // measure 30
1000
0000
0001
0000
0001
0000
0010
0000
0100
0000
0100
0000
0010
0000
0001
1000
,  // measure 31
0001
0100
0010
M000
0001
0100
0010
M000
,  // measure 32
0001
0100
0010
1000
000M
0100
0010
1000
,  // measure 33
0010
0000
0000
0000
0000
0000
1000
0000
0000
0000
0000
0000
0100
0000
0000
0000
0000
0000
1000
0000
0001
0000
1000
0000
0001
0000
0000
0000
0000
0000
0010
0000
0000
0001
0000
0000
0000
0000
0000
0000
0000
0000
1000
0000
0000
0010
0000
0000
,  // measure 34
1000
0000
0001
0000
0100
0000
0001
0000
1010
0000
0000
1001
0000
0000
0101
0000
,  // measure 35
0010
0000
0000
0000
0000
0000
0001
0000
0000
0000
0000
0000
0100
0000
0000
0000
0000
0000
0001
0000
1000
0000
0001
0000
1000
0000
0000
0000
0000
0000
0010
0000
0000
1000
0000
0000
0000
0000
0000
0000
0000
0000
0001
0000
0000
0010
0000
0000
,  // measure 36
0001
0000
1000
0000
0100
0000
1000
0000
0011
0000
0000
1001
0000
0000
1100
0000
,  // measure 37
0001
0000
0000
0000
0000
0000
0010
0000
0000
0000
0000
0000
0100
0000
0000
0000
0000
0000
0010
0000
0100
0000
0010
0000
0100
0000
0000
0000
0000
0000
1000
0000
0000
0100
0000
0000
0000
0000
0000
0000
0000
0000
1000
0000
0000
0001
0000
0000
,  // measure 38
1000
0000
0001
0000
0100
0000
0010
0000
0110
0000
0000
1001
0000
0000
0110
0000
,  // measure 39
0010
0000
0100
0000
0010
0000
0002
0000
0000
1003
0100
0000
0010
0000
0001
1000
,  // measure 40
0001
0000
0100
0000
0010
0000
2000
0000
0000
3001
0100
0000
0010
0000
1000
0000
,  // measure 41
0100
0000
0010
0001
0000
0001
1000
0000
1000
0010
0000
0010
0100
0000
0100
0000
,  // measure 42
0001
0000
0000
0000
1000
0000
0000
0000
0001
0000
0000
0000
0100
0000
0000
0000
0010
0000
0000
0000
0100
0000
0000
0000
0001
0000
0000
0000
1000
0000
0000
0000
0001
0000
0000
0000
1000
0000
0000
0100
0000
0000
0000
0000
0000
0010
0000
0000
,  // measure 43
0100
1000
0010
0100
0010
0100
0010
1000
0100
0010
0100
0010
,  // measure 44
0100
1000
0010
0100
0010
0100
0010
1000
0100
0010
0100
0010
,  // measure 45
0100
0001
0010
0100
0010
0100
0010
0001
0100
0010
0100
0010
,  // measure 46
0100
0001
0010
0100
0010
0100
0010
0001
0010
0100
1000
0010
,  // measure 47
0100
1000
0010
0100
0010
0100
0010
1000
0100
0010
0100
0010
,  // measure 48
0100
1000
0010
0100
0010
0100
0010
1000
0100
0010
0100
0010
,  // measure 49
0100
0001
0010
0100
0010
0100
0010
0001
0100
0010
0100
0010
,  // measure 50
0100
0001
0000
0001
1000
0000
1000
0100
0000
0100
0010
0000
,  // measure 51
0010
0001
0100
0010
0100
0010
0100
0001
0010
0100
0010
0100
,  // measure 52
0010
0001
0100
0010
0100
0010
0100
0001
0010
0100
0010
0100
,  // measure 53
0010
1000
0100
0010
0100
0010
0100
1000
0010
0100
0010
0100
,  // measure 54
0010
1000
0100
0010
0100
0010
0100
1000
0100
0010
0001
0100
,  // measure 55
0010
0001
0010
0100
1000
0001
0100
0001
1000
0100
0010
0001
,  // measure 56
1000
0010
1000
0001
0010
0100
1000
0001
0100
0001
1000
0100
,  // measure 57
0010
0001
0010
0100
1000
0100
0010
0001
0010
0100
1000
0100
,  // measure 58
0010
M001
0100
0010
100M
0010
0100
M001
0010
0100
100M
0100
,  // measure 59
0010
1000
010M
M010
010M
M010
010M
1000
001M
M100
001M
M100
,  // measure 60
001M
1000
010M
M010
010M
M010
010M
1000
001M
M100
001M
M100
,  // measure 61
0010
0001
M100
001M
M100
001M
M100
0001
M010
010M
M010
010M
,  // measure 62
M010
0001
M100
001M
M100
001M
M100
0001
M010
010M
1000
001M
,  // measure 63
0100
1000
0100
0010
0001
1000
0010
1000
0001
0010
0100
1000
,  // measure 64
0001
0100
0001
1000
0100
0010
0001
1000
0010
1000
0001
0010
,  // measure 65
0100
1000
0100
0010
0001
0010
0100
1000
0100
0010
0001
0010
,  // measure 66
0100
1000
0010
0100
M001
0100
0010
100M
0100
0010
M100
0001
,  // measure 67
00M0
0M00
0000
0000
0000
0000
0000
0000
0000
0000
0000
0000
;

//---------------dance-single - D. D'Amato----------------
#NOTES:
     dance-single:
     D. D'Amato:
     Hard:
     8:
     0.602,0.563,0.256,0.351,0.479,380.000,27.000,37.000,0.000,0.000,0.000,0.602,0.563,0.256,0.351,0.479,380.000,27.000,37.000,0.000,0.000,0.000:
0000
0000
0000
0000
,
0000
0000
0000
0000
,
0000
0000
0000
0000
,
0000
0000
0000
0000
,
0001
0010
0002
0000
0000
1000
0000
2003
,
0000
0000
0000
0010
0000
3010
0100
0020
,
0000
1000
0000
0130
,
0010
0100
0010
1000
0100
0010
0001
0010
,
0210
1000
0310
0001
,
0201
0010
0301
1000
,
1002
0000
0010
0000
1003
0100
0010
0002
,
0000
0000
0013
0000
0001
0010
0100
2000
,
0000
3100
0010
0001
,
0201
0000
0310
0000
0010
0100
0010
1000
,
0000
0001
0020
0000
0130
0000
1001
0000
,
1000
0100
0001
0100
1000
0010
0001
0010
,
0210
0001
0310
1000
,
1200
0010
1300
0001
,
2001
0000
0010
0000
3001
0100
0010
2000
,
0000
0000
3010
0000
1000
0010
0100
0002
,
0000
0103
0010
1000
,
1100
0000
0011
0000
0010
0100
0010
0002
,
0000
1000
0010
0103
,
2010
0000
0000
0001
0000
3010
0100
0000
,
0020
0000
1030
0001
0200
0000
0310
1000
,
0002
0000
1003
0100
0020
0000
0031
1000
,
0200
0001
1000
0001
,
1300
0001
0010
0100
0000
0100
0010
0001
,
0020
0000
0031
1000
0200
0000
0310
0001
,
2000
0000
3001
0100
0020
1000
1030
0001
,
0200
1000
0001
1000
,
0301
1000
0010
0100
0000
0100
0010
0100
,
0020
0000
1030
0000
0001
0100
0010
1000
,
2000
0000
0000
0000
0000
0000
0000
0000
0010
0000
0000
0001
0000
0000
3100
0000
,
1200
0000
0310
0000
0100
1000
0001
0100
,
0200
0000
0000
0000
0000
0000
0000
0000
0310
0000
0000
1001
0000
0000
0110
0000
,
0020
0000
0031
0000
1000
0100
0010
0001
,
0002
0000
0000
0000
0000
0000
0000
0000
0100
0000
0000
1000
0000
0000
0013
0000
,
0021
0000
0000
0130
0000
0010
0001
0100
,
0020
0000
0000
0130
0000
0010
1000
0100
,
0010
0000
0100
0000
0000
1000
0000
0000
0001
0000
0000
0010
0000
0000
0100
0000
,
2002
0000
0000
0000
0000
0000
0000
0000
0000
0000
3003
0000
0000
0100
0000
0000
,
0010
0000
0010
0001
0000
0001
1000
0000
1000
0100
0000
0100
,
0010
0000
0010
0001
0000
0001
1000
0000
1000
0100
0000
0000
,
1001
0000
0010
1000
0000
1000
0001
0000
0001
0100
0000
0100
,
0010
0000
0010
1000
0000
1000
0001
0100
0001
1000
0100
0000
,
1001
0000
0010
0001
0000
0001
1000
0000
1000
0100
0000
0100
,
0010
0000
0010
0001
0000
0001
1000
0000
1000
0100
0000
0000
,
1001
0000
0010
1000
0000
1000
0001
0000
0001
0100
0000
0100
,
0010
0101
1001
1100
,
0110
0000
0010
0001
0000
0001
1000
0000
1000
0100
0000
0100
,
0010
0000
0010
0001
0000
0001
1000
0000
1000
0100
0000
0000
,
1001
0000
0010
1000
0000
1000
0001
0000
0001
0100
0000
0100
,
0010
0000
0010
1000
0000
1000
0001
0100
0001
1000
0100
0000
,
1001
0000
0000
0100
0001
0010
0100
0000
0000
0010
0001
0100
,
0010
0000
0000
0100
0001
0010
0100
0000
0000
0010
0001
0100
,
0010
1000
0000
0010
0100
0000
0010
0001
0000
0010
0100
0010
,
0100
0001
0000
0100
0010
0000
0100
1000
0000
0100
0010
0100
,
0001
0000
0010
0001
0000
0010
0100
0000
1000
0100
0000
1000
,
0001
0000
0010
0001
0000
0010
0100
0000
1000
0100
0000
0000
,
1001
0000
0010
1000
0000
0010
0100
0000
0001
0100
0000
0001
,
1000
0000
0010
1000
0000
0001
1000
0100
1000
0001
0100
0000
,
1001
0000
0000
0100
1000
0010
0100
0000
0000
0010
1000
0100
,
0010
0000
0000
0100
1000
0010
0100
0000
0000
0010
1000
0100
,
0010
0001
0000
0010
0100
0000
0010
1000
0000
0010
0100
0010
,
0100
1000
0000
0100
0010
0000
0100
0001
0000
0100
0010
0100
;

//---------------dance-single - D. D'Amato----------------
#NOTES:
     dance-single:
     D. D'Amato:
     Medium:
     7:
     0.508,0.563,0.228,0.332,0.337,316.000,24.000,35.000,0.000,0.000,0.000,0.508,0.563,0.228,0.332,0.337,316.000,24.000,35.000,0.000,0.000,0.000:
0000
0000
0000
0000
,
0000
0000
0000
0000
,
0000
0000
0000
0000
,
0000
0000
0000
0000
,
0010
0000
0020
0000
0000
0100
0000
0230
,
0000
0000
0000
0010
0000
0310
0000
0220
,
0000
0000
0000
0330
,
0010
1000
0100
0000
0010
0001
0100
0000
,
0101
0000
0010
0000
1000
0010
1000
0000
,
1100
0000
0010
0000
0001
0010
0001
0000
,
1002
0000
0103
0000
0000
0010
0100
0020
,
0000
0000
1030
0000
0000
0100
0010
0200
,
0000
1300
0010
1001
,
0200
0000
0310
0000
0100
1000
0001
1000
,
0000
0001
0200
0000
0310
0000
1000
0000
,
0100
0010
0001
0001
0010
0100
1000
1000
,
1100
0000
0010
0000
0001
0010
0001
0000
,
0101
0000
0010
0000
1000
0010
1000
0000
,
2001
0000
3100
0000
0000
0010
0100
0020
,
0000
0000
0031
0000
0000
0100
0010
0200
,
0000
0301
0010
1001
,
0100
0000
0010
0000
0001
1000
0001
0200
,
0000
0000
0310
1000
,
0110
0000
0000
1001
0000
0010
0100
0000
,
0002
0000
0000
2003
0100
0000
0000
3200
,
0010
0000
0000
0320
0001
0000
0000
0032
,
0000
1000
0000
1003
,
0001
0100
0010
0100
0000
0010
0100
0010
,
2000
0000
0000
3002
0100
0000
0000
0203
,
0010
0000
0000
0310
1000
0001
1000
2000
,
0000
0001
0000
3001
,
1000
0100
0010
0100
0000
0010
0100
0010
,
0002
0000
0100
0000
0013
0100
1000
0000
,
2020
0000
0000
3030
,
0200
0000
0010
0000
0301
0010
0100
0000
,
0220
0000
0000
0330
,
2000
0000
0100
0000
3010
0100
0001
0000
,
0022
0000
0000
0033
,
0001
1000
0001
0200
0000
0000
0010
0000
,
0301
1000
0001
0020
0000
0000
0000
0000
,
0031
0000
1000
0000
0000
0100
0000
0000
1000
0000
0000
0001
0000
0000
0100
0000
,
2002
0000
0000
3003
,
0010
0000
0010
1000
0000
0000
0100
0000
0100
1000
0000
0000
,
0010
0000
0010
1000
0000
0000
0100
0000
0100
1000
0000
0000
,
0110
0000
0010
0001
0000
0000
0100
0000
0100
0001
0000
0000
,
0010
0000
0010
0001
0000
0000
0100
0000
0100
0001
0000
0001
,
1000
0000
1000
0100
0000
0000
0010
0000
0010
0001
0000
0000
,
1000
0000
1000
0100
0000
0000
0010
0000
0010
0001
0000
0000
,
0110
0000
0100
1000
0000
1000
0001
0000
0001
0100
0000
0000
,
0101
0011
1100
1010
,
0110
0000
0100
0001
0000
0000
0010
0000
0010
0001
0000
0000
,
0100
0000
0100
0001
0000
0000
0010
0000
0010
0001
0000
0000
,
0110
0000
0100
1000
0000
0000
0010
0000
0010
1000
0000
0000
,
0100
0000
0100
1000
0000
0000
0010
0000
0010
1000
0000
1000
,
0001
0000
0000
1000
0100
1000
0000
0000
0000
0001
0010
0001
,
0000
0000
0000
1000
0100
1000
0000
0000
0000
0001
0010
0001
,
1000
0001
0000
1000
0100
0000
1000
0001
0000
1000
0100
1000
,
0001
0010
0000
0001
1000
0000
0001
0100
0000
0001
0010
0001
,
1000
0000
1000
0100
0000
0000
0100
0000
0100
0010
0000
0000
,
0010
0000
0010
0001
0000
0000
0001
0000
0001
0100
0000
0000
,
0110
0000
0010
1000
0000
0000
1000
0000
1000
0100
0000
0000
,
0100
0000
0100
0010
0000
0000
0010
0000
0010
0001
0000
0000
,
1000
0000
0000
0001
0100
0001
0000
0000
0000
1000
0010
1000
,
0000
0000
0000
0001
0100
0001
0000
0000
0000
1000
0010
1000
,
0001
1000
0000
0001
0100
0000
0001
1000
0000
0001
0100
0001
,
1000
0010
0000
1000
0001
0000
1000
0100
0000
1000
0010
1000
;

//---------------dance-single - D. D'Amato----------------
#NOTES:
     dance-single:
     D. D'Amato:
     Easy:
     5:
     0.378,0.501,0.066,0.579,0.000,211.000,7.000,61.000,0.000,0.000,0.000,0.378,0.501,0.066,0.579,0.000,211.000,7.000,61.000,0.000,0.000,0.000:
0000
0000
0000
0000
,
0000
0000
0000
0000
,
0000
0000
0000
0000
,
0000
0000
0000
0000
,
1001
0000
0002
0000
0000
1000
0000
2003
,
0000
0000
0000
0001
0000
3000
0000
2002
,
0000
0000
0000
3003
,
0010
0000
1000
0000
0001
0010
0100
0000
,
1002
0010
0000
0103
,
2000
0010
0000
3100
,
0020
0000
0001
0000
0000
0000
0130
2000
,
0000
0000
3010
0000
0000
0000
0100
0002
,
0000
0013
0100
1000
,
0200
0000
0310
0000
0001
0010
0000
0100
,
0000
0010
0002
0000
0103
0000
0010
0000
,
1000
0010
0001
0010
,
2001
0010
0000
3100
,
0002
0010
0000
0103
,
0020
0000
1000
0000
0000
0000
0130
0002
,
0000
0000
0013
0000
0000
0000
0100
2000
,
0000
3010
0100
0001
,
0100
0000
0010
0000
1000
0000
0010
0200
,
0000
0000
0000
0300
,
0010
0000
0000
0100
0000
0001
1000
0000
,
0002
0000
0000
0203
0000
0000
0000
2300
,
0000
0000
0000
3200
0000
0000
0000
0302
,
0000
0100
0000
0103
,
0001
1000
0000
0100
,
2000
0000
0000
3200
0000
0000
0000
0302
,
0000
0000
0000
0203
0000
0000
0000
2300
,
0000
0100
0000
3100
,
1000
0000
0001
0000
0000
0000
1000
0001
,
2000
0000
3010
0100
,
0020
0000
1000
0130
,
0200
0000
0301
1000
,
0200
0000
1000
0310
,
0002
0000
0013
0100
,
0020
0000
0001
0130
,
0100
0000
0010
0002
0000
0000
0000
0000
,
0103
0000
0010
2000
0000
0000
0000
0000
,
3100
0010
0001
0100
,
2002
0000
0000
3003
,
0010
1000
0100
0001
,
0010
1000
0100
0001
,
0010
0001
0100
1000
,
0010
0001
0100
1000
,
0010
1000
0100
0001
,
0010
1000
0100
0001
,
0010
0001
0100
1000
,
0010
0101
0010
1100
,
0010
0001
0100
1000
,
0010
0001
0100
1000
,
0010
1000
0100
0001
,
0010
1000
0100
0001
,
0020
0130
2000
3010
,
0200
0301
0020
0130
,
2000
3002
0023
0230
,
2300
3020
0230
0302
,
0103
1000
0010
0001
,
0100
1000
0010
0001
,
0100
0001
0010
1000
,
0100
0001
0010
1000
,
0200
0310
0002
0103
,
0020
1030
0200
0310
,
0002
2003
3200
0320
,
0032
0203
0320
2030
,
3000
0000
0000
0000
;

//---------------dance-double - M. Emirzian----------------
#NOTES:
     dance-double:
     M. Emirzian:
     Easy:
     3:
     0.222,0.251,0.028,0.038,0.000,157.000,3.000,4.000,0.000,0.000,0.000,0.222,0.251,0.028,0.038,0.000,157.000,3.000,4.000,0.000,0.000,0.000:
00000000
00000000
00000000
00000000
,
00000000
00000000
00000000
00000000
,
00000000
00000000
00000000
00000000
,
00000000
00000000
00000000
00000000
,
01010000
00100000
00000000
10000000
,
00000000
01000000
00000000
00010000
,
00000000
00001000
00000000
00000010
,
00000010
00000000
00000001
00000000
,
00001000
00000100
00000000
00000010
,
00000100
00001000
00000000
00000001
,
00000010
00001000
00000000
00010000
,
00100000
10000000
00000000
01000000
,
10000000
00100000
00000000
01000000
,
00010000
10000000
00000000
00000000
,
00100000
00000000
00010000
00000000
,
00001000
00001000
00001000
00000000
,
00010000
00001000
00000000
00000100
,
00001000
00000010
00000000
00000100
,
00000001
00000010
00000000
00001000
,
00000010
00000100
00000000
00001000
,
00001000
00010000
00000000
00100000
,
00000000
10000000
00000000
01000000
,
00000000
00100000
00000000
00010000
,
01000000
00000000
00001000
00010000
,
00000100
00000000
00001000
00000000
,
00000010
00001000
00000100
00000000
,
00000010
00000001
00000000
00001000
,
00000100
00000000
00001000
00000000
,
00000010
00000000
00010000
00000000
,
00001000
01000000
00010000
00000000
,
00100000
00100000
00000000
00001000
,
00001000
00000000
01000000
00000000
,
00010000
00000000
10000000
00000000
,
01000000
00100000
00010000
00000000
,
00100000
00001000
00000000
00010000
,
00000100
00000000
00001000
00000000
,
00000010
00000010
00000000
00001000
,
00000001
00000100
00000000
00000000
,
00001000
00000010
00010000
00000000
,
00001000
00000000
00010000
00000000
,
02002000
00000000
00000000
03003000
,
02020000
00000000
00000000
03030000
,
00100000
00000000
00100000
00000000
,
00100000
00000000
00100000
00000000
,
10000000
01000000
00100000
00000000
,
00010000
00001000
00000100
00000000
,
00000001
00000000
00000001
00000000
,
00000001
00000000
00000001
00000000
,
00000010
00001000
00000100
00000000
,
00010000
00001000
00000100
00000000
,
00001000
00000000
00001000
00000000
,
00001000
00000000
00001000
00000000
,
00010000
00001000
01000000
00000000
,
00010000
01000000
10000000
00000000
,
01000000
00000000
01000000
00000000
,
01000000
00000000
01000000
00000000
,
00010000
10000000
01000000
00000000
,
00100000
00001000
00010000
00000000
,
00001000
00000000
00001000
00000000
,
00001000
00000000
00001000
00000000
,
00010000
00001000
00000010
00000000
,
00000010
00000100
00001000
00000000
,
00000010
00000000
00000010
00000000
,
00000010
00000000
00000010
00000000
,
00000010
00001000
00000100
00000000
,
00010000
00001000
01000000
00010000
,
00100000
00000000
00000000
00000000
;

//---------------dance-double - M. Emirzian----------------
#NOTES:
     dance-double:
     M. Emirzian:
     Medium:
     6:
     0.405,0.375,0.180,0.038,0.009,276.000,19.000,4.000,0.000,0.000,0.000,0.405,0.375,0.180,0.038,0.009,276.000,19.000,4.000,0.000,0.000,0.000:
00000000
00000000
00000000
00000000
,
00000000
00000000
00000000
00000000
,
00000000
00000000
00000000
00000000
,
00000000
00000000
00000000
00000000
,
00100000
00000000
01000000
00000000
00010000
00100000
00000000
00100000
,
00000000
00100000
01000000
00000000
10000000
00010000
00000000
00010000
,
01000000
00000000
00100000
00000000
00010000
00001000
00000000
00001000
,
00000010
00000001
00001000
00000001
,
00000100
00000010
00001000
00000000
00000010
00001000
00000100
00000000
,
00001000
00000100
00010000
00000000
00000100
00010000
00001000
00000000
,
00010000
00001000
01000000
00000000
00001000
00010000
00000100
00001000
,
00000000
00000000
00000100
00000000
00010000
00001000
01000000
00010000
,
00000000
01000000
00100000
10000000
,
00010000
00000000
00000000
00000000
10000000
01000000
00100000
00010000
,
00000000
10000000
10000000
00000000
00100000
00000000
01000000
00000000
,
00010000
00000000
00100000
00010000
00100000
00000000
00001000
00000000
,
00010000
00000100
00001000
00000000
00000100
00001000
00000010
00000000
,
00000100
00000010
00001000
00000000
00000001
00001000
00000100
00000000
,
00000010
00000100
00001000
00000000
00000010
00000100
00001000
00010000
,
00000000
00000000
00100000
00000000
01000000
00100000
00010000
00001000
,
00000000
00010000
00001000
01000000
,
00010000
00000000
01000000
00000000
00100000
10000000
00010000
01000000
,
00000000
10000000
01000000
00100000
,
00110000
00000000
00000000
00101000
00000000
00010000
00010000
00000000
,
00001000
00000000
00000000
00010100
00000000
00000000
00000000
00001010
,
00000000
00000000
00000000
00000101
00000000
00000000
00000000
00001001
,
00000000
00000010
00001000
00000100
,
00000010
00000100
00001000
00000100
00000000
00000100
00010000
00001000
,
00000000
00000000
00000000
00010100
00000000
00000000
00000000
00011000
,
00000000
00000000
00000000
01001000
00000000
00000000
00010000
01000000
,
00000000
00100000
10000000
01000000
,
00100000
00010000
10000000
01000000
00000000
01000000
00100000
00010000
,
00100000
00001000
00010000
00000000
,
00010000
00000000
00000000
00001000
00000000
00000000
00010000
00000000
00001000
00000000
00000000
00000000
00010000
00000000
00000000
00000000
,
00000100
00000000
00001100
00000000
,
00000010
00000100
00000001
00000010
,
00001000
00010000
00100000
00000000
,
01000000
00000000
00000000
00010000
00000000
00000000
01000000
00000000
00010000
00000000
00000000
00000000
01000000
00000000
00000000
00000000
,
00100000
00100000
00000000
10010000
00000000
00000000
00000000
00000000
,
00010000
10000000
00000000
01100000
00000000
00000000
01000000
00000000
,
02002000
00000000
00000000
03003000
,
00022000
00000000
00000000
00033000
,
00010000
00001000
00010000
00001000
,
00010000
00000100
00001000
00000000
00000100
00001000
00000010
00000000
,
00000100
00000001
00000100
00000001
,
00000100
00000010
00000000
00000010
00001000
00000010
00001000
00000000
,
00000100
00010000
00000100
00010000
,
00001000
01000000
00010000
00000000
01000000
00100000
10000000
00000000
,
01000000
00100000
01000000
00100000
,
00010000
01010000
00001000
00011000
,
00010000
00000010
00010000
00000010
,
00001000
00000010
00000100
00000000
00000010
00000100
00000001
00000000
,
00001000
00000100
00001000
00000100
,
00000010
00000001
00000000
00000001
00001000
00000010
00000100
00000000
,
00000010
00001000
00000010
00001000
,
00000100
00010000
00001000
00000000
00010000
00001000
01000000
00000000
,
00010000
00100000
00010000
00100000
,
01000000
11000000
00010000
01010000
,
01000000
00001000
01000000
00001000
,
00010000
00000100
00001000
00000000
00000100
00010000
00001000
00000000
,
00010000
00000010
00010000
00000010
,
00001000
00000010
00000000
00000010
00000100
00000001
00001000
00000000
,
00000100
00000010
00000100
00000010
,
00000001
00001000
00000100
00000000
00001000
00000100
00010000
00000000
,
00001000
01000000
00001000
01000000
,
00010000
00000000
00110000
00000000
10000000
00000000
01000000
01000000
;

//---------------dance-double - M. Emirzian----------------
#NOTES:
     dance-double:
     M. Emirzian:
     Hard:
     8:
     0.530,0.500,0.218,0.038,0.214,364.000,23.000,4.000,0.000,0.000,0.000,0.530,0.500,0.218,0.038,0.214,364.000,23.000,4.000,0.000,0.000,0.000:
00000000
00000000
00000000
00000000
,
00000000
00000000
00000000
00000000
,
00000000
00000000
00000000
00000000
00000000
00100000
00000000
00010000
,
00000000
10000000
00000000
00010000
00100000
00010000
10000000
01000000
,
00100000
00000000
00110000
00000000
00100000
00001000
00010000
00000100
,
00000000
00000100
00000010
00000000
00000001
00000100
00000000
00001000
,
00000110
00000000
00001010
00000000
00000100
00000010
00001000
00000001
,
00000100
00000000
00000010
00000000
00001000
00000000
00000000
00000010
00000000
00001000
00000010
00000000
00001000
00000000
00000100
00000000
,
00010000
00000100
00010000
00001000
00010000
00001000
01000000
00010000
,
01000000
00100000
10000000
00100000
01000000
00010000
10000000
01000000
,
00100000
00010000
00100000
00001000
00010000
00000100
00010000
00001000
,
00000000
00000000
00010000
00000000
00001000
00000000
00000000
01000000
00000000
00000000
01000000
00000000
00001000
00000000
00010000
00000000
,
00000010
00001000
00000010
00000100
00000001
00000100
00000010
00001000
,
00000200
00000000
00000000
00000000
00000310
00000001
00001000
00000100
,
00000000
00000100
00010000
00000000
00001000
00000000
01000000
00000000
,
00010000
01000000
00100000
10000000
00100000
01000000
00010000
01000000
,
00001000
01000000
00010000
01000000
00100000
10000000
01000000
00100000
,
00010000
00100000
00001000
00100000
00010000
01000000
00010000
00100000
,
00001000
00010000
00000010
00001000
00000100
00001000
00000010
00000100
,
00000000
00000010
00000100
00000001
00000000
00000010
00000100
00001000
,
00000001
00000100
00000010
00001000
00000100
00010000
00001000
01000000
,
00010000
00000000
00110000
00000000
10000000
01000000
00100000
00010000
,
00000000
00010000
01000000
00001000
00010000
00000010
00001000
00000010
,
00000100
00000000
00000000
00001001
00000000
00000010
00000100
00000000
,
00000001
00000000
00000001
00001000
00000000
00000000
00001000
00010000
,
00000000
00000000
00010000
10000000
00000000
00000000
10000000
01000000
,
00000000
00101000
00011000
00010100
,
00001000
00010000
00001000
01000000
00000000
01000000
00100000
10000000
,
00000000
00000000
10000000
00010000
00000000
00000000
00010000
00001000
,
00000000
00000000
00001000
00000001
00000000
00000001
00001000
00000100
,
00000000
00000110
00000011
00001001
,
00000010
00000100
00001000
00000001
00000000
00000001
00000100
00000010
,
00001000
00000000
00000000
00000010
00000000
00000000
00010000
00000000
00001000
00000000
00000000
00000000
00000000
00000000
00010000
00000000
,
00010000
00000000
00000000
00001000
00000000
00000000
01000000
00000000
00100000
00000000
00000000
01000000
00000000
00000000
00010000
00000000
,
01000000
00000000
00000000
00100000
00000000
00000000
10000000
00000000
01000000
00000000
00000000
00000000
00000000
00000000
00100000
00000000
,
00100000
00000000
00000000
00010000
00000000
00000000
00100000
00000000
01000000
00000000
00000000
10000000
00000000
00000000
00010000
00000000
,
01000000
00000000
00000000
00001000
00000000
00000000
00010000
00000000
00000100
00000000
00000000
00000000
00000000
00000000
00000010
00000000
,
00000010
00000000
00000000
00000001
00000000
00000000
00001000
00000000
00000100
00000000
00000000
00001000
00000000
00000000
00000001
00000000
,
00000100
00000010
00001000
00000200
00000000
00000000
00000000
00000000
,
00001300
00000000
00000100
00000000
00010000
00000000
00001000
00000000
00000000
00010000
00001000
00000000
01000000
00000000
00010000
00000000
,
01000000
00000000
00100000
00000000
00000000
10000000
00000000
00000000
01000000
00000000
00000000
00100000
00000000
00000000
00010000
00000000
,
20020000
00000000
00000000
30030000
,
10000000
00100000
01000000
00010000
,
00100000
00000000
00010000
10000000
00000000
00010000
01000000
00000000
00100000
10000000
00000000
00000000
,
01000000
00100000
00001000
00010000
,
00001000
00010000
00001000
00010000
00000000
00000000
00000010
00001000
00000010
00000100
00000000
00000000
,
00000001
00000010
00000100
00001000
,
00000010
00001000
00000000
00001100
00000000
00000000
00010000
00001000
00000000
00010100
00000000
00000000
,
00010000
00001000
01000000
00010000
,
01000000
00010000
10010000
00000000
01000000
00100000
10010000
00000000
,
10000000
00100000
01000000
00010000
,
01000000
00000000
00010000
00100000
00000000
00001000
00010000
00000000
00001000
01000000
00000000
00000000
,
00001000
00010000
00000010
00001000
,
00000100
00000010
00000001
00000010
00000000
00000000
00000100
00001000
00000100
00001000
00000000
00000000
,
00000010
00000100
00001000
00010000
,
00001000
01000000
00000000
01010000
00000000
00000000
01000000
00100000
00000000
10010000
00000000
00000000
,
10000000
01000000
00100000
00010000
,
00100000
00010000
10010000
00000000
01000000
00100000
10010000
00000000
,
00100000
01000000
00001000
00010000
,
00000100
00000000
00001000
00000100
00000000
00000010
00000001
00000000
00001000
00000010
00000000
00000000
,
00000100
00000001
00000100
00000010
,
00001000
00000010
00001000
00000010
00000000
00000000
00010000
00001000
00010000
00000100
00000000
00000000
,
00010000
00001000
01000000
00010000
,
01000000
00100000
00000000
10010000
00000000
00000000
10000000
01000000
00000000
00110000
00000000
00000000
,
00100000
00001000
00010000
00000010
,
00001000
00000000
00000000
00000100
00000000
00000000
00010100
00000000
00000000
00000000
00000000
00000000
00001000
00000000
00000000
00000000
00000100
00000000
00001000
00000000
00000001
00000000
00000010
00000000
;

//---------------dance-double - M. Emirzian----------------
#NOTES:
     dance-double:
     M. Emirzian:
     Challenge:
     9:
     0.708,0.688,0.190,0.047,0.759,497.000,20.000,5.000,6.000,0.000,0.000,0.708,0.688,0.190,0.047,0.759,497.000,20.000,5.000,6.000,0.000,0.000:
00000000
00000000
00000000
00000000
,
00000000
00000000
00000000
00000000
,
00000000
00001000
000MM000
00001000
00000000
00001000
00000000
00010000
,
000MM000
00010000
00000000
00010000
00001000
01000000
00010000
01000000
,
00100000
10000000
01000000
00000000
00100000
00010000
01000000
00100000
,
00000000
10000000
00010000
00000000
00010000
00001000
00000000
00001000
,
00000001
00000000
00000010
00000000
00000001
00001000
00000000
00001000
,
00010000
00000000
00000100
00000000
00010000
00000000
00000000
00001000
00000000
00010000
00000010
00000000
00010000
00000000
00001000
00000000
,
01000000
00000000
00010000
01000000
00100000
00000000
10000000
00000000
00000000
00000000
00001000
01000000
00010000
00000000
00100000
00000000
,
00000000
00000000
00000010
00010000
00001000
00000000
00010000
00000000
00000000
00000000
00000010
00001000
00000100
00000000
00010000
00000000
,
00000000
00010000
00000010
00001000
00000100
00010000
00001000
01000000
,
0M000000
00000000
01000000
00000000
00100000
00000000
00000000
01000000
00000000
00000000
00001000
00000000
00010000
00000000
00001000
00000000
,
01000000
00100000
10000000
00010000
01000000
00100000
10000000
01000000
,
00200000
00000000
00000000
00000000
00300010
00010000
00001000
01000000
,
00000000
00000000
01000000
00000000
01001000
00000000
00000000
00000000
00010000
00000000
00000000
00000000
00001100
00000000
00000000
00000100
,
00000010
00000000
00000001
00000000
00001000
00000000
00000010
00000100
00000000
00000001
00001000
00000000
00000100
00000000
00000100
00000000
,
00000010
00000000
00000100
00001000
00000010
00000000
00010000
00000000
00000000
00000000
00000100
00001000
00000010
00000000
00010000
00000000
,
00000000
00000000
00001000
01000000
00010000
00000000
00100000
00000000
00000000
00000000
00001000
01000000
00010000
00000000
00100000
00000000
,
00000000
01000000
10000000
00010000
01000000
00001000
00010000
00000010
,
000000M0
00000000
00000010
00000000
00100000
00000000
00000000
00001000
00000000
00000000
00010000
00000000
00000100
00000000
00001000
00000000
,
00000010
00001000
00000001
00000100
00000001
00000010
00000100
00010000
,
00001000
01000000
00100000
10000000
00001000
00010000
00001000
01000000
,
00000000
01000000
00100000
10000000
00010000
00100000
01000000
10000000
,
10100000
00000000
00000000
00011000
00000000
00000001
00001000
00000000
,
00000100
00000000
00001000
00000001
00001000
00000000
00000000
00000000
00100000
00000000
01000000
00010000
01000000
00000000
00000000
00000000
,
00000010
00000000
00000100
00000010
00000100
00000000
00000000
00000000
00010000
00000000
01000000
00100000
01000000
00000000
00000000
00000000
,
01000000
00010000
01000000
00100000
10000000
01000000
00100000
00001000
,
00010000
00000100
00000010
00000001
00000000
00001000
00000100
00000010
,
00000100
00000000
00001000
00000001
00001000
00000000
00000000
00000000
00100000
00000000
01000000
00010000
01000000
00000000
00000000
00000000
,
00000100
00000000
00000010
00000100
00000010
00000000
00000000
00000000
00010000
00000000
01000000
00100000
10000000
00000000
00010000
00000000
,
10000000
00100000
01000000
00010000
00100000
00001000
00010000
00000100
,
01000000
00001000
00010000
00001000
00000000
00001000
00010000
00000010
,
00001000
00000000
00000000
00000100
00000000
00000000
00000010
00000001
00000010
00000000
00000100
00000000
00001000
00000000
00000010
00000000
,
00010000
00000000
00000000
00001000
00000000
00000000
01000000
00000000
00000100
00000000
00000000
00010000
00000000
00000000
00001000
00000000
,
00000010
00000000
00000000
00001000
00000000
00000000
00010000
00001000
00010000
00000000
00100000
00000000
00010000
00000000
00001000
00000000
,
00000100
00000000
00000000
00001000
00000000
00000000
00010000
00000000
01000000
00000000
00000000
10000000
00000000
00000000
00100000
00000000
,
01000000
00000000
00000000
00001000
00000000
00000000
01000000
00010000
01000000
00000000
00001000
00000000
00010000
00000000
01000000
00000000
,
00010000
00000000
00000000
00001000
00000000
00000000
00000010
00000000
00000001
00000000
00000000
00001000
00000000
00000000
00000010
00000000
,
00010000
00000001
00001000
00000100
00000000
00001000
00010000
00000000
,
00010000
00000000
10000000
00000000
01000000
00000000
00100000
00000000
00000000
00010000
00100000
00000000
00001000
00000000
01000000
00000000
,
00010000
00000000
00100000
00000000
00000000
01010000
00000000
00000000
01001000
00000000
00000000
00011000
00000000
00000000
00010010
00000000
,
00010000
00000000
00000000
00000000
00001000
00000000
00000000
00000000
00000000
00000000
00000000
00000000
00010000
00000000
00000000
00000000
00000100
00000000
00000000
00000000
00000000
00000000
00000000
00000000
00001000
00000000
00000000
00000000
00000010
00000000
00000000
00000000
00000000
00000000
00000000
00000000
00001000
00000000
00000000
00000001
00000000
00000000
00001000
00000000
00000000
00000001
00000000
00000000
,
00001000
00000000
00001000
00000100
00001000
00000100
00000010
00000000
00000001
00000100
00000010
00001000
,
00000010
00000000
00000001
00001000
00000000
00001000
00010000
00000000
00010000
10000000
00000000
00100000
,
01000000
00000000
00010000
00000000
01000000
00000000
00100000
00000000
00000000
00000000
10000000
00000000
01000000
00000000
10000000
00000000
01000000
00000000
00100000
00000000
00000000
00000000
00010000
00100000
,
00010000
00000000
00000000
00000000
01000000
00010000
01000000
00000000
00010000
00000000
01000000
00000000
00001000
00000000
00010000
00000000
00001000
00000000
01000000
00000000
00000000
00000000
00001000
00000000
,
00010000
00000000
00010000
00000100
00001000
00000000
00001100
00000000
00000010
00000100
00010000
00000000
,
00001100
00000000
00000010
00000100
00000000
00000001
00001000
00000000
00001000
00010000
00000000
00010000
,
10000000
00000000
10000000
00100000
01000000
00010000
01000000
00000000
00100000
10000000
00010000
10000000
,
01000000
00210000
00301000
00001200
,
00000310
00000000
00000001
00001000
00000001
00001000
00000010
00000000
00000100
00000001
00000100
00000010
,
00001000
00000000
00000100
00000010
00000000
00000100
00001000
00000000
00000010
00010000
00000000
00001000
,
01000000
00000000
00010000
00000000
01000000
00000000
00100000
00000000
00000000
00000000
01000000
00000000
00010000
00000000
01000000
00000000
00001000
00000000
00010000
00000000
00000000
00000000
00001000
01000000
,
00001000
00000000
00000000
00000000
01000000
00010000
01000000
00000000
00100000
00000000
10000000
00000000
00100000
00000000
10000000
00000000
01000000
00000000
00100000
00000000
00000000
00000000
00010000
00000000
,
10000000
00000000
01000000
00100000
00010000
00000000
00110000
00000000
00001000
00010000
00100000
00000000
,
00110000
00000000
00010000
00001000
00000000
00010000
00000100
00000000
00001000
00000010
00000000
00000100
,
00000001
00000000
00000010
00000100
00001000
00000100
00000001
00000000
00000100
00001000
00000100
00000010
,
00000001
00002100
00003010
01002000
,
00103000
00000000
00010000
01000000
00100000
10000000
01000000
00000000
10000000
00100000
01000000
00010000
,
00100000
00000000
01000000
10000000
00000000
10000000
00010000
00000000
00010000
00001000
00000000
00001000
,
00000001
00000000
00001000
00000000
00000100
00000000
00000010
00000000
00000000
00000000
00000100
00000000
00001000
00000000
00000001
00000000
00001000
00000000
00000010
00000000
00000000
00000000
00000100
00000001
,
00000100
00000000
00000000
00000000
00000010
00001000
00000010
00000000
00001000
00000000
00000010
00000000
00010000
00000000
00001000
00000000
01000000
00000000
00001000
00000000
00000000
00000000
00010000
00000000
,
00000100
00000000
00010000
00001000
00000100
00000000
00001100
00000000
00001000
00010000
00000100
00000000
,
00011000
00000000
01000000
00001000
00000000
01000000
00100000
00000000
10000000
01000000
00000000
00100000
,
00001000
00000000
00010000
00000010
00010000
00001000
01000000
00000000
00001000
00010000
00000010
00010000
,
00001000
00000000
00000000
00011000
00000000
00000000
00010010
00000000
00001000
00000100
00000010
00000001
;

//---------------dance-single - J. Frederick----------------
#NOTES:
     dance-single:
     J. Frederick:
     Beginner:
     1:
     0.094,0.094,0.076,0.000,0.000,61.000,8.000,0.000,0.000,0.000,0.000,0.094,0.094,0.076,0.000,0.000,61.000,8.000,0.000,0.000,0.000,0.000:
0000
0000
0000
0000
,
0000
0000
0000
0000
,
0000
0000
0000
0000
,
0000
0000
0000
0000
,
0001
0000
0000
0000
,
1000
0000
0000
0000
,
0100
0000
0000
0000
,
0010
0000
0000
0000
,
1001
0000
0000
0000
,
0100
0000
0000
0000
,
0010
0000
0000
0000
,
1000
0000
0000
0000
,
0001
0000
0000
0000
,
0100
0000
0000
0000
,
0010
0000
0000
0000
,
0110
0000
0000
0000
,
1001
0000
0000
0000
,
0000
0000
0000
0000
,
0100
0000
0000
0000
,
0000
0000
0000
0000
,
1000
0000
0000
0000
,
0001
0000
0000
0000
,
0100
0000
0000
0000
,
0010
0000
0000
0000
,
1000
0000
0000
0000
,
0001
0000
0000
0000
,
0100
0000
0000
0000
,
0010
0000
0000
0000
,
1000
0000
0000
0000
,
0001
0000
0000
0000
,
0100
0000
0000
0000
,
0010
0000
0000
0000
,
1001
0000
0000
0000
,
0100
0000
0000
0000
,
0110
0000
0000
0000
,
0010
0000
0000
0000
,
1001
0000
0000
0000
,
0001
0000
0000
0000
,
0100
0000
0000
0000
,
0010
0000
0000
0000
,
1000
0000
0000
0000
,
1001
0000
0000
0000
,
0001
0000
0000
0000
,
0100
0000
0000
0000
,
0010
0000
0000
0000
,
1000
0000
0000
0000
,
0100
0000
0000
0000
,
0010
0000
0000
0000
,
0001
0000
0000
0000
,
1000
0000
0000
0000
,
0100
0000
0000
0000
,
0010
0000
0000
0000
,
1000
0000
0000
0000
,
0001
0000
0000
0000
,
0100
0000
0000
0000
,
0010
0000
0000
0000
,
1000
0000
0000
0000
,
0001
0000
0000
0000
,
0110
0000
0000
0000
,
0100
0000
0000
0000
,
0010
0000
0000
0000
,
1000
0000
0000
0000
,
0001
0000
0000
0000
,
0100
0000
0000
0000
,
0010
0000
0000
0000
,
1000
0000
0000
0001
;
