#TITLE:Moonstone;
#SUBTITLE:;
#ARTIST:Virgill;
#TITLETRANSLIT:;
#SUBTITLETRANSLIT:;
#ARTISTTRANSLIT:;
#GENRE:Trance;
#CREDIT:;
#BANNER:Moonstone-bn.png;
#BACKGROUND:Moonstone-bg.png;
#LYRICSPATH:;
#CDTITLE:;
#MUSIC:Moonstone.ogg;
#OFFSET:-0.011;
#SAMPLESTART:22.020;
#SAMPLELENGTH:11.860;
#SELECTABLE:YES;
#BPMS:0.000=106.010;
#STOPS:;
#BGCHANGES:0.085=Moonstone.mpg=1.000=1=0=0=StretchNoLoop==CrossFade==,
99999=-nosongbg-=1.000=0=0=0 // don't automatically add -songbackground-;
#KEYSOUNDS:;

//---------------dance-double - M.Emirzian----------------
#NOTES:
     dance-double:
     M.Emirzian:
     Easy:
     3:
     0.195,0.172,0.182,0.096,0.000,113.000,19.000,10.000,0.000,0.000,0.000,0.195,0.172,0.182,0.096,0.000,113.000,19.000,10.000,0.000,0.000,0.000:
00000000
00000000
00000000
00000000
,
00000000
00000000
00000000
00000000
,
00000000
00000000
00000000
00000000
,
00000000
00000000
00000000
00000000
,
00100000
10010000
00000000
00000000
,
00010000
00010100
00000000
00000000
,
00000010
00010010
00000000
00000000
,
00000001
00001000
00000100
00000010
,
00000001
00001100
00000000
00000000
,
00000010
00010010
00000000
00000000
,
00010000
00110000
00000000
00000000
,
10000000
01000000
00010000
00001000
,
00010000
00010000
00000100
00000000
,
00000010
00000000
00000001
00000000
,
00000100
00000100
00001000
00000000
,
00010000
00000000
01000000
00000000
,
10000000
10000000
00100000
00000000
,
01000000
00000000
00001000
00000000
,
00010000
00010000
00001000
00000000
,
00000100
00000000
00000001
00000000
,
00001000
00000000
00000010
00000000
00001000
00000010
00000000
00000000
,
00010000
00000000
00010010
00000000
,
00010000
00000000
00001000
00000000
00010000
00001000
00000000
00000000
,
01000000
00000000
01010000
00000000
,
10000000
00000000
00010000
00000000
10000000
00010000
00000000
00000000
,
01000000
00000000
01001000
00000000
,
00010000
00000000
00001000
00000000
00010000
00001000
00000000
00000000
,
00000100
00000000
00001010
00000000
,
00001002
00000000
00000103
00000000
,
00010200
00001000
00000300
00000000
,
00120000
00000000
01030000
00000000
,
00102000
00010000
00003000
00000000
,
00100000
00010000
10000000
01000000
,
00100000
00001000
01000000
00001000
,
00010000
00000010
00010000
00000100
,
00001000
00000001
00000010
00000100
,
00001020
00000000
00000130
00000000
,
00010020
00000000
00001030
00000000
,
00012000
00000000
01003000
00000000
,
00021000
00000000
00030010
00000000
,
00001000
00010000
00001000
00001000
,
01000000
00010000
10000000
10000000
,
01000000
00100000
00001000
00001000
,
00010000
00000100
00001000
00001000
,
00002002
00000000
00000000
00000000
00000000
00000000
00000000
00003003
;

//---------------dance-double - M.Emirzian----------------
#NOTES:
     dance-double:
     M.Emirzian:
     Medium:
     5:
     0.255,0.323,0.086,0.154,0.000,161.000,9.000,16.000,0.000,4.000,0.000,0.255,0.323,0.086,0.154,0.000,161.000,9.000,16.000,0.000,4.000,0.000:
00000000
00000000
00000000
00000000
,
00000000
00000000
00000000
00000000
,
00000000
00000000
00000000
00000000
,
00000000
00000000
00000000
00000000
,
10000000
00100000
00010000
00000000
00000000
00000000
00000000
00001000
,
00000000
00000010
00000001
00000000
00000000
00000000
00000000
00000001
,
00000000
00000100
00001000
00000000
00000000
00000000
00000000
00010000
,
00000000
01000000
10000000
00100000
10000000
01000000
10000000
00000000
,
10000000
01000000
00010000
00000000
00000000
00000000
00000000
00001000
,
00000000
00000100
00000001
00000000
00000000
00000000
00000000
00000001
,
00000000
00000010
00001000
00000000
00000000
00000000
00000000
00010000
,
00000000
00100000
10000000
01000000
10000000
00100000
10000000
00000000
,
00010000
00000000
01000000
00000000
00001000
00001000
00000000
00000000
,
00010000
00001000
00000100
00000001
,
00001000
00000100
00000010
00000000
00000001
00000001
00000000
00000000
,
00010000
00001000
01000000
00010000
,
10000000
01000000
00100000
00000000
10000000
01000000
00100000
00000000
,
00010000
01000000
00001000
00010000
,
00000100
00010000
00001000
00000000
00000100
00010000
00001000
00000000
,
00010000
00000010
00000100
00000001
,
00001000
00000100
00001000
00000010
00000100
00000001
00000000
00000000
,
00000100
00000000
00001000
00000000
00010000
00000000
00000000
00001000
,
01000000
00010000
00100000
00010000
01000000
00000000
10000000
00000000
,
01000000
00000000
00010000
00000000
00100000
00000000
00000000
00001000
,
00010000
00001000
00010000
00000010
00001000
00000100
00000000
00000000
,
00001000
00000000
00000010
00000000
00000001
00000000
00000000
00000010
,
00001000
00000010
00000100
00000001
00000010
00000000
00000100
00000000
,
00010000
00001000
01000000
00000000
,
00020000
00000000
02000000
00000000
,
03130000
00000000
00000000
00000000
,
00002000
00000000
00020000
00000000
,
00133000
00000000
00000000
00000000
,
00010200
00001300
00002100
00003010
,
00000120
00000000
00001030
00000000
00000001
00001000
00000100
00000000
,
00000001
00001000
00000100
00000000
00000100
00010000
00001000
00000000
,
00001000
01000000
00001000
00010000
00001000
00000000
00000000
00000000
,
00020000
00000000
00002010
00000000
,
00033000
00000000
00000000
00000000
,
02000000
00000000
00002000
00000000
,
03013000
00000000
00000000
00000000
,
00120000
10030000
20010000
31000000
,
00210000
00000000
00301000
00000000
00010000
00000010
00001000
00000000
,
00010000
00000010
00001000
00000000
00001000
00000001
00000010
00000000
,
00000010
00000100
00001000
00000010
00000100
00000000
00001001
00000000
,
00000220
00000000
00000000
00000000
00000000
00000000
00000000
00000330
;

//---------------dance-double - C.Emirzian----------------
#NOTES:
     dance-double:
     C.Emirzian:
     Hard:
     7:
     0.509,0.452,0.403,0.019,0.134,327.000,42.000,2.000,0.000,0.000,0.000,0.509,0.452,0.403,0.019,0.134,327.000,42.000,2.000,0.000,0.000,0.000:
00000000
00000000
00000000
00000000
,
00000000
00000000
00000000
00000000
00000000
00000000
00000000
00000000
00000000
00000000
01001000
00000000
00000000
00011000
00000000
00000000
,
00010000
00001000
00000100
00001000
00010000
00100000
10000000
00010000
,
10000000
01000000
00100000
00010000
10000000
01100000
00010000
01010000
,
10000000
00100000
01000000
00000000
10010000
00000000
00000000
00000000
00010000
00000000
00011000
00000000
00000000
00000000
00010000
00000000
,
00000100
00000010
00000001
00000000
00001001
00000000
00000000
00000000
00001000
00000000
00011000
00000000
00000000
00000000
00001000
00000000
,
00100000
01000000
10000000
00000000
10010000
00000000
00000000
00000000
00010000
00000000
00011000
00000000
00000000
00000000
00010000
00000000
,
00000100
00010000
00001000
00000000
00010000
00000000
00001000
00100000
00001000
00000000
00010000
00000100
00010000
00000000
00000100
00000000
,
00001000
00000010
00000100
00000000
00001001
00000000
00000000
00000000
00000100
00000000
00001100
00000000
00000000
00000000
00010000
00000000
,
00001000
00010000
00001000
00000000
00010000
00000000
00000000
00000000
00100000
00000000
01100000
00000000
00000000
00000000
10000000
00000000
,
00100000
01000000
00010000
00000000
00100000
00000000
00000000
00000000
00001000
00000000
01010000
00000000
00000000
00000000
00001000
00000000
,
00100000
00001000
00010000
00000000
00001000
00000000
00010000
00000010
00010000
00000000
00001000
01000000
00001000
00000000
00001000
00000000
,
00010000
01000000
10000000
00100000
00010000
00100000
10000000
01000000
,
00100000
00000000
00000000
00000000
00010000
00000000
00000000
00000000
01000000
00000000
00000000
00000000
00001000
00000000
00010000
00001000
,
00010000
00000100
00000010
00000001
00000100
00000010
00001000
00000100
,
00000010
00000000
00000000
00000000
00000001
00000000
00000000
00000000
00000100
00000000
00000010
00000000
00010000
00000000
00010000
00001000
,
00010000
00001000
00100000
01000000
10000000
00100000
01000000
00010000
,
10000000
00000000
00000000
00000000
01000000
00000000
00000000
00000000
00100000
00000000
00010000
00000000
01000000
00000000
00001000
00010000
,
00001000
00000100
00000001
00001000
00000100
00000010
00000001
00001000
,
00000100
00000000
00000010
00000000
00000001
00001000
00000010
00000000
,
00000100
00000101
00001010
00000000
00001000
00000100
00000010
00000001
,
00001000
00000000
00000010
00000000
00001000
00000000
00000100
00000000
00010000
00000000
00000010
00000000
00001000
00000000
00000001
00000100
,
00000001
00000011
00000101
00000000
00010000
00001000
01000000
00100000
,
10000000
01000000
00100000
00001000
00010000
00100000
10000000
01000000
,
00100000
00110000
11000000
00000000
00100000
00010000
00100000
00001000
,
00010000
00000000
00000100
00000000
00000010
00000000
00000001
00000000
00000100
00000000
00000010
00000000
00001000
00000000
00000010
00000100
,
00000010
00001010
00001100
00000000
00000100
00000010
00000001
00000100
,
00000010
00001000
00000001
00000010
00000100
00010000
00011000
00000000
,
01000000
00010000
00001000
00000100
00001000
00010000
00100000
00010000
,
00001000
00000000
01000000
00000000
00001000
00000000
00010000
00000000
00000100
00001000
00000100
00000000
00011000
00000000
00000000
00000000
,
01000000
00100000
10000000
01000000
00100000
00010000
00100000
00001000
,
00010000
00000000
00000100
00000000
00000010
00000000
00000001
00000000
00000100
00000010
00000100
00000000
00001001
00000000
00000000
00000000
,
00001000
00000000
00000100
00000000
00000010
00000000
00000001
00000000
00001000
00000010
00001000
00000000
00011000
00000000
00000000
00000000
,
00100000
00000000
01000000
00000000
10000000
00000000
00100000
00000000
01000000
00010000
01000000
00000000
00011000
00000000
00000000
00000000
,
00000100
00000000
00000010
00000000
00000001
00000000
00000100
00000000
00000010
00001000
00000010
00000000
00011000
00000000
00000000
00000000
,
01000000
00000000
00100000
00000000
10000000
00000000
01000000
00000000
00100000
00010000
00100000
00000000
00011000
00000000
00000000
00000000
,
01001000
00011000
00010100
00000000
00101000
00011000
00010010
00000000
,
00001000
00000000
00000100
00000000
00000010
00000000
00000001
00000000
00000100
00000010
00001000
00000001
00001000
00000000
00000000
00000000
,
00001010
00011000
01010000
00000000
00110000
00011000
00001100
00000000
,
00010000
00000000
00001000
00000000
00010000
00000000
00100000
00000000
01000000
00010000
10000000
00100000
10000000
00000000
00000000
00000000
,
10000000
01000000
00010000
00001000
00000100
00000001
00000010
00000100
,
00001000
00000010
00000100
00000001
00000010
00001000
00010000
00100000
,
10000000
01000000
00100000
00010000
01000000
00100000
10000000
00010000
,
00100000
00001000
01000000
00001000
00010000
00000100
00010000
00000010
,
00022000
00000000
00000000
00000000
00000000
00000000
00000000
00033000
;

//---------------dance-double - M.Emirzian----------------
#NOTES:
     dance-double:
     M.Emirzian:
     Challenge:
     10:
     0.557,0.538,0.614,0.211,0.115,311.000,64.000,22.000,0.000,25.000,0.000,0.557,0.538,0.614,0.211,0.115,311.000,64.000,22.000,0.000,25.000,0.000:
00000000
00000000
00000000
00000000
,
00000000
00000000
00000000
00000000
00000000
00000010
00000000
10000000
,
00100000
10000000
01000000
01000000
00010000
00100000
00100000
10000000
,
01000000
00100000
00010000
01000000
00001000
00001000
00000100
00000010
,
00000100
00001000
00000010
00000000
00010001
00000000
00000010
00000000
00000100
00000000
01000000
00000000
00011000
00000000
00000010
00000000
,
00100000
00001000
00010000
00000000
01000100
00000000
10000000
00000000
01000000
00000000
00100000
00000000
00100010
00000000
00001000
00000000
,
00000010
00001000
00000100
00000000
01000100
00000000
00010000
00000000
00000001
00000000
00000010
00000000
00010001
00000000
00000010
00000000
,
00000100
00000010
00001000
00000000
00100010
00000000
00100000
00000010
00001000
00000000
00000100
01000000
00001000
00000000
01000000
00000000
,
00100000
10000000
01000000
00000000
10001000
00000000
00100000
00000000
00001000
00000000
00000010
00000000
00010001
00000000
00000001
00000000
,
00010000
00000010
00001000
00000000
00100010
00000000
00001000
00000000
01000000
00000000
00100000
00000000
10001000
00000000
01000000
00000000
,
00100000
10000000
01000000
00000000
10001000
00000000
00010000
00000000
00000100
00000000
00100000
00000000
00100100
00000000
00010000
00000000
,
00000010
00001000
00000001
00000000
00000100
00000000
00000010
00100000
00001000
00000000
01000000
00000100
00010000
00000000
00001000
00000000
,
00010000
00000010
00000010
00001000
00100000
00100000
01000000
00001000
,
00000000
00000000
00000000
00000000
11200000
00000000
00000000
00000000
11310000
00000000
00000000
00000000
00000000
00000000
01000000
00100000
,
00001000
01000000
01000000
00010000
00000010
00000010
00001000
00010000
,
00000000
00000000
00000000
00000000
00021010
00000000
00000000
00000000
01031000
00000000
00000000
00000000
00000000
00000000
00000010
00000100
,
00001000
01000000
01000000
00100000
00000010
00000010
00000100
00010000
,
00000000
00000000
00000000
00000000
00011200
00000000
00000000
00000000
00001311
00000000
00000000
00000000
00000000
00000000
00000001
00000100
,
00001000
01000000
01000000
00010000
00000100
00000100
00000010
00010000
,
00000000
00211000
11310000
00000000
,
10000000
00001000
00010000
00010000
01000000
00000010
00001000
00001000
,
00100000
00000000
00000010
00000000
00000001
00000000
00000001
00000000
00000010
00000000
00000100
00000000
00100000
00000000
00001000
00010000
,
00001000
00000100
00000100
10000000
01000000
01000000
00000010
00010000
,
00010000
00000000
00000001
00000000
00000100
00000000
00000100
00000000
00000010
00000000
01000000
00000000
00100000
00000000
10000000
00001000
,
00010000
00000100
00000100
00000010
01000000
01000000
00100000
00001000
,
00000001
00000000
00000001
00000000
00000010
00000000
00000100
00000000
00010000
00000000
00001000
00000000
00001000
00000000
00000100
01000000
,
00001000
00100000
01000000
01000000
00001000
00001000
00000001
00000001
,
00000100
00010000
10000000
10000000
01000000
00100000
00000100
00000100
,
00000010
00001000
00000100
00000000
00010001
00000000
00000000
00000000
00100010
00000000
00011000
00000000
01000100
00000000
00000000
00000000
,
00022000
00000000
00000000
00000000
00200020
00033000
00000000
00000000
00011000
00000000
01000100
00000000
00311030
00000000
00000000
00000000
,
00000000
00000000
01000000
01000000
00001000
00000010
00000100
00000100
,
00000001
00000100
00000010
00000000
00010001
00000000
00010000
00000000
10001000
00000000
01000000
00000000
00100000
00000000
00001000
00000000
,
00000010
00001000
00011000
00000000
00010001
00001010
00010001
00000000
,
00002200
00000000
00000000
00000000
00000022
00003300
00000000
00000000
00010100
00000000
00001100
00000000
00010133
00000000
00000000
00000000
,
00000000
00000000
00000100
01000000
01000000
00100000
00001000
01000000
,
01000100
00001000
00010010
00001000
00000010
00000100
00100000
01000000
,
00000100
00000010
00000001
00000000
00010001
00000000
00000000
00000000
00100010
00000000
00011000
00000000
01000100
00000000
00000000
00000000
,
00220000
00000000
00000000
00000000
00002200
00330000
00000000
00000000
10010000
00000000
01100000
00000000
10013300
00000000
00000000
00000000
,
00000000
00000000
00100000
10000000
10000000
00001000
00010000
00000100
,
00000010
00000100
00001000
00000000
00010001
00000000
00000000
00000000
00000010
00000000
00010000
00000000
00100010
00000000
00010000
00000000
,
01001000
00000000
00100000
00000000
01001000
10001000
01001000
00000000
,
00022000
00000000
00000000
00000000
00200020
00033000
00000000
00000000
00011000
00000000
01000100
00000000
00311030
00000000
00000000
00000000
,
00000000
00000000
01000000
00010000
00100000
10000000
10000000
01000000
,
00100000
00000010
00010000
00000000
00001000
00000000
00001000
00000000
00010000
00001000
00100000
00000000
00000010
00000000
00000000
00000000
,
00211020
00000000
00000000
00000000
00000000
00000000
00000000
00300030
;

//---------------dance-single - J. Frederick----------------
#NOTES:
     dance-single:
     J. Frederick:
     Beginner:
     1:
     0.062,0.063,0.019,0.000,0.000,43.000,2.000,0.000,0.000,0.000,0.000,0.062,0.063,0.019,0.000,0.000,43.000,2.000,0.000,0.000,0.000,0.000:
0000
0000
0000
0000
,
0000
0000
0000
0000
,
1000
0000
0000
0000
,
0001
0000
0000
0000
,
0010
0000
0000
0000
,
0100
0000
0000
0000
,
1000
0000
0000
0000
,
0001
0000
0000
0000
,
0010
0000
0000
0000
,
0100
0000
0000
0000
,
1000
0000
0000
0000
,
0001
0000
0000
0000
,
1001
0000
0000
0000
,
0010
0000
0000
0000
,
0100
0000
0000
0000
,
1000
0000
0000
0000
,
0001
0000
0000
0000
,
0010
0000
0000
0000
,
0100
0000
0000
0000
,
1000
0000
0000
0000
,
0001
0000
0000
0000
,
0100
0000
0000
0000
,
0010
0000
0000
0000
,
1000
0000
0000
0000
,
0001
0000
0000
0000
,
0010
0000
0000
0000
,
0100
0000
0000
0000
,
1000
0000
0000
0000
,
0001
0000
0000
0000
,
0010
0000
0000
0000
,
0100
0000
0000
0000
,
1000
0000
0000
0000
,
0001
0000
0000
0000
,
0010
0000
0000
0000
,
0100
0000
0000
0000
,
0001
0000
0000
0000
,
1000
0000
0000
0000
,
0100
0000
0000
0000
,
0010
0000
0000
0000
,
0001
0000
0000
0000
,
1000
0000
0000
0000
,
0010
0000
0000
0000
,
0100
0000
0000
0000
,
0001
0000
0000
0000
,
1001
0000
0000
0000
;

//---------------dance-single - J. Frederick----------------
#NOTES:
     dance-single:
     J. Frederick:
     Easy:
     2:
     0.234,0.280,0.144,0.269,0.000,128.000,15.000,28.000,0.000,0.000,0.000,0.234,0.280,0.144,0.269,0.000,128.000,15.000,28.000,0.000,0.000,0.000:
0000
0000
0000
0000
,
0000
0000
0000
0000
,
0001
0010
0100
0110
,
1000
0010
0100
0101
,
0010
0100
1000
0010
,
0100
0001
0010
0100
,
1000
0100
0010
0001
,
0100
0000
0010
0000
1000
0010
1000
0000
,
0010
0100
0001
0010
,
0100
1000
0100
0010
,
0001
0100
0010
1000
,
2002
0000
0000
3003
,
0010
0100
0010
0020
,
0000
0000
0000
0030
,
0100
0100
0100
0200
,
0000
0000
0000
0300
,
1000
1000
1000
1000
,
2000
0000
0000
3000
,
0001
0001
0001
0002
,
0000
0000
0003
0000
,
0010
0100
0010
1001
,
0100
0010
1000
1010
,
0100
0001
0010
0011
,
0100
0010
0001
1001
,
0100
0010
1000
1010
,
0100
0001
0010
0011
,
0100
1000
0100
0022
,
0000
0000
0000
0033
,
1000
0001
2000
3000
,
0020
0030
0200
0300
,
0002
0003
0020
0030
,
0200
0300
2000
3000
,
0020
0030
0200
0300
,
0002
0003
0020
0030
,
0002
0003
2000
3000
,
0020
0030
0200
0300
,
0001
0010
0002
0003
,
1000
0010
2000
3000
,
0001
0010
0200
0300
,
1000
0010
0100
1001
,
0010
0100
1000
0100
,
0010
0001
0100
0010
,
0110
1000
1001
0010
,
0110
1000
2002
0000
,
0000
0000
0000
0000
0000
0000
0000
3003
;

//---------------dance-single - J. Frederick----------------
#NOTES:
     dance-single:
     J. Frederick:
     Medium:
     5:
     0.377,0.345,0.365,0.230,0.000,213.000,38.000,24.000,0.000,0.000,0.000,0.377,0.345,0.365,0.230,0.000,213.000,38.000,24.000,0.000,0.000,0.000:
0000
0000
0000
0000
,
0000
0000
0000
0000
,
0001
0001
0010
0010
0100
0100
0110
0000
,
1000
1000
0010
0010
0100
0100
0110
0000
,
0001
0010
0100
1000
0010
0000
0110
0000
,
0100
0001
0010
0100
1000
0000
1100
0000
,
0010
0001
0100
0010
0100
0000
0110
0000
,
1000
0001
1000
0000
2002
0000
3003
0000
,
0100
0010
1000
0000
1010
0000
0101
0000
,
0010
0001
0010
0000
0110
0000
1100
0000
,
1000
0010
0100
0000
0101
0000
1010
0000
,
0100
0001
0010
0100
2000
0000
3000
0000
,
0001
0001
0100
0100
0010
0010
2000
0000
,
0000
0000
0000
3000
,
0001
0001
0010
0010
0100
0100
1000
0020
,
0000
0000
0000
0000
0000
0000
0030
0100
,
0010
1000
0001
0010
0100
1000
0100
0100
,
0200
0000
0000
0000
0000
0000
0300
1000
,
0010
0100
0001
0010
0001
1000
0010
0200
,
0000
0000
0000
0000
0000
0000
0300
0010
,
1000
0010
0100
0001
0010
0100
0110
0000
,
1000
1001
0100
0110
,
1000
0010
0100
0001
0010
0100
1100
0000
,
0010
0011
0100
0101
,
1000
0001
0100
0010
1000
0010
0100
0010
,
0110
0000
1000
0000
1001
0000
0010
0100
,
1000
0100
0010
0001
0100
0010
1000
1000
,
0010
0110
1000
1001
,
0020
0031
0200
0310
,
2000
3100
0020
0031
,
0200
0310
2000
3100
,
0020
0130
2000
3001
,
0200
0310
2000
3001
,
0020
0031
0200
0301
,
0002
0013
2000
3010
,
0200
0310
2000
3001
,
0011
0000
1100
0000
0010
0001
0100
0000
,
1010
0000
0101
0000
0010
0001
1000
0000
,
1001
0000
0110
0000
1000
0010
0100
0000
,
0101
0000
0011
0000
1000
0100
0010
0000
,
1001
0000
0110
0000
1000
0010
0100
0000
,
0101
0000
1010
0000
1000
0001
0010
0000
,
0110
0000
1001
0000
1000
0010
0100
0000
,
0101
0000
1010
0000
0100
0001
0010
0100
,
0020
0000
0000
0000
0000
0000
0000
0130
;

//---------------dance-single - J. Frederick----------------
#NOTES:
     dance-single:
     J. Frederick:
     Hard:
     7:
     0.451,0.388,0.115,0.221,0.048,294.000,12.000,23.000,0.000,0.000,0.000,0.451,0.388,0.115,0.221,0.048,294.000,12.000,23.000,0.000,0.000,0.000:
0000
0000
0000
0000
,
0000
0000
0000
0000
,
1000
1000
0001
0001
0010
0010
0110
1000
,
0010
0010
0100
0100
0001
0001
0011
0010
,
0100
0000
1000
0010
0100
0000
0010
0000
0100
0000
0001
0000
0010
0000
0200
0000
,
0000
0300
1000
0000
0010
0000
0100
0000
0010
0000
0010
0000
0001
0000
2000
0000
,
0000
3000
0010
0000
0100
0000
0010
0000
1000
0000
0001
0000
0010
0000
0200
0000
,
0000
0300
1000
0000
0010
0000
0100
0001
0100
0000
0001
0010
0100
0000
2000
0000
,
0000
3000
0010
0000
0100
0000
0001
0000
0010
0000
0100
0000
1000
0000
0200
0000
,
0000
0300
0010
0000
0001
0000
0100
0000
0010
0000
1000
0000
0010
0000
0200
0000
,
0000
0300
0001
0000
0010
0000
0100
0000
1000
0000
0100
0000
0010
0000
0002
0000
,
0000
0003
0100
0000
0010
0000
1000
0010
0100
0000
0001
0010
0100
0000
1000
0000
,
0100
0100
0010
0010
0001
0001
0100
0100
,
0100
0000
0000
0000
0100
0000
0000
0000
0100
0000
0000
0000
0100
0000
0010
1000
,
0010
0100
0001
0010
0100
1000
0100
0100
,
0100
0000
0000
0000
0010
0000
0000
0000
0001
0000
0000
0000
0100
0000
0010
1000
,
0010
0100
0001
0010
0001
1000
0001
1000
,
0010
0000
0100
0000
0001
0000
0010
0100
,
1000
1000
0010
0010
0100
0100
0001
0010
,
0001
1000
0010
0100
,
1010
0100
0001
0010
0100
1000
0100
0010
,
0001
0000
0000
0000
0100
0000
0010
0000
1000
0000
0000
0000
0010
0000
0100
0001
,
0010
0100
1000
0100
0010
0001
0100
0001
,
1000
0000
0000
0000
0010
0000
0000
0000
0100
0000
0010
0000
1000
0000
0010
0100
,
0001
0010
0001
1000
0001
0010
0100
1000
,
0100
0000
0000
0000
0010
0000
0000
0000
0001
0000
0000
0000
0100
0000
0010
1000
,
0010
0100
0001
0010
0100
1000
0100
0010
,
0001
0100
0010
1000
,
1000
1000
0001
0001
0020
0000
0230
0000
,
1300
1000
0010
0010
0200
0000
0302
0000
,
0013
0010
0001
0001
2000
0000
3020
0000
,
0130
0100
0001
0001
0020
0000
0230
0000
,
1300
1000
0100
0100
0020
0000
0032
0000
,
0103
0100
0010
0010
2000
0000
3002
0000
,
0013
0010
0001
0001
0200
0000
0320
0000
,
1030
1000
0100
0100
0010
0001
1001
0000
,
0100
0010
1000
0010
0100
0001
0011
0000
,
0010
0001
1000
0010
0100
0010
0110
0000
,
1000
0010
0100
0001
0010
0100
1100
0000
,
0010
0001
0100
0010
1000
0010
1010
0000
,
0100
0001
0010
0001
1000
0001
1001
0000
,
0100
0010
1000
0010
0100
0010
0110
0000
,
1000
0100
0010
0001
0100
0001
0101
0000
,
1000
0001
0100
0010
1000
0010
0100
0010
,
0220
0000
0000
0000
0000
0000
0000
0330
;

//---------------dance-single - D. Runberg & M. Calfin----------------
#NOTES:
     dance-single:
     D. Runberg & M. Calfin:
     Challenge:
     10:
     0.650,0.603,0.345,0.489,0.317,387.000,36.000,51.000,32.000,8.000,0.000,0.650,0.603,0.345,0.489,0.317,387.000,36.000,51.000,32.000,8.000,0.000: // measure 1
0000
0000
0000
0000
,  // measure 2
0000
0000
0000
0000
,  // measure 3
1000
1000
M100
0100
0M10
0010
0011
0001
,  // measure 4
0100
0100
1M00
1000
M100
0100
0101
0001
,  // measure 5
0011
0010
0001
0000
0100
0000
0010
1000
M200
0000
0010
0000
0310
0000
0012
0000
,  // measure 6
10M3
0000
1000
0100
0010
0000
0001
0000
1001
0000
0100
0000
0001
0000
0021
0000
,  // measure 7
013M
0000
1000
0010
0100
0000
0001
0000
0101
0000
0100
0000
0010
0000
2010
0000
,  // measure 8
31M0
0000
0000
0000
0010
0000
0001
0000
0100
0000
0000
0000
0001
0000
1000
0000
0001
0010
0001
0000
0010
0000
0100
0000
2000
0000
0M00
0000
0010
0000
0000
0000
,  // measure 9
3010
0110
0002
1003
0100
0010
0100
2000
,  // measure 10
0100
0000
3001
0000
0101
0000
0010
0000
1000
00M0
1000
0000
0001
0000
0021
0000
,  // measure 11
0100
0031
1000
0010
0001
0010
1000
0200
,  // measure 12
0001
0000
0000
0000
0010
0000
0000
0000
1300
0000
0000
0000
0001
0000
0100
0000
0010
1000
0010
0000
1000
0000
0100
0000
0010
0000
0000
0000
0011
0000
0000
0000
,  // measure 13
0002
0103
020M
0310
0M20
1030
20M0
3002
,  // measure 14
M200
0000
0000
0000
0010
0000
0000
0000
1000
0000
0303
0000
0001
0000
1000
0100
,  // measure 15
0020
0031
00M2
1003
200M
3010
M020
2030
,  // measure 16
02M0
0000
0000
0000
0010
0000
0000
0000
0001
0000
3300
0000
1000
0000
0001
0100
,  // measure 17
0120
1M30
2010
30M1
0012
01M3
0120
1M30
,  // measure 18
2200
0000
0011
0000
0001
3300
1000
0100
,  // measure 19
0M12
0103
012M
1030
2M10
310M
M012
01M3
,  // measure 20
0202
0000
1010
0303
2200
0000
0011
3300
,  // measure 21
1000
0000
0001
0100
0001
0000
1000
0000
0020
0000
0100
0000
0130
0000
0001
0000
,  // measure 22
1000
0100
1000
0000
0001
0000
0100
0000
1000
0000
0100
0000
0001
0000
0010
0100
,  // measure 23
2000
0100
3M02
0100
2M03
0010
30M2
0013
,  // measure 24
0001
0100
0010
0000
0110
0000
0100
0000
0001
0000
0010
0000
0100
0000
1000
0001
,  // measure 25
1001
0100
0110
0010
1010
1000
1100
0100
,  // measure 26
1000
0100
1000
0000
1100
0000
1000
0000
0010
0000
0100
0000
0001
0000
1000
0000
,  // measure 27
1002
0010
0103
0010
2010
0100
3001
0101
,  // measure 28
0100
0010
0100
0000
0002
0000
1003
0000
0100
M000
0100
0000
1000
0000
0010
0000
,  // measure 29
1000
0010
0100
0010
1000
0000
0001
0000
0020
0000
0100
0000
0100
0000
0130
0000
,  // measure 30
1000
0001
0100
0001
0010
0000
0100
0000
2000
0000
0010
0000
0010
0000
3010
0000
,  // measure 31
1000
0100
0001
0100
1000
0000
0010
0000
0200
0000
0001
0000
0001
0000
0301
0000
,  // measure 32
0100
0010
1000
0100
0001
0000
0100
0000
2000
0000
0010
0000
0100
0000
3001
0000
,  // measure 33
1000
0010
0001
0010
0100
0000
0001
0000
0020
0000
0100
0000
1000
0000
0031
0000
,  // measure 34
0010
0001
1000
0010
0001
0000
0010
0000
0001
0000
0010
0000
1000
0000
0100
0000
,  // measure 35
0010
0100
1000
0100
0001
0000
0100
0000
0010
0000
0001
0000
1000
0000
0010
0000
,  // measure 36
0100
0001
0010
1000
0010
0000
0100
0000
1000
0000
0010
0000
0100
0000
0001
0000
,  // measure 37
0100
0001
0100
1000
0100
0000
0001
0000
0020
0000
0100
0000
0100
0000
0130
0000
,  // measure 38
1000
0010
0100
0001
0010
0000
0100
0000
1000
0000
0010
0100
0010
0000
1000
0000
,  // measure 39
0001
1000
0100
0010
0001
0000
1000
0000
0010
0000
0100
0001
0010
0000
0100
0000
,  // measure 40
1000
0100
0001
0100
1000
0000
0010
0000
0001
0000
0010
1000
0001
0000
0010
0000
,  // measure 41
0100
0010
0001
0100
1000
0000
0100
0000
0010
0000
1000
0100
0010
0000
0100
0000
,  // measure 42
1000
0100
0010
0100
1000
0000
0001
1000
0001
0000
1000
0000
0010
0000
0010
0000
,  // measure 43
0100
0001
0100
0010
1000
0000
0001
0010
0001
0000
0010
0100
1000
0000
0001
0000
,  // measure 44
1000
0001
0100
0001
0010
0000
0100
0010
0001
0000
1000
0010
0100
0000
0001
0000
,  // measure 45
2002
0000
0000
0000
0000
0000
0000
3003
;
