#TITLE:Living Without You;
#SUBTITLE:;
#ARTIST:Ni Ni;
#TITLETRANSLIT:;
#SUBTITLETRANSLIT:;
#ARTISTTRANSLIT:;
#GENRE:Bubblegum;
#CREDIT:;
#BANNER:Living Without You-bn.png;
#BACKGROUND:Living Without You-bg.png;
#LYRICSPATH:;
#CDTITLE:;
#MUSIC:Living Without You.ogg;
#OFFSET:-0.005;
#SAMPLESTART:55.214;
#SAMPLELENGTH:14.000;
#SELECTABLE:YES;
#BPMS:0.000=138.022;
#STOPS:;
#BGCHANGES:0.591=Living Without You.mpg=1.000=1=0=0=StretchNoLoop==CrossFade==,
99999=-nosongbg-=1.000=0=0=0 // don't automatically add -songbackground-;
#KEYSOUNDS:;

//---------------dance-single - J. DeGarmo----------------
#NOTES:
     dance-single:
     J. DeGarmo:
     Hard:
     7:
     0.443,0.000,0.176,0.229,0.242:
0000
0000
0000
0000
,
0000
0000
0000
0000
,
0000
0000
0000
0000
,
0000
0000
0000
0000
,
0010
1000
0001
0100
,
0010
0000
1000
0000
0001
0100
0010
0000
,
1000
0001
0100
1000
,
2002
0000
0000
3003
,
1000
0000
0000
0000
0001
0000
0000
0100
0010
0000
1000
0000
0100
0000
1000
0000
,
0000
0000
0000
0000
0010
0000
0000
0100
0001
0000
1000
0000
0001
0000
0000
0000
,
0100
0000
0000
0000
0010
0000
0000
0100
0001
0000
1000
0000
0100
0000
0010
0000
,
0000
0000
0000
0000
0100
0000
0000
1000
0001
0000
0010
0000
0100
0000
0000
0000
,
0010
0000
0000
0000
0001
0000
0000
1000
0010
0000
0100
0000
0001
0000
1000
0000
,
0000
0000
0000
0000
0100
0000
0000
1000
0010
0000
0100
0000
0010
0000
0000
0000
,
1000
0000
0000
0000
0001
0000
0000
0010
0100
0000
1000
0000
0001
0000
1000
0000
,
0000
0000
0000
0000
0010
0000
0000
0100
0001
0000
0010
0000
0010
0000
0000
0000
,
0000
0000
0001
0000
0000
1000
0000
0000
0010
0000
0000
0100
0000
0000
0001
0000
,
0000
0000
0010
0000
0000
0100
0000
0000
1000
0000
0000
0010
0000
0000
0001
0000
,
0000
0000
0010
0000
0000
0100
0000
0000
0001
0000
0000
1000
0000
0000
0100
0000
,
0000
0000
0001
0000
0000
0100
0000
0000
0010
0000
0000
0001
0000
0000
1000
0000
,
0000
0000
1010
0000
0000
0100
0000
0000
0101
0000
0000
0010
0000
0000
0001
0000
,
0000
0000
1100
0000
0000
0001
0000
0000
0101
0000
0000
1000
0000
0000
0010
0000
,
0000
0000
0101
0000
0000
0010
0000
0000
1100
0000
0000
0001
0000
0000
0010
0000
,
0200
0000
0000
0000
0000
0000
0000
0000
0300
0000
0000
1000
0010
0000
0100
0000
,
0001
0100
0001
1000
,
0010
0000
0100
0000
0001
0000
1000
0010
,
0001
0000
0010
0000
1000
0000
0100
0010
,
0001
0100
0010
1000
0000
0000
0000
0000
,
0000
0101
1001
0100
,
0010
1000
0100
0000
0001
0100
0010
0000
,
0001
0000
0000
0000
,
1001
0110
2002
3003
,
0010
0000
1000
0000
0001
0100
0010
1000
,
0000
1100
0000
0000
0000
0000
0010
0000
,
0010
0000
0001
0000
0100
1000
0100
0002
,
0000
0003
0000
0000
,
1000
0000
0010
0000
1000
0001
0010
1000
,
0000
0011
0000
0000
0000
0000
0000
0000
,
0100
0000
0010
2000
0000
3002
0000
0203
,
0000
0320
0000
2030
0000
3000
0000
0000
,
0100
1000
0100
1000
0010
0001
0010
0001
,
0010
0100
0010
0100
1000
0100
1000
0100
,
0001
0010
0001
0010
1000
0010
1000
0010
,
0100
0001
0100
0001
0100
0010
0100
0000
,
2000
0010
3002
0100
,
2003
0010
3002
0100
,
1003
0000
0001
0200
0000
0320
0000
0032
,
0000
0013
0010
0100
0000
0010
1000
0000
,
0012
0000
0000
0000
1003
0000
0000
0010
0100
0000
0001
0000
1000
0000
1000
0000
,
0000
0000
0000
0000
0010
0000
0000
0100
0001
0000
0010
0000
0010
0000
0000
0000
,
1200
0000
0000
0000
0310
0000
0000
0001
0010
0000
0001
0000
0100
0000
0100
0000
,
0000
0000
0000
0000
0001
0000
0000
1000
0100
0000
0001
0000
0001
0000
0000
0000
,
1200
0000
0000
0000
0301
0000
0000
0100
0010
0000
0001
0000
1000
0000
0100
0000
,
0000
0000
0000
0000
0001
0000
0000
0100
1000
0000
0010
0000
0100
0000
0000
0000
,
0001
0100
1000
0001
,
2200
0000
0000
3300
,
0001
0000
0000
0001
0100
0000
0000
0100
0010
0000
0000
0010
1000
0000
0000
1000
,
0100
0000
0000
0100
1000
0000
0000
1000
0010
0000
0000
0010
0001
0000
0000
0001
,
0010
0000
0000
0010
0100
0000
0000
0100
0001
0000
0000
0001
0100
0000
0000
0100
,
1000
0000
0000
1000
0100
0000
0000
0100
0010
0000
0000
0010
0200
0000
0000
0000
,
0301
0000
0000
0001
1000
0000
0000
1000
0100
0000
0000
0100
0001
0000
0000
0001
,
0100
0000
0000
0100
0010
0000
0000
0010
0001
0000
0000
0001
0100
0000
0000
0100
,
1000
0000
0000
1000
0100
0000
0000
0100
0010
0000
0000
0010
1000
0000
0000
0000
,
0022
0000
0000
0033
,
1001
0000
0000
0000
;

//---------------dance-single - J. DeGarmo----------------
#NOTES:
     dance-single:
     J. DeGarmo:
     Medium:
     5:
     0.331,0.000,0.097,0.167,0.000:
0000
0000
0000
0000
,
0000
0000
0000
0000
,
0000
0000
0000
0000
,
0000
0000
0000
0000
,
0000
0100
0000
0001
,
0000
1000
0000
0100
,
0000
0010
0000
0001
,
0200
0000
0000
0000
,
0310
0000
1000
0000
0001
0000
0010
0200
,
0000
1000
0010
1300
,
0001
0000
0100
0000
0010
0000
1000
0002
,
0000
0010
0100
0013
,
0100
1000
0010
0100
,
0001
0000
1000
0000
0010
0100
0001
0000
,
1000
0010
1000
0100
,
2002
0000
0000
3003
,
1000
0000
0100
0000
1000
0000
0001
0100
,
0010
0000
1000
0000
0010
0000
0100
0001
,
0010
0000
0100
0000
1000
0000
0001
0100
,
0010
1000
1000
0000
,
0001
0000
0100
0000
0001
0000
0010
0100
,
1000
0000
0010
0000
0100
0000
0001
0100
,
0010
0000
0000
0000
,
1000
0100
0010
0001
,
2000
0001
0100
3001
,
0020
0001
0100
0031
,
0200
0010
0001
0310
,
0002
0100
0010
0103
,
2000
3100
0002
0103
,
2000
3010
0002
0013
,
1000
0000
0000
0000
,
0110
0110
0220
0330
,
0001
0000
1000
0000
0010
0100
0001
0000
,
0100
0000
0010
0000
1000
0100
1000
0000
,
0010
0000
1000
0000
0001
0001
0100
0000
,
0010
0000
0000
0000
,
1000
0000
0010
0000
1000
0001
0100
0000
,
0010
0000
1000
0000
0001
0100
0010
0000
,
1000
0100
0010
0001
,
1000
0100
0010
0001
,
1000
0100
1000
0000
0001
0010
0001
0000
,
0100
0010
1000
0001
,
0100
0010
0100
0000
0001
0100
0001
0010
,
0001
0000
0000
0000
,
1000
0010
1000
0000
0001
1000
0001
0000
,
0100
0010
1000
0001
,
0200
0300
0020
0030
,
1000
0001
0100
0010
,
1000
0000
1000
0000
1000
0000
0010
0100
,
0001
0001
0001
0001
,
0100
0000
0100
0000
0100
0000
0001
1000
,
0010
0010
0010
0010
,
1000
0000
0010
0000
1000
0000
0001
0100
,
0010
0000
1000
0000
0100
0000
1000
0010
,
0100
0001
1000
0010
,
0200
0000
0000
0000
,
0301
0000
0100
0000
0001
0010
0100
0000
,
1000
0010
1010
0101
,
0010
0000
1000
0000
0001
1000
0100
0000
,
0010
0001
1100
0011
,
0001
0000
1000
0000
0010
0100
0001
0000
,
1000
0010
0110
1001
,
0001
0000
0100
0000
0010
1000
0100
0000
,
0020
0000
0000
0030
,
1001
0000
0000
0000
;

//---------------dance-single - J. DeGarmo----------------
#NOTES:
     dance-single:
     J. DeGarmo:
     Easy:
     2:
     0.161,0.000,0.026,0.035,0.000:
0000
0000
0000
0000
,
0000
0000
0000
0000
,
0000
0000
0000
0000
,
0000
0000
0000
0000
,
0001
0000
0000
0000
,
0100
0000
0000
0000
,
0010
0000
1000
0000
,
1001
0000
0000
0000
,
0001
0001
0001
0000
,
1000
0000
0010
0000
,
0100
0100
0100
0000
,
0001
0000
0001
0000
,
1000
1000
1000
0000
,
0001
0000
1000
0000
,
0010
0010
0010
0000
,
0100
0000
0000
0000
,
0001
0000
0000
0000
,
1000
0000
0000
0000
,
0010
0000
0100
0000
,
0001
0001
0001
0000
,
1000
0000
0000
0000
,
0010
0000
0000
0100
,
0100
0000
0000
0000
,
0002
0000
0003
0000
,
0100
0000
0010
0000
,
1000
0000
0100
0000
,
1000
0000
0010
0000
,
0100
0000
0001
0000
,
1000
0000
0001
0000
,
0100
0000
0001
0000
,
1000
0000
0000
0000
,
0001
1000
1001
0000
,
0001
0000
0100
0000
,
0010
0000
0000
0000
,
1000
0000
0100
0000
,
0010
0000
0000
0000
,
0001
0000
0100
0000
,
0001
0000
0000
0000
,
1000
0000
0010
0000
,
1000
0000
0001
0000
,
1000
1000
1000
0000
,
0010
0000
0100
0000
,
0001
0001
0001
0000
,
1000
0000
0000
0000
,
0010
0000
1000
0000
,
0100
0000
0010
0000
,
0001
0000
0100
0000
,
0010
0000
1000
0000
,
0001
0001
0001
0000
,
1000
0000
0010
0000
,
0100
0100
0100
0000
,
0001
0000
0001
0000
,
0010
0010
0010
0000
,
0001
0000
0001
0000
,
1000
1000
1000
0001
,
2000
0000
3000
0000
,
0010
0010
0010
0000
,
0100
0000
0001
0000
,
1000
1000
1000
0000
,
0010
0000
0001
0000
,
0100
0100
0100
0000
,
0010
0000
1000
0000
,
0001
0001
0001
0000
,
2002
0000
0000
0000
,
3003
0000
0000
0000
;

//---------------dance-single - J. DeGarmo----------------
#NOTES:
     dance-single:
     J. DeGarmo:
     Beginner:
     1:
     0.082,0.000,0.009,0.000,0.000:
0000
0000
0000
0000
,
0000
0000
0000
0000
,
0000
0000
0000
0000
,
0000
0000
0000
0000
,
0001
0000
0000
0000
,
0000
0000
0000
0000
,
1000
0000
0000
0000
,
1001
0000
0000
0000
,
0010
0000
0000
0000
,
0100
0000
0000
0000
,
0001
0000
0000
0000
,
0010
0000
0000
0000
,
0001
0000
0000
0000
,
0100
0000
0000
0000
,
0010
0000
0000
0000
,
1000
0000
0000
0000
,
0001
0000
0000
0000
,
0001
0000
0000
0000
,
0001
0000
0000
0000
,
0001
0000
0000
0000
,
1000
0000
0000
0000
,
1000
0000
0000
0000
,
1000
0000
0000
0000
,
1000
0000
0000
0000
,
0010
0000
0000
0000
,
0100
0000
0000
0000
,
0010
0000
0000
0000
,
0100
0000
0000
0000
,
0001
0000
0000
0000
,
1000
0000
0000
0000
,
0001
0000
0000
0000
,
1000
0000
0000
0000
,
0001
0000
0000
0000
,
1000
0000
0000
0000
,
0100
0000
0000
0000
,
0010
0000
0000
0000
,
0001
0000
0000
0000
,
0100
0000
0000
0000
,
0010
0000
0000
0000
,
1000
0000
0000
0000
,
0001
0000
0001
0000
,
0001
0000
0000
0000
,
0100
0000
0000
0000
,
0010
0000
0000
0000
,
1000
0000
1000
0000
,
1000
0000
0000
0000
,
0010
0000
0000
0000
,
0100
0000
0000
0000
,
0001
0000
0000
0000
,
0010
0000
0000
0000
,
0001
0000
0000
0000
,
0010
0000
0000
0000
,
0100
0000
0000
0000
,
1000
0000
0000
0000
,
0100
0000
0000
0000
,
1000
0000
0000
0000
,
0001
0000
0001
0000
,
0001
0000
0000
0000
,
0010
0000
0000
0000
,
0100
0000
0000
0000
,
1000
0000
1000
0000
,
1000
0000
0000
0000
,
0001
0000
0000
0000
,
1000
0000
0000
0000
,
0001
0000
0000
0000
;

//---------------dance-single - D. Renzetti----------------
#NOTES:
     dance-single:
     D. Renzetti:
     Challenge:
     9:
     -1.000,-1.000,-1.000,-1.000,-1.000:
// measure 1
0000
0000
0000
0000
,  // measure 2
0000
0000
0000
0000
,  // measure 3
1000
0000
0000
0000
0101
0000
0000
0100
0010
0000
1000
0000
0010
0000
0100
0000
,  // measure 4
0000
0000
0000
0000
0110
0000
0000
1000
0010
0000
0100
0000
0001
0000
0010
0000
,  // measure 5
0200
0001
0000
0010
0000
1000
0000
0310
,  // measure 6
0001
0200
0000
1000
0000
0010
0000
0001
,  // measure 7
0301
0010
0001
0010
0100
1000
0100
1000
0010
0100
0001
0100
0001
0010
0100
1000
,  // measure 8
0200
0000
0000
0000
,  // measure 9
0310
0000
0000
0000
0011
0000
0000
0001
0100
0000
0100
0000
0010
0000
1200
0000
,  // measure 10
0000
0000
0000
0000
0301
0000
0000
0100
1000
0000
0010
0000
0100
0000
0000
0000
,  // measure 11
0011
0000
0000
0000
1100
0000
0000
1000
0010
0000
0010
0000
0100
0000
0021
0000
,  // measure 12
0000
0000
0100
0000
0230
0000
0000
1300
0100
0000
0001
0000
0100
0000
1000
0000
,  // measure 13
0010
0000
0000
0000
0110
0000
0000
0100
1000
0000
0100
0000
0010
0000
1020
0000
,  // measure 14
0000
0000
0000
0000
0031
0000
0000
0010
0100
0000
0001
0000
0010
0000
0000
0000
,  // measure 15
0101
0000
0000
0000
1010
0000
0000
1000
0001
0000
0010
0000
0001
0000
0100
0000
,  // measure 16
2000
0000
0000
0000
0000
0100
3200
0000
,  // measure 17
0302
0100
0103
0010
2000
0100
3100
1000
,  // measure 18
0010
0001
0010
1000
0100
0010
0001
0100
,  // measure 19
0020
0000
1030
0000
0010
0100
1000
0100
,  // measure 20
0010
0000
0100
0000
0001
0000
0020
0000
0000
0000
0001
0000
0031
0000
0001
0100
,  // measure 21
0020
1000
1030
0010
0200
0001
0001
0302
,  // measure 22
0000
0023
0100
0230
0000
1300
0010
0100
,  // measure 23
0002
0000
0000
0000
0103
0000
0001
0010
0100
0000
0000
0011
0000
0000
0100
0000
,  // measure 24
0110
0000
0000
1000
0000
0000
0010
0000
0200
0000
0000
0000
1000
0000
0000
0000
,  // measure 25
0310
0000
0100
0000
0001
0010
0001
0000
0110
0000
0000
1010
0000
0000
1100
0000
,  // measure 26
1000
0000
0010
0000
0100
0010
0100
0000
0011
0000
0000
1001
0000
0000
1100
0000
,  // measure 27
1000
0000
0001
0000
0100
0001
0100
0000
0110
0000
0000
1010
0000
0000
1001
0000
,  // measure 28
1000
0000
0100
0000
0010
0000
0200
0000
0000
0000
0010
0000
0310
0000
0010
0100
,  // measure 29
1000
0000
0010
0000
0100
0001
0010
0000
0011
0000
0000
1100
0000
0000
1010
0000
,  // measure 30
1000
0000
0010
0000
1000
0001
0100
0000
0101
0000
0000
1010
0000
0000
0110
0000
,  // measure 31
0010
0100
1000
0000
1000
0100
0010
0000
0010
0100
0001
0000
0001
0010
0100
1000
,  // measure 32
0001
0010
0001
0010
0100
1000
0100
1000
002M
0000
0M0M
M000
0M00
M000
0000
0000
,  // measure 33
0130
0000
0001
0000
0021
0000
0000
0000
0031
0000
0100
0010
0000
0000
1000
0000
,  // measure 34
0010
0000
1000
0000
1200
0000
0000
0000
1300
0000
0010
0100
0000
0100
0001
1000
,  // measure 35
0010
0000
0100
0000
0201
0000
0000
0000
1300
0000
0100
0001
0000
0000
0100
0000
,  // measure 36
0010
0000
1000
0000
1020
0000
0000
0000
0031
0000
0010
1000
0000
1000
0100
0010
,  // measure 37
0001
0000
0100
0000
0120
0000
0000
0000
1030
0000
0010
0100
0000
0000
0001
0000
,  // measure 38
0010
0000
0100
0000
2001
0000
0000
0000
3001
0000
1000
0010
0000
0100
0010
0100
,  // measure 39
0020
1000
2030
0100
3200
0001
0302
0100
,  // measure 40
0203
1000
13M0
2020
0000
3M0M
1000
0M00
,  // measure 41
1030
0001
0021
0000
0031
0100
0010
1000
,  // measure 42
1200
1000
1000
1000
0010
0010
0010
0310
,  // measure 43
0001
0100
0210
0000
0310
1000
0010
0100
,  // measure 44
0201
0001
0001
0001
0010
0010
0010
0310
,  // measure 45
0100
0001
0011
0000
1000
0100
1100
0000
,  // measure 46
1000
0010
0100
0100
0001
0010
0010
0000
,  // measure 47
0002
0000
0103
0000
0100
0010
1000
0200
,  // measure 48
0000
0301
0100
1000
0000
0010
0200
0000
,  // measure 49
0301
0000
0000
0000
0101
0000
0000
0100
0010
0000
1000
0000
1000
0000
0120
0000
,  // measure 50
0000
0000
0000
0000
1030
0000
0010
0100
0010
0000
1000
0000
0001
0000
0000
0000
,  // measure 51
1000
0000
0000
0000
1010
0000
0000
0010
0100
0000
0001
0000
0100
0000
0021
0000
,  // measure 52
0000
0000
0000
0000
1030
0000
0000
0010
0001
0000
0100
0000
1000
0000
0100
0000
,  // measure 53
0010
0000
0000
0000
0110
0000
0000
1000
0001
0000
0010
0000
0100
0000
1002
0000
,  // measure 54
0000
0000
0100
0000
0103
0000
0100
0001
0100
0000
0100
0000
0010
0000
1000
0010
,  // measure 55
0100
0000
0001
0000
0021
0000
0000
0031
0100
0000
0010
0000
2100
0000
0000
0000
,  // measure 56
3010
1000
0010
0000
0010
0100
0010
0000
0100
0001
0100
0000
0020
0000
0000
0000
,  // measure 57
1030
0100
0001
0100
1000
0100
0001
0100
,  // measure 58
1000
0010
0100
0001
0100
1000
0100
0001
,  // measure 59
0010
0100
0100
1000
0010
0100
0100
0010
,  // measure 60
0001
0010
1000
0010
0001
0010
1000
0100
,  // measure 61
0010
0001
0010
0100
1000
1000
0010
0100
,  // measure 62
0001
0100
0100
0010
1000
0100
0010
0001
,  // measure 63
2000
0100
3200
0010
0320
0001
0032
0100
,  // measure 64
0103
0010
0100
0010
1000
0010
1000
0010
1000
0100
0010
0001
1000
0100
0010
0002
,  // measure 65
2000
0000
3003
0000
;

//---------------dance-double - M. Cerna----------------
#NOTES:
     dance-double:
     M. Cerna:
     Challenge:
     9:
     0.537,0.483,0.379,0.159,0.176,366.000,43.000,18.000,23.000,0.000,0.000:
00000000
00000000
00000000
00000000
,
00000000
00000000
00000000
00000000
,
00000000
00000000
00000000
00000000
,
00000000
00000000
00000000
00000000
,
10010000
10000000
00100000
01000000
00010000
00100000
00001000
01000000
,
00100000
00010000
00001000
00000100
00000010
00000100
00001000
00010000
,
00011000
00010000
01000000
00100000
00010000
00001000
00000100
00000010
,
00002002
00000000
00003003
0000MMMM
00000000
00MMMM00
00000000
MMMM0000
,
10010000
00000000
00000000
00000000
10010000
00000000
00000000
10000000
00100000
00000000
01000000
00000000
00010000
00000000
00100000
00000000
,
00000000
00000000
00000000
00000000
10010000
00000000
00000000
10000000
00100000
00000000
00010000
00000000
00001000
00000000
00000000
00000000
,
00011000
00000000
00000000
00000000
00011000
00000000
00000000
00010000
00000100
00000000
00001000
00000000
00000010
00000000
00010000
00000000
,
00000000
00000000
00000000
00000000
00011000
00000000
00000000
00010000
00001000
00000000
00000100
00000000
00000010
00000000
00000000
00000000
,
00001001
00000000
00000000
00000000
00001001
00000000
00000000
00000001
00000100
00000000
00000010
00000000
00001000
00000000
00000100
00000000
,
00000000
00000000
00000000
00000000
00001001
00000000
00000000
00000010
00000100
00000000
00000001
00000000
00001000
00000000
00000000
00000000
,
00011000
00000000
00000000
00000000
00011000
00000000
00000000
00001000
01000000
00000000
00100000
00000000
01000000
00000000
00100000
00000000
,
00000000
00000000
00000000
00000000
10010000
00000000
00000000
10000000
01000000
00000000
00100000
00000000
00010000
00000000
10000000
00000000
,
10010000
00000000
00010000
00000000
10000000
01000000
10000000
00000000
00100000
00000000
00000000
00100000
00000000
00000000
00100000
00000000
,
00010000
00000000
00001000
00000000
00000100
00000010
00000100
00000000
00000010
00000000
00000000
00000010
00000000
00000000
00000010
00000000
,
00001000
00000000
00000100
00000000
00010000
00001000
00010000
00000000
00001000
00000000
00000000
00001000
00000000
00000000
00001000
00000000
,
00100000
00000000
01000000
00000000
00100000
00001000
00010000
00000000
00001000
00000000
00000000
00001000
00000000
00000000
00001000
00000000
,
00010000
00000000
01000000
00000000
00100000
01000000
00100000
00000000
00010000
00000000
00000000
10000000
00000000
00000000
00010000
00000000
,
01000000
00000000
00100000
00000000
00010000
00100000
00010000
00000000
00100000
00000000
00000000
10000000
00000000
00000000
00100000
00000000
,
10000000
00000000
01000000
00000000
00010000
00001000
00010000
00000000
00000100
00000000
00000000
00001000
00000000
00000000
00000100
00000000
,
00001200
00000000
00002300
00003010
00000100
00000000
00001001
0000M00M
,
00001000
00000100
00001000
00000010
00000100
00001000
00010000
00100000
,
00000000
01000000
00100000
10000000
00000000
01000000
00000000
00100000
,
00001000
00000000
00020000
00000000
00031000
00000100
00000010
00000001
,
00000010
00000100
00001000
00020000
00000000
00000000
00031000
00010000
,
00011000
00000000
00200000
00000000
00310000
01000000
00100000
01000000
,
00000000
00010000
10000000
01000000
00000000
00100000
00010000
00000000
,
20010000
00000000
00010000
00000000
30010000
00000000
10000000
01000000
,
00020000
00000000
00031000
00000100
00000000
00000001
00001000
00000100
,
00011000
00000000
00011000
00000000
00001000
01000000
00100000
01000000
,
00000000
00002000
00000000
00000000
00013000
00001000
00010000
00001000
,
00011000
00000000
00011000
00000000
00010000
00000100
00000010
00000200
,
00000000
00000000
00010300
00000000
00001000
00010000
01000000
00100000
,
10010000
00000000
10010000
00000000
10000000
00001000
00010000
00000002
,
00000000
00001003
00000000
00000000
00000001
00000100
00000010
00001000
,
00001002
00000000
00001003
00000001
00000000
00010000
00000000
00001000
,
00000000
00000000
00010000
00000000
00000000
00000000
00001000
00000000
00010000
00000000
00001000
00000000
00010000
00001000
00010000
00001000
,
00010000
00000000
00001000
00000000
00010000
01000000
00010000
00001000
,
00000000
00010000
00000000
00001000
00000000
00010000
00001000
00010000
,
00001000
00000000
00010000
00000000
00001000
00000100
00001000
00020000
,
00000000
00000000
00030000
00000000
00000000
00001000
10000000
00010000
,
10000000
00000000
00010000
00000000
10000000
00100000
00010000
00001000
,
00000000
00020000
00000000
00000000
00031000
00010000
00001000
00010000
,
00002000
00000000
10003000
01000000
00000000
00100000
00000000
00010000
,
00000000
00001000
00000100
00000020
00000000
00000031
00001000
00000000
,
00001001
00000000
00000000
00000000
00001001
00000000
00000000
00000001
00001000
00000000
00000100
00000000
00010000
00000000
00001000
00000000
,
00000000
00000000
00000000
00000000
00100000
00000000
00000000
00010000
10000000
00000000
00100000
00000000
01000000
00000000
00000000
00000000
,
10010000
00000000
00000000
00000000
10010000
00000000
00000000
00010000
00100000
00000000
00001000
00000000
00010000
00000000
00000100
00000000
,
00000000
00000000
00000000
00000000
00001000
00000000
00000000
00000010
00000100
00000000
00000001
00000000
00000010
00000000
00000000
00000000
,
00000110
00000000
00000000
00000000
00000110
00000000
00000000
00000001
00010000
00000000
00001000
00000000
00100000
00000000
00010000
00000000
,
00000000
00000000
00000000
00000000
10000000
00000000
00000000
00100000
01000000
00000000
00010000
00000000
00100000
00000000
00000000
00000000
,
01100000
00000000
00000000
00000000
01100000
00000000
00000000
10000000
00010000
00000000
00100000
00000000
00001000
00000000
00010000
00000000
,
00000000
00000000
00000000
00000000
00001000
00000000
00000000
00000100
00000010
00000000
00001000
00000000
00000100
00000000
00000000
00000000
,
00011000
00000000
00000000
00000000
00011000
00000000
00000000
00001000
00010000
00000000
00001000
00000000
00010000
00000000
00000100
00000000
,
00000000
00000000
00000000
00000000
00001000
00000000
00000000
00000001
00001000
00000000
00000100
00000000
00010000
00000000
00000000
00000000
,
00011000
00000000
00000000
00000000
00011000
00000000
00000000
00010000
00001000
00000000
00010000
00000000
00001000
00000000
01000000
00000000
,
00000000
00000000
00000000
00000000
00010000
00000000
00000000
10000000
00010000
00000000
01000000
00000000
00001000
00000000
00000000
00000000
,
00010010
00000000
00000000
00000000
00010010
00000000
00000000
00000010
00000100
00000000
00001000
00000000
00010000
00000000
00001000
00000000
,
00000000
00000000
00000000
00000000
00010000
00000000
00000000
00001000
00100000
00000000
00010000
00000000
01000000
00000000
00000000
00000000
,
00101000
00000000
00000000
00000000
00101000
00000000
00000000
00100000
01000000
00000000
00010000
00000000
00001000
00000000
00010000
00000000
,
00000000
00000000
00000000
00000000
00001000
00000000
00000000
00010000
00000010
00000000
00001000
00000000
00000100
00000000
00000000
00000000
,
0002MMM0
MMM00000
00030MMM
00000000
;

//---------------dance-double - M. Cerna----------------
#NOTES:
     dance-double:
     M. Cerna:
     Hard:
     8:
     0.435,0.366,0.255,0.167,0.035,298.000,29.000,19.000,0.000,0.000,0.000:
00000000
00000000
00000000
00000000
,
00000000
00000000
00000000
00000000
,
00000000
00000000
00000000
00000000
,
00000000
00000000
00000000
00000000
,
10000000
00000000
10000000
00000000
01000000
00100000
00010000
10000000
,
00000000
00000000
00010000
00000000
10000000
00010000
10000000
00000000
,
00010000
00000000
00010000
00000000
01000000
00100000
10000000
00010000
,
00000000
00000000
10000000
00000000
00010000
10000000
00010000
00000000
,
10010000
00000000
00010000
00000000
00100000
00001000
00010000
00001000
,
00000000
00000000
00000000
00000000
00010000
00000000
00000000
00001000
00010000
00000000
00001000
00000000
00010000
00000000
00000000
00000000
,
00011000
00000000
00010000
00000000
00000100
00001000
00000001
00001000
,
00000000
00000000
00000000
00000000
00000001
00000000
00000000
00001000
00000001
00000000
00001000
00000000
00000001
00000000
00000000
00000000
,
00001001
00000000
00001000
00000000
00000010
00000100
00000001
00000100
,
00000000
00000000
00000000
00000000
00000010
00000000
00000000
00000100
00000010
00000000
00001000
00000000
00000001
00000000
00000000
00000000
,
00011000
00000000
00010000
00000000
00001000
00100000
00010000
00100000
,
00000000
00000000
00000000
00000000
00010000
00000000
00000000
10000000
00010000
00000000
10000000
00000000
00010000
00000000
00000000
00000000
,
10000000
00000000
00020000
00000000
10030000
01000000
00100000
00010000
,
00000000
00010000
00100000
02000000
00000000
13000000
00000000
00000000
,
00010000
00000000
00100000
00001000
00100000
00000000
00002000
00000000
,
00013000
00000100
00010000
00000010
00000000
00000000
00001000
00000000
,
00000001
00000000
00002000
00000000
00003100
00010000
00001000
00000100
,
00000000
00000010
00001000
00000100
00000000
00010000
00001000
00000000
,
00022000
00000000
00033000
00000000
00000000
00000000
00000000
00001000
,
00200000
00000000
00310000
10000000
01000000
00000000
10010000
00000000
,
10000000
00100000
00010000
00000000
00100000
01000000
00010000
00100000
,
00000000
00001000
00010000
00000100
00000000
00002000
00000000
00000000
,
00003001
00000000
00001000
00000000
00000200
00000000
00010300
00001000
,
00010000
01000000
00100000
00010000
00000000
00000000
10000000
00010000
,
10010000
00000000
20000000
00000000
30100000
01000000
00010000
00100000
,
00000000
00002000
00000000
00013000
00000000
00000100
00001000
00000000
,
00001002
00000000
00000003
00000000
00000000
00000000
00000000
00001000
,
00000200
00000000
00001300
00000020
00000000
00000130
00000001
00001000
,
00001001
00000000
00000001
00000000
00000100
00001000
00010000
00001000
,
00000000
00010000
00000000
00000000
00001000
00000000
00010000
00000000
,
00011000
00000000
00001000
00000000
00100000
00010000
10000000
00010000
,
00000000
00000000
10000000
01000000
00100000
00010000
00100000
01000000
,
10000000
00000000
00010000
00000000
00100000
00010000
00001000
00000100
,
00000000
00000020
00000000
00000000
00000030
00000000
00000000
00000000
,
00000002
00000000
00000100
00000103
00000000
00000010
00000000
00001000
,
00000000
00000100
00000000
00010000
00000000
00000000
00001000
00010000
,
00011000
00000000
00001000
00000000
00100000
01000000
00100000
00010000
,
00000000
10000000
00000000
00000000
00000000
00000000
00100000
00000000
,
10010000
00000000
10000000
00000000
01000000
00100000
00001000
00020000
,
00000000
00000000
00030000
00000000
00000000
00001000
00010000
00001000
,
00010000
00000000
00010000
00000000
00001000
00000100
00000010
00000200
,
00000000
00000301
00000000
00000000
00000000
00000000
00000000
00000000
,
00012000
00000000
00013000
00000010
00000000
00000100
00000000
00001000
,
00000000
00010000
00001000
00010000
00000000
00001000
00001000
00000000
,
01010000
00000000
10100000
00000000
10000000
01000000
00100000
00010000
,
00000000
00000000
10000000
00000000
00010000
10000000
00010000
00000000
,
00110000
00000000
01001000
00000000
00001000
00010000
00000100
00001000
,
00000000
00000000
00000100
00000000
00001000
00000010
00001000
00000000
,
00000101
00000000
00000011
00000000
00000001
00000010
00000100
00001000
,
00000000
00000000
00000010
00000000
00001000
00000100
00010000
00000000
,
00011000
00000000
00101000
00000000
00001000
00010000
01000000
00100000
,
00000000
00000000
00010000
00000000
00100000
00001000
00010000
00000000
,
00011000
00000000
00001010
00000000
00000010
00000100
00000001
00000010
,
00000000
00000000
00000000
00000000
00000100
00000000
00000000
00000010
00000100
00000000
00000010
00000000
00000001
00000000
00000000
00000000
,
00001010
00000000
00001100
00000000
00000100
00010000
00001000
00100000
,
00000000
00000000
00000000
00000000
00010000
00000000
00000000
00100000
01000000
00000000
00100000
00000000
00010000
00000000
00000000
00000000
,
10100000
00000000
01010000
00000000
01000000
00100000
01000000
00010000
,
00000000
00000000
00000000
00000000
00100000
00000000
00000000
00010000
00100000
00000000
00001000
00000000
00010000
00000000
00000000
00000000
,
00010100
00000000
00001010
00000000
00000010
00000100
00000001
00000010
,
00000000
00000000
00000000
00000000
00000100
00000000
00000000
00001000
00000100
00000000
00001000
00000000
00000001
00000000
00000000
00000000
,
00001000
00000000
00000000
00000000
;

//---------------dance-double - M. Cerna----------------
#NOTES:
     dance-double:
     M. Cerna:
     Easy:
     3:
     0.302,0.256,0.203,0.167,0.000,198.000,23.000,19.000,0.000,0.000,0.000:
00000000
00000000
00000000
00000000
,
00000000
00000000
00000000
00000000
,
10000000
10000000
10000000
00000000
,
00010000
00000000
10000000
00010000
,
01000000
01000000
01000000
00000000
,
00001000
00000000
00010000
00001000
,
00010000
00010000
00010000
00000000
,
00022000
00000000
00000000
00033000
,
00000100
00000100
00001000
00000010
,
00000000
00000100
00000100
00000100
,
00000010
00001000
00000100
00010000
,
00000000
00001000
00001000
00001000
,
00100000
00010000
00100000
01000000
,
00000000
00100000
00100000
00100000
,
00001000
00010000
00001000
00010000
,
00000000
00000100
00000100
00001001
,
00000100
00000100
00000010
00000100
,
00000001
00000001
00001000
00000100
,
00010000
00010000
00001000
00100000
,
00010000
00010000
01000000
00100000
,
10000000
01000000
10000000
00100000
,
01000000
00100000
10000000
00010000
,
20000000
30000000
00000000
00000000
,
10010000
00000000
00010000
10000000
,
10010000
10000000
01000000
00100000
,
01000000
00100000
00001000
00010000
,
00000000
00001000
00001000
00010000
,
00000100
00001000
00000010
00000000
,
00000000
00000200
00000310
00001000
,
00000100
00010000
00001000
00010000
,
00011000
00000000
00000000
00000000
,
00002000
00000000
00013000
00001000
,
00011000
00011000
00001000
00001000
,
00002000
00000000
00003000
00100000
,
10010000
10010000
10000000
10000000
,
20000000
00000000
30000000
00010000
,
01100000
01100000
01000000
00100000
,
02000000
00000000
03000000
00000000
,
00100000
00000000
00001000
00000000
,
00010000
00001000
00010000
00001000
,
00012000
00013000
00000100
00000100
,
00002000
00000000
00003000
00000000
,
00000210
00000310
00000100
00000100
,
00000020
00000000
00000030
00000000
,
00001000
00001000
00000100
00010000
,
00002000
00000000
00003000
00000000
,
01100000
00000000
01000000
00000000
,
00100000
01000000
00100000
01000000
,
10010000
00010000
10000000
00010000
,
00000000
00100000
00100000
00100000
,
01100000
00100000
01000000
00100000
,
00000000
00001000
00001000
00001000
,
00011000
00010000
00001000
00010000
,
00000000
00000100
00000100
00000100
,
00001001
00000001
00001000
00000001
,
00000000
00000010
00000010
00000010
,
00002001
00003001
00001000
00000001
,
00000000
00010000
00010000
00010000
,
00012000
00103000
00010000
00100000
,
00000000
01000000
01000000
01000000
,
20010000
30010000
00100000
00010000
,
00000000
10000000
10000000
10000000
,
02100000
03100000
01000000
00100000
,
00000000
10000000
10000000
10000000
,
00022000
00000000
00033000
00000000
;

//---------------dance-double - M. Cerna----------------
#NOTES:
     dance-double:
     M. Cerna:
     Medium:
     5:
     0.370,0.310,0.282,0.079,0.000,253.000,32.000,9.000,0.000,0.000,0.000: // measure 1
00000000
00000000
00000000
00000000
,  // measure 2
00000000
00000000
00000000
00000000
,  // measure 3
10000000
00000000
10000000
00000000
00010000
00000000
10000000
00010000
,  // measure 4
00000000
00000000
10000000
00000000
00010000
10000000
00010000
00000000
,  // measure 5
00100000
00000000
00100000
00000000
00001000
00000000
00010000
00001000
,  // measure 6
00000000
00000000
00010000
00000000
00010000
00001000
00010000
00000000
,  // measure 7
00001000
00000000
00001000
00000000
00010000
00000000
00000100
00001000
,  // measure 8
00000000
00000000
00000020
00000000
00000130
00000010
00000100
00000000
,  // measure 9
00001001
00000000
00000001
00000000
00000100
00000000
00000010
00000100
,  // measure 10
00000000
00000010
00000100
00001001
,  // measure 11
00000100
00000000
00000100
00000000
00010000
00000000
00001000
00010000
,  // measure 12
00000000
00001000
00010000
00011000
,  // measure 13
00100000
00000000
00100000
00000000
01000000
00000000
00100000
01000000
,  // measure 14
00000000
00100000
01000000
10010000
,  // measure 15
10000000
00000000
10000000
00000000
01000000
00000000
10000000
01000000
,  // measure 16
00000000
10000000
00010000
10010000
,  // measure 17
10000000
01000000
10000000
00010000
,  // measure 18
00100000
00000000
00010000
00000000
01000000
00000000
00001000
00010000
,  // measure 19
00001000
00010000
00000100
00001000
,  // measure 20
00000010
00000000
00000100
00000000
00000010
00000000
00010000
00001000
,  // measure 21
00010000
00001000
00100000
00010000
,  // measure 22
01000000
00000000
00100000
00000000
01000000
00000000
00010000
10000000
,  // measure 23
00020000
00000000
00030000
10000000
,  // measure 24
10010000
00000000
00010000
00000000
10000000
00010000
10000000
00000000
,  // measure 25
10010000
10000000
01000000
10000000
,  // measure 26
00100000
00000000
01000000
00000000
00010000
00000000
00100000
00001000
,  // measure 27
00010000
00001000
00000100
00001000
,  // measure 28
00000100
00000000
00000010
00000000
00010000
00000000
00001000
00010000
,  // measure 29
00001000
00100000
01000000
00010000
,  // measure 30
00001000
00000000
00010000
00000000
01000000
00000000
00100000
00010000
,  // measure 31
00200000
00000000
00300000
00000000
,  // measure 32
00002000
00000000
00013000
00001000
00000000
00001000
00010000
00000000
,  // measure 33
00011000
00000000
00011000
00000000
00010000
00000000
00001000
00010000
,  // measure 34
00000000
00001000
00000000
00000000
00000000
00000000
10000000
00000000
,  // measure 35
10010000
00000000
10010000
00000000
10000000
00000000
00010000
10000000
,  // measure 36
00000000
00000000
00000000
01000000
,  // measure 37
01100000
00000000
00100000
00000000
01000000
00000000
00100000
01000000
,  // measure 38
00000000
00100000
00000000
00000000
00000000
00000000
00000000
00000000
,  // measure 39
00012000
00000000
00013000
00000100
00000000
00010000
00000000
00000010
,  // measure 40
00000000
00000100
00000000
00000010
00000000
00000000
00001000
00000000
,  // measure 41
00001001
00000000
00000001
00000000
00000100
00000000
00000010
00000100
,  // measure 42
00000000
00000002
00000000
00000000
00000003
00000000
00000000
00000000
,  // measure 43
00001001
00000000
00001000
00000000
00000100
00000000
00010000
00002000
,  // measure 44
00000000
00003000
00000000
00100000
,  // measure 45
00110000
00000000
00010000
00000000
00100000
00000000
01000000
10000000
,  // measure 46
00000000
00020000
00000000
00000000
00000000
00030000
00000000
00000000
,  // measure 47
20000000
00000000
31000000
00100000
00000000
00010000
00000000
00100000
,  // measure 48
00000000
00001000
00000000
00010000
00000000
00001000
00010000
00000000
,  // measure 49
00011000
00000000
00011000
00000000
00010000
00000000
00000100
00001000
,  // measure 50
00000000
00000000
00000010
00000000
00000100
00000001
00000010
00000000
,  // measure 51
00000110
00000000
00000110
00000000
00000100
00000000
00001000
00000010
,  // measure 52
00000000
00000000
00000100
00000000
00001000
00010000
00001000
00000000
,  // measure 53
00110000
00000000
00110000
00000000
01000000
00000000
00100000
00010000
,  // measure 54
00000000
00000000
00100000
00000000
00001000
00010000
00001000
00000000
,  // measure 55
00011000
00000000
00011000
00000000
00001000
00000000
00100000
01000000
,  // measure 56
00000000
00000000
00100000
00000000
01000000
10000000
00100000
00000000
,  // measure 57
10010000
00000000
01100000
00000000
10000000
00000000
00010000
00100000
,  // measure 58
00000000
00000000
01000000
00000000
10000000
01000000
10000000
00000000
,  // measure 59
00110000
00000000
10010000
00000000
00010000
00000000
00100000
00001000
,  // measure 60
00000000
00000000
00010000
00000000
00001000
00010000
00001000
00000000
,  // measure 61
00011000
00000000
00010100
00000000
00000100
00000000
00001000
00000010
,  // measure 62
00000000
00000000
00000100
00000000
00000010
00000100
00000010
00000000
,  // measure 63
00001001
00000000
00000110
00000000
00000001
00000000
00001000
00000001
,  // measure 64
00000000
00000000
00000100
00000000
00000010
00001000
00000010
00000000
,  // measure 65
00010000
00000000
00000000
00000000
;
