#TITLE:Land of Imagination;
#SUBTITLE:;
#ARTIST:Lagoona;
#TITLETRANSLIT:;
#SUBTITLETRANSLIT:;
#ARTISTTRANSLIT:;
#GENRE:Techno;
#CREDIT:;
#BANNER:Land of Imagination-bn.png;
#BACKGROUND:Land of Imagination-bg.png;
#LYRICSPATH:;
#CDTITLE:;
#MUSIC:Land of Imagination.ogg;
#OFFSET:-0.460;
#SAMPLESTART:18.950;
#SAMPLELENGTH:11.960;
#SELECTABLE:YES;
#BPMS:0.000=136.100;
#STOPS:32.000=3.967;
#BGCHANGES:-0.800=Land of Imagination.mpg=1.000=1=0=0=StretchNoLoop==CrossFade==,
99999=-nosongbg-=1.000=0=0=0 // don't automatically add -songbackground-;
#KEYSOUNDS:;

//---------------dance-double - M. Emirzian----------------
#NOTES:
     dance-double:
     M. Emirzian:
     Easy:
     3:
     0.240,0.214,0.187,0.037,0.000,156.000,20.000,4.000,0.000,0.000,0.000,0.240,0.214,0.187,0.037,0.000,156.000,20.000,4.000,0.000,0.000,0.000:
00000000
00000000
00000000
00000000
,
00000000
00000000
00000000
00000000
,
00000000
00000000
00000000
00000000
,
00000000
00000000
00000000
00000000
,
00100000
00100000
00000000
00001000
,
00010000
01000000
00000000
00010000
,
00001000
00000010
00000000
00000001
,
00001000
00000010
00000100
00000001
,
00001001
00000000
00000010
00001000
,
00000100
00000010
00000001
00001000
,
00000000
00000010
00000100
00001000
,
00010000
00100000
01000000
00010000
,
00000000
10000000
01000000
00100000
,
00010000
01000000
00100000
00010000
,
00000000
00001000
00000010
00000100
,
00001000
00000010
00000100
00000001
,
00001000
00000100
00000010
00000001
,
00000001
00000010
00000100
00010000
,
00000000
01000000
00100000
00010000
,
00010000
00100000
00000000
11000000
,
00000000
10000000
01000000
00100000
,
00100000
00001000
00000000
00001000
,
00010000
00000100
00000100
00001000
,
00000000
00000010
00000100
00000001
,
00000001
00001001
00000000
00000000
,
00000000
10010000
00000000
00000000
,
00000000
00001100
00000000
00000000
,
00000000
01100000
00000000
00000000
,
00000000
00000011
00001000
00000000
,
00000000
00001100
00010000
00000000
,
00000000
01100000
10000000
00000000
,
00000000
00011000
00000100
00000000
,
00000000
00001001
00000010
00000000
,
00000000
01010000
00001000
00000000
,
00000000
10100000
01000000
00000000
,
00000000
00011000
00000010
00000000
,
00000000
00002200
00000000
00003300
,
00010000
00000100
00001000
00000010
,
00000100
00000001
00000100
00000010
,
00000000
00000001
00000100
00000010
,
00001000
00000100
00000010
00000100
,
00000000
00010000
00001000
01000000
,
00100000
00010000
00001000
01000000
,
00000000
00100000
10000000
01000000
,
00100000
00010000
10000000
00100000
,
01000000
00010000
10000000
01000000
,
01000000
00100000
00000000
00101000
,
00000000
00010000
00001000
00000100
,
00000100
00000001
00000000
00000011
,
00000000
00000100
00010000
00001000
,
00001000
00000100
00000000
00011000
,
00000000
00100000
01000000
00010000
,
00010000
20020000
00000000
00000000
,
30030000
01000000
01000000
00000000
,
00100000
00100000
00100000
00000000
,
00001000
00010000
01000000
00000000
,
00000000
00010000
00001000
00000010
,
00000001
00000110
00000000
00000000
;

//---------------dance-double - M. Emirzian----------------
#NOTES:
     dance-double:
     M. Emirzian:
     Medium:
     6:
     0.372,0.322,0.299,0.037,0.000,243.000,32.000,4.000,0.000,0.000,0.000,0.372,0.322,0.299,0.037,0.000,243.000,32.000,4.000,0.000,0.000,0.000:
00000000
00000000
00000000
00000000
,
00000000
00000000
00000000
00000000
,
00000000
00000000
00000000
00000000
,
00000000
00000000
00000000
00000000
,
00100000
10000000
01000000
00000000
10010000
00000000
00000000
00000000
,
00000100
00010000
00001000
00000000
00010010
00000000
00000000
00000000
,
00000100
00000001
00000010
00000000
00001100
00000000
00000010
00000000
,
00010000
00001000
01001000
01000000
,
00110000
00100000
00100000
00010000
,
10000000
01000000
00010000
00000000
00001000
00000000
00010000
00001000
,
00000010
00000000
00000001
00000000
00001000
00000000
00000010
00000100
,
00000001
00001010
00000100
00010100
,
00001000
00000000
00000100
00001000
00010000
00000000
00100000
00000000
,
10000000
00100000
01000000
00000000
00010000
00000000
01000000
00100000
,
10000000
00000000
01000000
00000000
00010000
00000000
00001000
00010000
,
00000100
00001100
00000010
00001100
,
00000001
00000000
00000100
00001000
00000010
00000000
00000100
00001000
,
00010000
00100000
01000000
00001000
,
01010000
00000000
00100000
00010000
01000000
00000000
00100000
10000000
,
01000000
00010000
00001000
00000010
,
00000110
00000000
00000001
00001000
00000010
00000000
00000100
00001000
,
00000001
00000010
00001000
00000100
,
00010100
00000000
00001000
00000100
00001000
00000000
00010000
01000000
,
00010000
01000000
00100000
10000000
,
11000000
00000000
00100000
10010000
00000000
00000000
01000000
00000000
,
00010000
00000000
00001000
00010100
00000000
00000000
00000001
00000000
,
00000100
00000000
00001000
00011000
00000000
00000000
00001000
00000000
,
10000000
00000000
00100000
01010000
00000000
00000000
00000000
00000000
,
00000000
00001000
00010000
00000100
00000010
00000000
00000100
00000000
,
00010000
00000000
00001000
01010000
00000000
00000000
00000000
00000000
,
00000000
00010000
00000010
00001000
00000100
00000000
00010000
00000000
,
00100000
00000000
01000000
01010000
00000000
00000000
00000000
00000000
,
00000000
00000001
00000100
00000010
00010000
00000000
00001000
00000000
,
01000000
00000000
00010000
01100000
00000000
00000000
00000000
00000000
,
00000000
00001000
01000000
00010000
00100000
00000000
01000000
00000000
,
10000000
20020000
00000000
00000000
,
30030000
01010000
00000000
00100000
,
00001000
00000000
00100000
00010000
01000000
00000000
00100000
00000000
,
01000000
00001000
00010000
00000000
00000100
00000000
00000010
00000100
,
00001000
00000000
00000100
00000000
00000001
00000000
00000100
00001000
,
00000001
00001010
00000010
00010010
,
00001000
00000000
01000000
00001000
00010000
00000000
00000010
00000000
,
00010000
00001000
00100000
00000000
00001000
00000000
00010000
00000100
,
00001000
00000000
00000100
00000000
00010000
00000000
00001000
01000000
,
00001000
00011000
00100000
00011000
,
00000100
00000000
00010000
00001000
00000100
00000000
00001000
00010000
,
00100000
01000000
00001000
00100000
,
01010000
00000000
00100000
10000000
01000000
00000000
00100000
00010000
,
01000000
10000000
00010000
00100000
,
10010000
00000000
01000000
00010000
00001000
00000000
00000001
00000100
,
00001000
00000100
00000001
00001000
,
00001010
00000000
00000001
00000010
00000100
00000000
00010000
00001000
,
01000000
00022000
00000000
00000000
,
00033000
00010000
00001000
01000000
00100000
00000000
00010000
00000000
,
00000100
00000000
00000010
00001100
00000000
00000000
00000000
00000000
,
00000000
00001000
00100000
01000000
10000000
00000000
00001000
00000000
,
00010000
00000000
00000010
00000110
00000000
00000000
00000100
00000000
,
00000000
00001000
00010000
01000000
10000000
00000000
00000000
00000000
;

//---------------dance-double - N. Psyhogios----------------
#NOTES:
     dance-double:
     N. Psyhogios:
     Challenge:
     9:
     0.669,0.617,0.280,0.187,0.625,452.000,30.000,20.000,47.000,13.000,0.000,0.669,0.617,0.280,0.187,0.625,452.000,30.000,20.000,47.000,13.000,0.000:
00000000
00000000
00000000
00000000
,
00000000
00000000
00000000
00000000
,
00000001
00000000
00001000
00000000
00001000
00000000
00000000
00000010
00000000
00000010
00000000
00010000
00000000
00001000
00010000
00001000
,
00010000
00000000
01000000
00000000
01000000
00000000
00000000
10000000
00000000
00010000
00000000
01000000
00000000
00100000
10000000
00000000
,
00010000
00000000
00100000
00000000
M0100000
00000000
00000000
00001000
00000000
00100000
00000000
00001000
00000000
00010000
00000100
00010000
,
00000100
00000000
00001000
00000000
00001M00
00000000
00000000
00010000
00000000
00000010
00000000
00010000
00000000
00010000
00001000
00000000
,
01000000
00000000
00010000
00000000
0M010000
00000000
00000000
00001000
00000000
00010000
00000000
00000010
00001000
00000010
00000100
00000000
,
00000110
00011000
01100000
00011000
,
00000110
00000000
00000000
10000000
00010000
00000000
01000000
00000000
010M0000
00000000
00100000
00010000
00000000
00M10000
00000000
00000100
,
00010000
00000100
00010000
00000100
00010000
00000000
00001000
00000000
000M1000
00000000
00000010
00001000
00000000
000010M0
00010000
00000000
,
00001000
01000000
00001000
01000000
00001000
00000000
00010000
00000000
0001M000
00000000
10000000
01000000
00000000
M1000000
00000000
00010000
,
01000000
00010000
01000000
00010000
01000000
00000000
00010000
00000000
0M010000
00000000
00001000
00010000
00000000
0001M000
00000100
00000000
,
00010000
00000000
00000100
00010000
00001000
00000000
00001000
00000000
000M1000
00000000
00000010
00001000
00000000
000010M0
00000000
00010000
,
00000100
00010000
00000100
00010000
00000100
00000000
00001000
00000000
00001M00
00000000
00010000
00001000
00000000
000M1000
00000010
00000000
,
00000100
00000000
00000010
00010000
00001000
00000000
00100000
00000000
0010M000
00000000
01000000
00010000
00000000
0M010000
00000000
00000010
,
00010000
00000100
01000100
00000000
00011000
00000000
00100010
00000000
,
00011000
00000000
00000000
00000000
01000000
00000000
00010000
00000000
0M010000
00000000
00000010
00001000
00000010
00010000
00000010
00001000
,
00000010
00000000
00001000
00000100
00010000
00000000
00001000
00000000
000M1000
00000000
00000001
00001000
00000001
00000100
00000001
00001000
,
00000001
00000000
00001000
00000100
00010000
00000000
00001000
00000000
000M1000
00000000
00000100
00010000
00000100
00001000
00000100
00010000
,
00000100
00000000
00010000
00001000
01000000
00000000
00010000
00000000
0M010000
00000000
00001000
00100000
00001000
00100000
00001000
00000000
,
01000000
00000000
00010000
10000000
00100000
00000000
01000000
00000000
01M00000
00000000
10000000
00010000
10000000
00100000
10000000
00010000
,
10000000
00000000
00100000
01000000
00001000
00000000
00010000
00000000
0001M000
00000000
00100000
00001000
00100000
00001000
00100000
00000000
,
00001000
00000000
00010000
00000010
00001000
00000000
00000100
00000000
0000M100
00000000
00000010
00001000
00000010
00001000
00000010
00000000
,
00010000
00000100
01000100
00000000
00011000
00000000
00100010
00000000
,
00011000
00000000
00010000
00000100
00002000
00000000
00000010
00000000
,
00103000
00000000
01000000
00001000
00020000
00000000
00100000
00000000
,
00030010
00000000
00010000
00001000
02000000
00000000
00001000
00000000
,
03100000
00000000
01000000
00001000
00020000
00000000
00100000
00000000
,
00030010
00000000
00010000
00001000
02000000
00000000
00010000
00000000
00002000
00000000
00000000
00000000
00000000
00000000
00000000
00000000
,
00100000
03000000
01000000
01000000
00020000
00000000
00000000
00000000
,
00000010
00003000
00001000
00001000
00000200
00000000
00000000
00000000
,
00000010
00030000
00010000
00010000
00002000
00000000
00000000
00000000
,
00000001
00003300
00002000
00000000
00000011
00000000
00000000
00000000
,
00000011
00003000
00000200
00000000
00010010
00000000
00000000
00000000
,
00010010
00000300
00020000
00000000
00000110
00000000
00000000
00000000
,
00000110
00000000
00030000
00000000
00000MM0
00000000
00000000
00000000
00001000
00000000
01000000
00010000
10000000
00000000
01000000
00100000
,
00000000
00100000
00001000
00000000
00012000
00000000
00000000
00000000
00000010
00000000
00000000
00000000
01000000
00000000
00000000
00000000
,
00003020
00000000
00000000
00000000
00000130
00000000
00000100
00000000
0000010M
00000000
00010000
00001000
00000000
000M1000
00000000
00000100
,
00010000
00000100
00010000
00000100
00010000
00000000
00001000
00000000
000M1000
00000000
00000010
00001000
00000000
000010M0
00010000
00000000
,
00001000
00000000
00100000
00010000
01000000
00000000
00100000
00000000
0M100000
00000000
00010000
01000000
00000000
010M0000
00000000
10000000
,
00010000
10000000
00010000
10000000
00010000
00000000
00100000
00000000
001M0000
00000000
01000000
00010000
00000000
0M010000
00001000
00000000
,
00010000
00000000
00000010
00001000
00000100
00000000
00000010
00000000
00000M10
00000000
00010000
00001000
00000000
000M1000
00000000
00000100
,
00010000
00000000
00001000
01000000
00010000
00000000
01000000
00000000
010M0000
00000000
10000000
00010000
00000000
M0010000
00001000
00000000
,
00010000
00000000
00000010
00001000
00000001
00000000
00000100
00000000
0000010M
00000000
00010000
00001000
00000000
000M1000
00000000
00000010
,
00010000
00000100
01000100
00000000
00011000
00000000
00100010
00000000
,
00011000
00000000
00000000
00000000
01000000
00000000
00010000
00000000
0M010000
00000000
00000100
00010000
00000100
00001000
00000100
00010000
,
00000100
00000000
00001000
00000001
00000100
00000000
00000010
00000000
00000M10
00000000
00000001
00001000
00000001
00001000
00000001
00000000
,
00001000
00000000
00000100
00010000
00001000
00000000
01000000
00000000
0100M000
00000000
10000000
00100000
10000000
00010000
10000000
00100000
,
10000000
00000000
00010000
00100000
00001000
00000000
00010000
00000000
0001M000
00000000
01000000
00001000
01000000
00001000
01000000
00000000
,
00001000
00000000
00010000
00000010
00001000
00000000
00000100
00000000
0000M100
00000000
00000010
00001000
00000010
00010000
00000010
00001000
,
00000010
00000000
00010000
00001000
00100000
00000000
01000000
00000000
01M00000
00000000
00010000
01000000
00001000
01000000
00010000
01000000
,
00001000
00000000
00010000
00000010
00001000
00000000
00000100
00000000
0000M100
00000000
00000001
00001000
00000001
00001000
00000001
00000000
,
00001000
00000000
00000100
00010000
00001000
00000000
01000000
00000000
00100000
00000000
01000000
00001000
00000000
00010000
00000100
00000000
,
00000010
00000000
00000001
00001000
00000100
00010000
00002000
00000000
02000000
00000000
00000000
00000000
00000000
00000000
00000000
00000000
,
00110000
03000000
01000000
01000000
00020000
00000000
00000000
00000000
,
00000010
00003000
00001000
00001000
00000200
00000000
00000000
00000000
,
00001010
00030300
00000000
00000000
01000100
00000000
00011000
00000000
,
00100010
00022000
00033000
00000000
;

//---------------dance-double - N. Psyhogios----------------
#NOTES:
     dance-double:
     N. Psyhogios:
     Hard:
     8:
     0.602,0.483,0.392,0.317,0.327,376.000,42.000,34.000,0.000,0.000,0.000,0.602,0.483,0.392,0.317,0.327,376.000,42.000,34.000,0.000,0.000,0.000:
00000000
00000000
00000000
00000000
,
00000000
00000000
00000000
00000000
,
00010000
00000000
00001000
00000000
00001000
00000000
00000000
01000000
00000000
00000000
00000000
00000000
01100000
00000000
00000000
00000000
,
10000000
00000000
01000000
00000000
01000000
00000000
00000000
00100000
00000000
00000000
00000000
00000000
00110000
00000000
00000000
00000000
,
01000000
00000000
00001000
00000000
00001000
00000000
00000000
00100000
00000000
00100000
00000000
00010000
01000000
00000000
00001000
00000000
,
00010000
00000000
00000010
00000000
00000010
00000000
00000000
00001000
00000000
00001000
00000000
00000100
00010000
00000000
00000010
00000000
,
00001000
00000000
00000001
00000000
00000001
00000000
00000000
00000010
00000000
00000010
00000000
00000100
00010000
00000000
00001000
00000000
,
01001000
00011000
00010100
01000100
,
00011000
00000000
00000000
00000000
10000000
00000000
00100000
00000000
01000000
00000000
00001000
00010000
00000000
00000010
00000000
00010000
,
00001000
00000000
00010000
00000000
00000100
00000000
00001000
00000000
00000010
00000000
00000100
00000001
00000000
00001000
00000010
00000000
,
00001000
00000000
00000100
00000000
00010000
00000000
00001000
00000000
01000000
00000000
00100000
10000000
00000000
00010000
00000000
10000000
,
00100000
00000000
01000000
00000000
00010000
00000000
00100000
00000000
00001000
00000000
01000000
00001000
00000000
00100000
00010000
00000000
,
10000000
00000000
00100000
00000000
00010000
00000000
00001000
00000000
00000100
00000000
00000010
00001000
00000000
00000001
00000000
00001000
,
00000010
00000000
00001000
00000000
00000100
00000000
00010000
00000000
00001000
00000000
01000000
00010000
00000000
00100000
00001000
00000000
,
00010000
00000000
00000010
00000000
00000100
00000000
00000001
00000000
00000010
00000000
00000100
00001000
00000000
00000010
00000000
00010000
,
00001000
00000000
00010000
00000000
00010010
00000000
00000000
00000000
00011000
00000000
00000000
00000000
00101000
00000000
00000000
00010000
,
00100000
00000000
00001000
00000000
00100000
00000000
00010000
00000000
01000000
00000000
00000000
00001000
00010000
00000000
01000000
00000000
,
10000000
00000000
00100000
00000000
00010000
00000000
00001000
00000000
00000010
00000000
00000000
00000100
00010000
00000000
00001000
00000000
,
00000100
00000000
00000010
00000000
00001000
00000000
00000100
00000000
00000010
00000000
00000000
00000001
00001000
00000000
00000010
00000000
,
00000100
00000000
00001000
00000000
01000000
00000000
00010000
00000000
00100000
00000000
00000000
00001000
01000000
00000000
00001000
00000000
,
00010000
00000000
00000100
00000000
00000010
00000000
00000001
00000000
00001000
00000000
00000000
00000010
00010000
00000000
00001000
00000000
,
00100000
00000000
00010000
00000000
01000000
00000000
00100000
00000000
10000000
00000000
00000000
00100000
01000000
00000000
00100000
00000000
,
00010000
00000000
00001000
00000000
01000000
00000000
00001000
00000000
00010000
00000000
00000000
00000100
00001000
00000000
00000010
00000000
,
00010000
00000000
00000100
00000000
00010100
00000000
00000000
00000000
00011000
00000000
00000000
00000000
01001000
00000000
00000000
00010000
,
00100000
00001000
01000000
00002000
00000000
00100000
00000000
00100000
,
00003000
00000010
00020000
00001000
00000000
00001000
00000000
00001000
,
00030000
00010000
00000020
00001000
00000000
00001000
00000000
00001000
,
00000030
00000100
00020000
00001000
00000000
00001000
00000000
00031000
,
00010000
00000000
00001000
01000000
00010000
00000000
01000000
00000000
02002000
00000000
00000000
00000000
03003000
00000000
00000000
00000000
,
00110000
00000000
00001000
00020020
00000000
00000000
00030030
00000000
,
00001100
00000000
00000100
00000010
00000001
00000000
00001000
00000000
00002020
00000000
00000000
00000000
00003030
00000000
00000000
00000000
,
00011000
00000000
00100000
20020000
00000000
00000000
30030000
00000000
,
01001000
00000000
01000000
00001000
00010000
00000000
00001000
00000000
00022000
00000000
00000000
00000000
00033000
00000000
00000000
00000000
,
00001010
00000000
00010000
00202000
00000000
00000000
00303000
00000000
,
10000000
00000000
00010000
01000000
00100000
00000000
10000000
00000000
00220000
00000000
00000000
00000000
00330000
00000000
00000000
00000000
,
00011000
00000000
00010000
02002000
00000000
00000000
03003000
00000000
,
00011000
02000000
03002000
00023000
,
00030020
00000000
00000000
00000000
00010030
00000000
00001000
00000000
01000000
00000000
00100000
10000000
00000000
01000000
00000000
10000000
,
00100000
00000000
01000000
00000000
00010000
00000000
00100000
00000000
00001000
00000000
01000000
00010000
00000000
00100000
00010000
00000000
,
01000000
00000000
00001000
00000000
00010000
00000000
00000100
00000000
00010000
00000000
00001000
00000100
00000000
00000001
00000000
00000100
,
00001000
00000000
00010000
00000000
00100000
00000000
01000000
00000000
00010000
00000000
10000000
00010000
00000000
00100000
00010000
00000000
,
10000000
00000000
01000000
00000000
00100000
00000000
00010000
00000000
01000000
00000000
00001000
00010000
00000000
00000010
00000000
00010000
,
00001000
00000000
00100000
00000000
01000000
00000000
10000000
00000000
00100000
00000000
00010000
00001000
00000000
01000000
00001000
00000000
,
00010000
00000000
00000100
00000000
00000010
00000000
00001000
00000000
00010000
00000000
00000100
00010000
00000000
00000010
00000000
00010000
,
00001000
00000000
01000000
00000000
01010000
00000000
00000000
00000000
00011000
00000000
00000000
00000000
00001100
00000000
00000000
00000100
,
00010000
00000000
00001000
00000000
01000000
00000000
00010000
00000000
00100000
00000000
00000000
00001000
00010000
00000000
01000000
00000000
,
00100000
00000000
00010000
00000000
01000000
00000000
00001000
00000000
00010000
00000000
00000000
00000010
00000100
00000000
00001000
00000000
,
00010000
00000000
00000010
00000000
00000100
00000000
00000001
00000000
00000010
00000000
00000000
00000100
00010000
00000000
00001000
00000000
,
00000010
00000000
00000001
00000000
00000100
00000000
00000010
00000000
00001000
00000000
00000000
00000100
00010000
00000000
00000010
00000000
,
00000100
00000000
00001000
00000000
00010000
00000000
00100000
00000000
01000000
00000000
00000000
00001000
00010000
00000000
01000000
00000000
,
00100000
00000000
00010000
00000000
01000000
00000000
00001000
00000000
00010000
00000000
00000000
00000010
00001000
00000000
00000100
00000000
,
00000010
00000000
00000001
00000000
00000100
00000000
00001000
00000000
00010000
00000000
00000000
00001000
00100000
00000000
00010000
00000000
,
01000000
00001000
00022000
00000000
00000000
00000000
00000000
00000000
,
00033000
00000000
00001000
01000000
00010000
00000000
00100000
00000000
00220000
00000000
00000000
00000000
00330000
00000000
00000000
00000000
,
01001000
00000000
00001000
00020200
00000000
00000000
00030300
00000000
,
00000001
00000000
00000100
00000010
00001000
00000000
00000100
00000000
00022000
00000000
00000000
00000000
00033000
00000000
00000000
00000000
,
01010000
00101000
00011000
00010010
,
01001000
00022000
00033000
00000000
;

//---------------dance-single - J. Frederick----------------
#NOTES:
     dance-single:
     J. Frederick:
     Beginner:
     1:
     0.081,0.107,0.056,0.000,0.000,55.000,6.000,0.000,0.000,0.000,0.000,0.081,0.107,0.056,0.000,0.000,55.000,6.000,0.000,0.000,0.000,0.000:
0000
0000
0000
0000
,
0000
0000
0000
0000
,
0000
0000
0000
0000
,
0000
0000
0000
0000
,
1000
0000
0000
0000
,
0001
0000
0000
0000
,
0010
0000
0000
0000
,
0100
0000
0000
0000
,
1001
0000
0100
0000
,
0000
0010
0000
0000
,
0000
1000
0000
0000
,
0000
0001
0000
0000
,
0000
0010
0000
0000
,
0000
0100
0000
0000
,
0000
1000
0000
0000
,
0000
0010
0000
0000
,
0000
0001
0000
0000
,
0000
0100
0000
0000
,
0000
0010
0000
0000
,
0000
0001
0000
0000
,
0000
1000
0000
0000
,
0000
0100
0000
0000
,
0000
0010
0000
0000
,
0000
0001
0000
0000
,
0000
1001
0000
0000
,
0000
0100
0000
0000
,
0000
0010
0000
0000
,
0000
1000
0000
0000
,
0000
0001
0000
0000
,
0000
0100
0000
0000
,
0000
0010
0000
0000
,
0000
0100
0000
0000
,
0000
1000
0000
0000
,
0000
0001
0000
0000
,
0000
0100
0000
0000
,
0000
0010
0000
0000
,
0000
1001
0000
0000
,
0000
0100
0000
0000
,
0000
0010
0000
0000
,
0000
0001
0000
0000
,
0000
1000
0000
0000
,
0000
0100
0000
0000
,
0000
0001
0000
0000
,
0000
0010
0000
0000
,
0000
0100
0000
0000
,
0000
1001
0000
0000
,
0000
0100
0000
0000
,
0000
0010
0000
0000
,
0000
1000
0000
0000
,
0000
0001
0000
0000
,
0000
0100
0000
0000
,
0000
0010
0000
0000
,
0000
1000
0000
0000
,
0000
1001
0000
0000
,
0000
0100
0000
0000
,
0000
0010
0000
0000
,
0000
0001
0000
0000
,
0000
1001
0000
0000
;

//---------------dance-single - J. Frederick----------------
#NOTES:
     dance-single:
     J. Frederick:
     Easy:
     2:
     0.180,0.240,0.121,0.000,0.000,122.000,13.000,0.000,0.000,0.000,0.000,0.180,0.240,0.121,0.000,0.000,122.000,13.000,0.000,0.000,0.000,0.000:
0000
0000
0000
0000
,
0000
0000
0000
0000
,
0000
0000
0000
0000
,
0000
0000
0000
0000
,
1000
0000
0001
0000
,
0100
0000
0010
0000
,
1000
0000
0001
0000
,
0010
0100
0010
0100
,
1001
0100
0010
1000
,
0000
0001
0000
1000
,
0000
0100
0010
0001
,
0000
0100
0000
0010
,
0000
1000
0001
0010
,
0000
0100
0000
1000
,
0000
0010
0100
0001
,
0000
0010
0000
0100
,
0000
1001
0100
0010
,
0000
1000
0000
0001
,
0000
0010
0100
1000
,
0000
0010
0000
0001
,
0000
0100
1000
0010
,
0000
0100
0000
0001
,
0000
0100
0010
0001
,
0000
1001
1001
1001
,
1001
1001
0000
0001
,
0000
0100
0000
0010
,
0000
1000
0000
0001
,
0000
0100
0010
0100
,
0010
0100
0000
0000
,
0000
1000
0000
0001
,
0000
0010
0000
0100
,
0000
1000
0000
0001
,
0000
0010
0000
0100
,
0000
1000
0000
0001
,
0000
0100
0000
0010
,
0000
1001
0000
0100
,
0000
0110
0000
0000
,
0000
1000
0000
0001
,
0000
0010
0000
0100
,
0000
1000
0000
0001
,
0000
0100
0000
0010
,
0000
1000
0000
0001
,
0000
0010
0000
0100
,
0000
1000
0000
0010
,
0000
0100
0000
0001
,
0000
0110
1000
0001
,
0000
0100
0000
0010
,
0000
1010
0100
0001
,
0000
0010
0000
0100
,
0000
1000
0001
0010
,
0000
0100
0000
1000
,
0000
0001
0100
0001
,
0000
1000
0010
0100
,
0010
1001
0000
0000
,
0000
0100
0000
0000
,
0000
1000
0000
0000
,
0000
0001
0000
0000
,
0000
1001
0000
0000
;

//---------------dance-single - M. Calfin----------------
#NOTES:
     dance-single:
     M. Calfin:
     Challenge:
     10:
     0.766,0.814,0.037,0.037,0.984,567.000,4.000,4.000,0.000,0.000,0.000,0.766,0.814,0.037,0.037,0.984,567.000,4.000,4.000,0.000,0.000,0.000:
0000
0000
0000
0000
,
0000
0000
0000
0000
,
1001
0000
0001
0000
0100
0000
0010
1000
0000
0010
0100
0000
0001
0000
0010
0100
,
1000
0000
0100
0000
0010
0000
0100
0010
0000
0001
0100
0000
0010
0000
1000
0010
,
0100
0000
0010
0000
0100
0000
0001
0010
0000
0100
1000
0100
0010
0000
0001
0000
,
0100
0000
0001
0000
0100
0000
0010
1000
0000
0010
0100
0010
0100
0000
0001
0000
,
0010
0000
0100
0000
1000
0000
0100
0010
0000
0100
0010
0001
0100
0000
0001
0000
,
0100
0000
0010
0000
1000
0000
0010
0100
0000
0001
0010
0000
0100
1000
0001
0010
,
0100
0000
0000
1000
0100
0010
0100
0000
1000
0000
0100
1000
0000
0100
0000
0010
,
0001
0000
0100
0010
1000
0000
1000
0000
0010
0000
0100
0001
0000
0010
0000
0100
,
1000
0100
1000
0000
0100
0000
0010
0000
0001
0000
0100
0001
0000
0100
0000
0010
,
1000
0000
0010
0100
0010
0000
0100
0000
0001
0000
0010
0100
0000
1000
0000
0100
,
0010
0000
0100
1000
0100
0000
1000
0000
0010
0000
0001
0010
0000
0010
0000
1000
,
0100
0000
0010
0001
0100
0000
1000
0000
0100
0000
0010
1000
0000
0100
0000
0010
,
1000
0000
0010
0001
0100
0000
1000
0000
0100
0000
0010
0100
0000
0010
0000
1000
,
0010
0000
1000
0001
0010
0000
0100
0000
0001
0000
1000
0010
0000
0010
0001
0000
,
0010
0000
0100
1000
0001
0000
0001
0000
0100
0000
0010
1000
0000
1000
0000
0010
,
0100
0000
0001
0010
0100
0000
1000
0000
0100
0000
0010
0001
0000
0100
0000
0010
,
1000
0000
0010
0100
0010
0000
0100
0000
0001
0000
0010
0100
0000
1000
0000
0100
,
1000
0000
0100
0001
0100
0000
1000
0000
0010
0000
0001
0010
0000
1000
0000
0010
,
0001
0000
0010
0001
1000
0000
0001
0000
1000
0000
0100
0001
0000
0010
0000
0001
,
0100
0000
0010
1000
0001
0000
0010
0000
0100
0000
1000
0001
0000
0010
0000
0001
,
0100
0000
0010
1000
0001
0000
0100
0000
0001
0000
0010
0100
0000
0001
1000
0000
,
0010
0000
0100
1000
0001
0000
0100
0000
0010
0000
1000
0010
0000
0010
0001
0010
,
1000
0000
0001
0000
0010
0000
0100
0000
1000
0000
0001
0010
0000
0100
0000
1000
,
0001
0000
0100
0010
0100
0000
0010
0000
1000
0000
0001
0010
0000
0100
0000
1000
,
0100
0000
1000
0100
0010
0000
0001
0000
0100
0000
0010
1000
0000
0010
0000
0100
,
0010
0000
0001
0010
1000
0000
0010
0000
0100
0000
0001
0010
0000
0100
1000
0000
,
0001
0000
0010
0100
0010
0100
1000
0000
0100
0000
0010
0001
0000
0100
0010
0000
,
1000
0000
0010
0100
0001
0000
0010
0000
0100
0000
1000
0001
0000
0100
0010
0000
,
0100
0000
1000
0100
0001
0000
0100
0000
0010
0000
1000
0001
0000
1000
0100
0000
,
0010
0000
0001
0010
0001
0000
0010
0000
1000
0000
0010
0001
0000
0100
0010
0000
,
1000
0000
0001
0100
0010
0000
1000
0000
0001
0000
0010
0001
0000
0100
0001
0000
,
1000
0000
0100
1000
0001
0010
0100
1000
0100
0010
0001
0100
0010
1000
0010
0100
,
0001
0010
0001
1000
0100
1000
0001
0010
0100
1000
0001
0100
0010
1000
0010
0001
,
0010
1000
0010
0100
0001
0010
0100
1000
0001
0000
0001
0010
0100
0000
1000
0001
,
0100
2002
0000
0000
,
3003
0000
0000
0000
1001
0000
0100
0000
1000
0000
0100
0010
0000
0001
0000
0100
,
0010
0000
1000
0010
0100
0000
0010
0000
0100
0000
0001
0010
0000
0100
0000
1000
,
0001
0000
0100
0010
0100
0000
0010
0000
0001
0000
0010
0100
0000
0010
0000
1000
,
0001
0000
1000
0100
0001
0000
0100
0000
1000
0000
0010
0001
0000
0010
0000
1000
,
0010
0000
0001
0010
1000
0000
0001
0000
1000
0000
0100
0010
0000
0001
0000
0100
,
0010
0000
1000
0010
0001
0000
0010
0000
1000
0000
0001
0010
0000
0100
0000
1000
,
0001
0000
0010
0001
0010
0000
1000
0000
0001
0000
0100
0010
0000
0001
0000
0100
,
0010
0000
0001
1000
0001
0000
0010
0000
0100
0000
0001
0010
0000
0100
1000
0000
,
0010
0000
0001
0000
0010
0000
0010
0000
1000
0000
0100
0010
0000
0001
0000
0100
,
0010
0000
1000
0001
0010
0000
0100
0000
1000
0000
0001
0010
0000
1000
0000
0010
,
0001
0000
0100
0010
1000
0000
0010
0000
0001
0000
0010
0100
0000
0001
0000
0010
,
0100
0000
1000
0001
1000
0000
0100
0000
0010
0000
0001
0100
0000
0010
0000
1000
,
0010
0000
0001
0010
1000
0000
0001
0000
0010
0000
0100
1000
0000
0001
0000
0010
,
0100
0000
1000
0001
0100
0000
0010
0000
1000
0000
0001
0010
0000
0100
1000
0000
,
0001
0000
0010
0100
1000
0000
0001
0000
0100
0000
0010
1000
0000
0001
0010
0000
,
0100
0000
1000
0001
0010
0000
0100
0000
1000
0000
0001
0100
0000
0010
1000
0000
,
0001
0000
0100
0001
0100
0001
1000
0000
0010
0000
1000
0100
0000
0010
0001
0000
,
0100
0000
0010
1000
0001
0010
0100
0000
1000
0000
0001
0010
0000
0100
1000
0000
,
0001
0000
0100
0010
1000
0010
0100
0000
0001
0000
0010
0100
0000
1000
0001
0000
,
0010
0000
0100
1000
0001
0010
0100
1000
0100
0010
0001
0100
0010
1000
0010
0100
,
0001
0010
0100
0000
2002
0000
0000
0000
0000
0000
0000
0000
0000
0000
0000
0000
,
0000
0000
0000
3003
0000
0000
0000
0000
0000
0000
0000
0000
0000
0000
0000
0000
;

//---------------dance-single - Rynker----------------
#NOTES:
     dance-single:
     Rynker:
     Medium:
     5:
     0.383,0.374,0.037,0.037,0.000,279.000,4.000,4.000,0.000,0.000,0.000,0.383,0.374,0.037,0.037,0.000,279.000,4.000,4.000,0.000,0.000,0.000:
0000
0000
0000
0000
,
0000
0000
0000
0000
,
0001
0001
0010
0000
0010
0000
0100
0000
,
1000
1000
0010
0000
0010
0100
0010
0000
,
0100
0100
0001
0000
0001
0000
0010
0000
,
0001
0010
0001
0000
0010
0000
0100
0000
,
1000
0010
1000
0000
0010
0100
0010
0000
,
0100
0001
0100
0001
0010
0001
1000
0001
,
2000
0000
0000
0000
0000
3000
0001
0000
,
0010
0001
0010
0100
1000
0000
0010
0000
,
1000
0001
0000
0001
0000
0010
0000
0001
,
0000
0100
0000
0100
0000
0010
0000
0010
,
0000
1000
0001
0000
0010
0001
0010
0000
,
0001
0100
0010
0100
0000
0010
0000
1000
,
0001
1000
0001
0000
1000
0000
0001
0000
,
0010
0001
0010
0000
0100
0000
1000
0000
,
1001
0101
0100
0010
,
1000
0010
1000
0100
0000
1000
0001
0000
,
0010
0000
0001
0010
0001
0000
1000
0100
,
1000
0000
0010
1000
0010
0100
0010
0010
,
0100
0000
0001
0000
0010
0000
0001
1000
,
0001
0000
1000
0100
1000
0000
0001
0100
,
0010
0000
1000
0010
0001
0000
0010
0001
,
1000
0000
0001
0100
0010
1000
0100
0010
,
0100
0010
0100
0000
0000
0000
0010
0000
,
0001
0100
1000
0010
,
0001
0100
0000
0001
,
0100
0000
0010
1000
0100
0000
0010
0001
,
0100
0001
0100
0010
,
1000
0000
0001
0010
0001
0000
0010
0000
,
0100
0000
1000
1000
0010
0000
1000
0000
,
0001
0000
0010
0010
0001
0000
0001
0000
,
0100
0000
0001
0100
0100
0000
0010
0000
,
1000
0000
0001
0010
0001
0000
0100
0000
,
0002
0003
1000
0001
0010
0000
0001
1000
,
0020
0000
1030
0100
1000
0000
0001
0010
,
0002
0103
0010
0010
,
0010
1001
1000
0001
,
0000
0000
0100
0001
0100
0010
0100
0000
,
0000
0000
0010
1000
0001
0010
0001
0000
,
0000
0000
0010
0001
0000
0001
0000
0001
,
0000
0001
0100
0000
0000
0000
0100
0010
,
0000
0010
0000
0010
0000
0010
1000
0000
,
1000
0000
0001
1000
0001
0000
0010
0100
,
0010
0000
0100
1000
0010
1000
0001
0010
,
0001
0100
0001
0000
0000
0000
0100
0000
,
0010
0000
1000
0010
1000
0001
0010
0000
,
0001
0000
0100
0001
0000
1000
0000
0001
,
0000
1000
0000
0001
0000
0100
0000
0010
,
0000
0100
0010
0000
0100
0000
0001
0010
,
0001
0000
1000
0100
1000
0000
0010
0100
,
0010
0000
0001
0100
0001
0000
0100
1000
,
0010
1000
0000
0001
,
0010
0000
0011
0000
0000
0000
0001
0100
,
0010
0000
1000
0000
0000
0000
1000
0010
,
0001
0000
0010
0000
0000
0000
0001
0100
,
1000
0000
0001
0000
0000
0000
0010
0001
,
1000
0100
0010
0000
0000
0000
0000
0000
;

//---------------dance-single - Rynker----------------
#NOTES:
     dance-single:
     Rynker:
     Hard:
     9:
     0.561,0.507,0.037,0.065,0.425,410.000,4.000,7.000,0.000,0.000,0.000,0.561,0.507,0.037,0.065,0.425,410.000,4.000,7.000,0.000,0.000,0.000: // measure 1
0000
0000
0000
0000
,  // measure 2
0000
0000
0000
0000
,  // measure 3
1000
0001
1000
0000
0010
0000
0100
0000
,  // measure 4
0010
0000
0100
0000
0001
0000
0010
0000
0001
0010
0000
0010
0001
0000
0000
0000
,  // measure 5
1000
0100
1000
0000
0010
1000
0010
0100
,  // measure 6
0010
0100
0100
0001
0010
0001
1000
0001
,  // measure 7
0001
0010
0010
0100
1000
0010
1000
1000
,  // measure 8
0010
0000
0100
0000
0010
0000
0000
0000
0100
0000
0001
0000
0010
0001
0010
0001
,  // measure 9
0020
0000
0000
0000
0000
0000
0030
0000
0100
0000
1000
0010
0000
1000
0000
0001
,  // measure 10
0010
0000
0001
0010
0001
0000
0010
0000
0001
0000
0100
0001
0000
0100
0000
0010
,  // measure 11
1000
0000
0000
0000
0010
0000
1000
0000
0010
0000
1000
0001
0000
0010
0000
0001
,  // measure 12
0010
0000
0000
0000
0001
0000
0100
0000
0010
0000
0100
0010
0000
0100
0000
0001
,  // measure 13
1000
0000
0000
0000
0001
0000
0010
0000
0001
0000
1000
0100
0000
1000
0000
0001
,  // measure 14
0020
0000
0000
0000
0031
0000
0100
0000
0001
0000
0100
0010
0000
0100
0000
0010
,  // measure 15
2000
0000
0000
0000
3001
0000
0010
0000
0001
0000
1000
0100
0000
0010
0000
0001
,  // measure 16
2000
0000
0000
0000
3010
0000
1000
0000
0010
0000
0100
0010
0000
0010
0000
0010
,  // measure 17
0100
0001
0010
0000
0001
1000
0100
1000
,  // measure 18
0001
0010
0001
1000
0010
0000
0100
0010
,  // measure 19
0100
0000
0001
0000
0010
0000
0001
0000
1000
0000
0100
0010
0000
0001
0000
1000
,  // measure 20
0001
0000
0000
0000
1000
0000
0010
0000
1000
0000
0100
0010
0000
0100
0000
1000
,  // measure 21
0010
0000
0000
0000
1000
0000
0001
0000
0010
0000
0001
0100
0000
0010
0000
0100
,  // measure 22
0001
0000
0000
0000
0010
0000
0001
0000
1000
0000
0100
0010
0000
0100
0000
1000
,  // measure 23
0100
0000
0000
0000
1000
0000
0001
0000
0010
0000
0001
1000
0000
0010
0000
0100
,  // measure 24
0010
0000
0000
0000
0100
0000
0001
0000
0010
0000
0001
0010
0000
0010
0000
0010
,  // measure 25
0001
0000
0010
0000
0001
0000
0100
0010
,  // measure 26
0100
0000
0010
1000
0000
1000
0000
0001
,  // measure 27
0010
0000
0001
0100
0001
0000
1000
0010
,  // measure 28
1000
0000
0010
0100
0010
1000
0001
0010
,  // measure 29
0100
0000
0110
0000
0010
0000
0001
0100
,  // measure 30
0001
0000
1000
1000
0001
0000
0010
0000
,  // measure 31
0001
0000
0100
0010
0100
0000
0001
0000
,  // measure 32
0010
0000
0001
0010
1000
0000
0001
0000
,  // measure 33
0100
0000
0010
0001
0100
0000
0001
0000
,  // measure 34
0010
0000
0010
1000
0100
0000
0001
0010
,  // measure 35
0001
0000
1000
0010
1000
0000
0010
0100
,  // measure 36
0001
0000
1000
0001
0010
1000
0100
0000
,  // measure 37
1000
0000
0001
0010
0001
0000
0010
0000
,  // measure 38
0010
0000
0000
0000
0011
0000
0010
0000
0001
0000
0100
0001
0000
0001
0000
1000
,  // measure 39
0010
0000
1000
0000
0010
0000
1000
0000
0100
0000
0010
0100
0000
1000
0000
0001
,  // measure 40
0010
0000
0001
1000
0010
0000
1000
0000
0010
0000
0100
0010
0000
1000
0000
0001
,  // measure 41
0010
0000
0001
1000
0100
0000
1000
0000
0001
0000
0010
0001
0000
1000
0000
0001
,  // measure 42
0010
0000
0000
0000
0001
0000
1000
0000
0010
0000
1000
0010
0000
0100
0000
0010
,  // measure 43
1000
0000
0000
0000
0001
0000
0010
0000
0100
0000
0010
0100
0000
1000
0000
0100
,  // measure 44
0020
0000
0000
0000
0031
0000
0010
0000
0001
0000
1000
0001
0000
1000
0000
0010
,  // measure 45
1000
0000
0000
0000
0010
0000
1000
0000
0010
0000
0100
0010
0000
0100
0000
0200
,  // measure 46
0002
0000
0000
0300
0013
0000
0001
0000
0010
0000
0001
0010
0000
0001
0000
1000
,  // measure 47
0100
0000
1000
0100
1000
0000
0000
0000
0001
0000
0000
0000
0010
0000
0001
0000
,  // measure 48
1000
0000
0001
0100
0010
0000
0100
0010
,  // measure 49
0100
0001
1000
0100
0010
0000
0110
0000
,  // measure 50
1001
0000
0000
0000
1000
0000
0001
0000
0100
0000
0010
0100
0000
0100
0000
0100
,  // measure 51
0010
0000
0100
0000
0001
0000
0010
0000
0001
0000
1000
0100
0000
0100
0000
0100
,  // measure 52
1000
0000
0010
0000
0100
0000
0001
0000
0010
0000
0001
0010
0000
0010
0000
0010
,  // measure 53
0001
0000
1000
0000
0001
0000
0010
0000
0001
0000
1000
0100
0000
0100
0000
0100
,  // measure 54
1000
0010
1000
0010
0100
0001
0010
0001
,  // measure 55
1000
0000
0100
0100
1000
0001
0010
0001
,  // measure 56
1000
0010
0100
0100
0001
0010
0001
1000
,  // measure 57
0001
0010
1000
0001
0100
0001
0010
0001
,  // measure 58
1000
0010
0100
0010
0100
0000
0000
0000
0000
0000
0000
0000
0000
0000
0000
0000
;
