#TITLE:Kiss Me;
#SUBTITLE:;
#ARTIST:E-Rotic;
#TITLETRANSLIT:;
#SUBTITLETRANSLIT:;
#ARTISTTRANSLIT:;
#GENRE:Dance;
#CREDIT:;
#BANNER:Kiss Me-bn.png;
#BACKGROUND:Kiss Me-bg copy.png;
#LYRICSPATH:;
#CDTITLE:;
#MUSIC:Kiss Me.ogg;
#OFFSET:-1.743;
#SAMPLESTART:58.260;
#SAMPLELENGTH:11.840;
#SELECTABLE:YES;
#BPMS:0.000=140.010;
#STOPS:;
#BGCHANGES:-3.647=Kiss Me.mpg=1.000=1=0=0=StretchNoLoop==CrossFade==,
99999=-nosongbg-=1.000=0=0=0 // don't automatically add -songbackground-;
#KEYSOUNDS:;

//---------------dance-single - D. D'Amato----------------
#NOTES:
     dance-single:
     D. D'Amato:
     Challenge:
     9:
     0.547,0.509,0.237,0.600,0.036,329.000,26.000,66.000,0.000,0.000,0.000,0.547,0.509,0.237,0.600,0.036,329.000,26.000,66.000,0.000,0.000,0.000: // measure 1
0000
0000
0000
0000
,  // measure 2
0000
0000
0000
0000
,  // measure 3
0000
0000
0000
0000
,  // measure 4
0000
0000
0000
0000
,  // measure 5
0010
0100
0020
0000
0100
0000
2030
0000
,  // measure 6
0100
0000
3002
0000
0100
0000
0013
1000
,  // measure 7
0010
0100
0020
0000
0100
0000
0032
0000
,  // measure 8
0100
0000
0000
2000
0000
0000
3003
1001
,  // measure 9
2001
0000
0010
0000
3100
0001
0200
0010
,  // measure 10
0000
1300
0001
0100
0000
0100
1000
0100
,  // measure 11
0002
0000
0010
0000
0103
1000
0200
0010
,  // measure 12
0000
0301
1000
0100
0000
0100
0001
0100
,  // measure 13
2000
0000
0100
0000
3010
0001
0020
0100
,  // measure 14
0000
1030
0001
0010
0000
0010
1000
0010
,  // measure 15
0002
0000
0100
0000
0013
1000
0020
0100
,  // measure 16
0000
0031
1000
0010
0000
0010
0001
0010
,  // measure 17
0200
0000
0001
0000
0010
0000
0001
0001
,  // measure 18
0302
0010
0203
0010
,  // measure 19
0301
0000
1000
0100
0000
1000
0100
0000
0010
0000
0001
0100
0000
0001
0100
0000
,  // measure 20
0010
1000
0002
0010
0000
0103
0010
1000
,  // measure 21
0200
0000
1000
0000
0010
0000
1000
1000
,  // measure 22
2300
0010
3200
0010
,  // measure 23
1300
0000
0001
0100
0000
0001
0100
0000
0010
0000
1000
0100
0000
1000
0100
0000
,  // measure 24
0010
0001
2000
0010
0000
3100
0010
0001
,  // measure 25
0100
0000
2010
0000
3001
0010
0200
0000
,  // measure 26
1300
0001
0010
0000
1000
0010
0001
1000
,  // measure 27
0100
0000
0012
0000
1003
0010
0200
0000
,  // measure 28
0301
1000
0010
0000
0001
0010
1000
0001
,  // measure 29
0100
0010
1002
0000
0100
0000
0013
0100
,  // measure 30
1000
0010
2001
0000
0100
0000
3010
0100
,  // measure 31
1001
0000
0210
0000
0001
0001
0301
0000
,  // measure 32
1001
0100
1000
0001
1000
0010
1001
0000
,  // measure 33
2002
0000
0000
3003
,  // measure 34
0201
0000
1000
0000
0310
1000
0002
0010
,  // measure 35
0000
1003
0020
0100
0000
1030
0100
0000
,  // measure 36
0021
0000
1000
0000
0130
1000
0002
0100
,  // measure 37
0000
0013
0200
1000
0000
0310
0001
0000
,  // measure 38
1200
0000
0001
0000
0310
0001
2000
0010
,  // measure 39
0000
3001
0020
0100
0000
0031
0100
0000
,  // measure 40
1020
0000
0001
0000
0130
0001
2000
0000
,  // measure 41
0100
0000
0000
0002
0000
0000
3003
1001
,  // measure 42
1002
0000
0010
0000
0103
1000
0200
0010
,  // measure 43
0000
0301
1000
0100
0010
0100
0001
0100
,  // measure 44
2000
0000
0010
0000
3100
0001
0200
0010
,  // measure 45
0000
1300
0001
0100
0010
0100
1000
0100
,  // measure 46
0002
0000
0100
0000
0010
0000
1000
1000
,  // measure 47
2003
0000
0100
0000
0001
0000
0010
0010
,  // measure 48
3020
0000
0100
0000
1030
1000
1000
0000
,  // measure 49
2001
3100
1002
0103
,  // measure 50
0120
0000
0001
0000
0130
0001
0200
1000
,  // measure 51
0000
0310
0001
0010
0100
0001
0010
0100
,  // measure 52
0120
0000
1000
0000
0130
1000
0200
0001
,  // measure 53
0000
0310
1000
0010
0100
1000
0010
0100
,  // measure 54
0120
0000
0001
0000
0130
0001
0200
1000
,  // measure 55
0000
0310
0001
0010
0100
0001
0010
0100
,  // measure 56
0120
1000
0130
2000
,  // measure 57
0100
0000
0000
0002
0000
0000
3003
1001
,  // measure 58
1002
0000
0010
0010
0013
1000
0020
0001
,  // measure 59
0000
0130
1000
0010
0001
0010
1000
0100
,  // measure 60
2000
0000
0010
0010
3010
0001
0020
1000
,  // measure 61
0000
0130
0001
0010
1000
0010
0001
0100
,  // measure 62
0020
0000
0000
0000
0000
0000
0000
0030
,  // measure 63
0000
1001
0000
0000
0000
0000
0000
0000
;

//---------------dance-single - D. D'Amato----------------
#NOTES:
     dance-single:
     D. D'Amato:
     Hard:
     7:
     0.493,0.509,0.237,0.355,0.005,314.000,26.000,39.000,0.000,0.000,0.000,0.493,0.509,0.237,0.355,0.005,314.000,26.000,39.000,0.000,0.000,0.000:
0000
0000
0000
0000
,
0000
0000
0000
0000
,
0000
0000
0000
0000
,
0000
0000
0000
0000
,
2010
0000
0001
0000
3100
0010
0100
1000
,
0000
0001
0100
0010
0000
1000
0001
0000
,
0102
1000
0003
1001
,
1200
0000
0000
0010
0000
1000
1300
0001
,
0200
0000
0010
0000
0301
1000
0100
0100
,
0000
0001
0100
0100
0000
0010
0100
1000
,
0200
0000
0010
0000
1300
0001
0100
0100
,
0000
1000
0100
0100
0000
0010
0100
0010
,
2000
0000
0001
0000
3100
0010
0001
0001
,
0000
0010
1000
1000
0000
0010
0100
0010
,
0002
0000
1000
0000
0103
0010
1000
1000
,
0000
0010
0001
0001
0000
0010
1000
0100
,
0010
0001
0100
0001
0000
1000
0010
0000
,
0100
0010
1000
0020
0000
0000
0100
0130
,
0101
0001
1000
0000
1100
1000
0001
0100
,
0001
0010
0200
1000
0000
0310
0001
0100
,
0010
1000
0100
1000
0000
0001
0010
0000
,
0100
0010
0001
0020
0000
0000
0100
0130
,
1100
1000
0001
0000
0101
0001
1000
0100
,
1000
0010
0200
0001
0000
0310
1000
0100
,
2100
0000
0010
0000
3100
0010
0100
0000
,
0010
0001
0010
0000
0100
1000
0001
0000
,
0102
0000
0010
0000
0103
0010
0100
0000
,
0010
1000
0010
0000
0100
0001
1000
0000
,
2001
0000
0010
0000
3001
0010
0100
1000
,
0002
0000
0010
0000
1003
0010
0100
0001
,
1000
0000
0000
0110
0000
0000
0001
0000
0010
0000
0001
0000
1001
0000
0000
0000
,
1000
0100
1000
0010
1000
0001
2002
0000
,
0000
3003
0000
1000
0100
0010
0001
0000
,
0210
0000
0001
0000
0310
1000
0002
0010
,
0000
0100
0000
0010
0000
1003
0100
0000
,
0210
0000
1000
0000
0310
0001
2000
0010
,
0000
0100
0000
0010
0000
3001
0100
0000
,
0210
0000
0001
0000
0310
1000
0002
0010
,
0000
1000
0000
0103
0010
1000
0100
0010
,
0210
1000
0310
0011
,
0201
0000
0000
0010
0000
0001
0301
1000
,
0020
0000
0100
0000
1030
0001
0010
0000
,
0010
1000
0010
0010
0000
0100
0010
0001
,
0020
0000
0100
0000
0031
1000
0010
0010
,
0000
0001
0010
0010
0000
0100
0010
0100
,
0002
0100
0000
0000
,
2003
0000
0000
0000
,
3200
0010
0000
0000
,
0320
0001
0230
1000
,
0010
0000
1000
0000
0310
0001
1000
0010
,
0000
0100
1000
0010
0000
0001
0100
0000
,
0210
0000
0001
0000
0310
1000
0001
0010
,
0000
0100
0001
0010
0000
1000
0100
0000
,
0210
0000
1000
0000
0310
0001
1000
0010
,
0000
0001
1000
0100
0010
0001
0100
0010
,
0210
0001
0310
1010
,
1200
0000
0000
0010
0000
1000
1300
0001
,
2000
0000
0001
0000
3010
0100
0001
0000
,
0001
0100
1000
1000
0000
0100
0010
0100
,
0002
0000
1000
0000
0013
0100
1000
1000
,
0000
0100
0001
0001
0000
0100
1000
0010
,
0200
0000
0000
0000
0000
0000
0000
0300
,
0000
1001
0000
0000
0000
0000
0000
0000
;

//---------------dance-single - D. D'Amato----------------
#NOTES:
     dance-single:
     D. D'Amato:
     Medium:
     6:
     0.442,0.396,0.200,0.482,0.000,265.000,22.000,53.000,0.000,0.000,0.000,0.442,0.396,0.200,0.482,0.000,265.000,22.000,53.000,0.000,0.000,0.000:
0000
0000
0000
0000
,
0000
0000
0000
0000
,
0000
0000
0000
0000
,
0000
0000
0000
0000
,
0012
0000
1003
0000
0100
1000
0200
0000
,
0310
0000
0001
0100
0000
0010
1000
0000
,
2010
0000
3001
0000
0100
0001
0200
0000
,
0320
0000
0000
0200
0000
0000
0330
0100
,
0002
0000
2003
0000
0100
0000
3100
0010
,
0000
0000
0001
0010
0000
0001
0100
0000
,
0020
0000
0230
0000
0001
0000
0301
1000
,
0000
0000
0100
1000
0000
0100
0010
0100
,
2000
0000
3002
0000
0100
0000
0103
0010
,
0000
0000
1000
0010
0000
1000
0100
0000
,
0020
0000
0230
0000
1000
0000
1300
0001
,
0000
0000
0100
0001
0000
0100
0010
0100
,
0002
0010
0000
0103
,
0110
0000
1010
0000
0100
0000
0010
1000
,
0100
0100
0100
0000
0010
0010
0010
0001
,
1000
0010
0100
0001
0000
0001
0100
0010
,
2000
0010
0000
3100
,
0110
0000
0011
0000
0100
0000
0010
0001
,
0100
0100
0100
0000
0010
0010
0010
1000
,
0001
0010
0100
1000
0000
1000
0100
0010
,
0001
0000
1000
0000
0001
0100
0001
0000
,
0010
2001
3010
0101
,
1000
0000
0001
0000
1000
0100
1000
0000
,
0010
1002
0013
1100
,
0010
0001
0010
0000
0001
0100
0001
0000
,
0100
1000
0100
0000
1000
0010
1000
0000
,
0110
0000
1001
0000
0100
0001
0010
0000
,
0100
1000
0010
0100
0001
0010
0100
0000
,
0220
0000
0000
0330
,
2000
0000
3001
0000
0200
0000
0310
2000
,
0000
3100
0000
0020
0000
0031
0100
0000
,
0002
0000
1003
0000
0200
0000
0310
0002
,
0000
0103
0000
0020
0000
1030
0100
0000
,
2000
0000
3001
0000
0020
0000
0130
2000
,
0000
3010
0000
0200
0000
0301
0010
0000
,
0002
0000
1003
0000
0020
0000
1030
0100
,
0020
0000
0000
0200
0000
0000
0330
0100
,
2000
3002
0010
0013
,
0002
0000
1003
0100
0000
1000
0010
0000
,
0200
0000
0320
0000
1000
0000
1030
0001
,
0000
0000
0010
0001
0000
0010
0100
0010
,
0200
0000
0000
0000
,
0000
0000
0000
0000
,
0010
0010
0000
0000
,
1000
0010
1000
0310
,
0011
0000
1200
0000
0310
0001
0100
0001
,
0000
1000
0000
0001
0000
1000
0010
0000
,
1010
0000
0201
0000
0310
1000
0100
1000
,
0000
0001
0000
1000
0000
0001
0010
0000
,
0110
0000
1002
0000
0013
0100
1000
0100
,
0000
0010
0001
0010
0000
0001
1000
0000
,
0110
0000
1001
0000
0100
1000
0001
0100
,
0020
0000
0000
0200
0000
0000
0330
0100
,
0002
2003
0010
3010
,
2000
0000
3001
0100
0000
0001
0010
0000
,
0200
0000
0320
0000
0001
0000
0031
1000
,
0000
0000
0010
1000
0000
0010
0100
0010
,
0200
0000
0000
0000
0000
0000
0000
0300
,
0000
1001
0000
0000
0000
0000
0000
0000
;

//---------------dance-single - D. D'Amato----------------
#NOTES:
     dance-single:
     D. D'Amato:
     Easy:
     3:
     0.269,0.283,0.100,0.473,0.000,144.000,11.000,52.000,0.000,0.000,0.000,0.269,0.283,0.100,0.473,0.000,144.000,11.000,52.000,0.000,0.000,0.000:
0000
0000
0000
0000
,
0000
0000
0000
0000
,
0000
0000
0000
0000
,
0000
0000
0000
0000
,
2000
0100
0000
0000
,
3010
0100
0000
0100
,
0002
0100
0000
0000
,
0023
0000
0000
0000
,
0130
0200
0000
1000
,
0000
2300
0000
3001
,
0010
0020
0000
0001
,
0000
0032
0000
1003
,
0010
0020
0000
1000
,
0000
2030
0000
3001
,
0100
0200
0000
0001
,
0000
0302
0000
1003
,
0100
0010
0000
0010
,
0100
1000
0002
0000
,
0103
0100
0010
0010
,
1000
0010
0100
0001
,
0100
0010
0000
0010
,
0100
0001
2000
0000
,
3100
0100
0010
0010
,
0001
0010
0100
1000
,
0010
0000
0202
0000
,
0000
0303
1000
0100
,
0010
0000
2200
0000
,
0000
3300
0001
0100
,
0010
1000
0010
1000
,
0001
0100
0001
0100
,
0020
0000
0100
0130
,
0001
0010
0100
1000
,
2002
0000
0000
3003
,
0101
0200
0000
0320
,
0000
2030
0000
3100
,
1100
0200
0000
0320
,
0000
0032
0000
0013
,
0011
0020
0000
0230
,
0000
2300
0000
3010
,
1010
0020
0000
0000
,
0230
0000
0000
0000
,
0310
0020
0000
1000
,
1000
2030
0000
3001
,
0100
0200
0000
0001
,
0000
0302
0000
1003
,
0200
0000
0000
0000
,
0000
0000
0000
0000
,
0000
0000
0000
0300
,
0100
0100
0010
0010
,
0011
0020
0000
0230
,
0000
2300
0000
3010
,
1010
0020
0000
0230
,
0000
0302
0000
0103
,
0101
0200
0000
0320
,
0000
2030
0000
3100
,
1100
0200
0000
0000
,
0320
0000
0000
0000
,
0130
0200
0000
1000
,
1000
2300
0000
3001
,
0010
0020
0000
0001
,
0000
0032
0000
1003
,
0020
0000
0000
0000
,
0000
0030
0000
0000
0000
0000
0000
0000
;

//---------------dance-single - J. Frederick----------------
#NOTES:
     dance-single:
     J. Frederick:
     Beginner:
     1:
     0.084,0.111,0.073,0.000,0.000,57.000,8.000,0.000,0.000,0.000,0.000,0.084,0.111,0.073,0.000,0.000,57.000,8.000,0.000,0.000,0.000,0.000:
0000
0000
0000
0000
,
0000
0000
0000
0000
,
0000
0000
0000
0000
,
0000
0000
0000
0000
,
1000
0000
0000
0000
,
0000
0000
0000
0000
,
0001
0000
0000
0000
,
0110
0000
0000
0000
,
1000
0000
0000
0000
,
0001
0000
0000
0000
,
0010
0000
0000
0000
,
0100
0000
0000
0000
,
1000
0000
0000
0000
,
0001
0000
0000
0000
,
0100
0000
0000
0000
,
0010
0000
0000
0000
,
1001
0000
0000
0000
,
0100
0000
0000
0000
,
0010
0000
0000
0000
,
1000
0000
0000
0000
,
0001
0000
0000
0000
,
0100
0000
0000
0000
,
0010
0000
0000
0000
,
1000
0000
0000
0000
,
1001
0000
0000
0000
,
0100
0000
0000
0000
,
0010
0000
0000
0000
,
1000
0000
0000
0000
,
0001
0000
0000
0000
,
0100
0000
0000
0000
,
0010
0000
0000
0000
,
1000
0000
0000
0000
,
1001
0000
0000
0000
,
0110
0000
0000
0000
,
0100
0000
0000
0000
,
0010
0000
0000
0000
,
0001
0000
0000
0000
,
1000
0000
0000
0000
,
0010
0000
0000
0000
,
0100
0000
0000
0000
,
0010
0000
0000
0000
,
1001
0000
0000
0000
,
0100
0000
0000
0000
,
1000
0000
0000
0000
,
0001
0000
0000
0000
,
0010
0000
0000
0000
,
0100
0000
0000
0000
,
1000
0000
0000
0000
,
0001
0000
0000
0000
,
0110
0000
0000
0000
,
1000
0000
0000
0000
,
0001
0000
0000
0000
,
0010
0000
0000
0000
,
0100
0000
0000
0000
,
0010
0000
0000
0000
,
1000
0000
0000
0000
,
0001
0000
0000
0000
,
0110
0000
0000
0000
,
1000
0000
0000
0000
,
0001
0000
0000
0000
,
0100
0000
0000
0000
,
0010
0000
0000
0000
;

//---------------dance-double - J. Frederick----------------
#NOTES:
     dance-double:
     J. Frederick:
     Easy:
     3:
     0.194,0.256,0.127,0.118,0.000,122.000,14.000,13.000,0.000,0.000,0.000,0.194,0.256,0.127,0.118,0.000,122.000,14.000,13.000,0.000,0.000,0.000:
00000000
00000000
00000000
00000000
,
00000000
00000000
00000000
00000000
,
00000000
00000000
00000000
00000000
,
00000000
00000000
00000000
00000000
,
10010000
10010000
00100000
00000000
,
01000000
00000000
10000000
00000000
,
11000000
11000000
00000000
00000000
,
00020000
00000000
00000000
00030000
,
00010000
00000000
00100000
00000000
,
01000000
00000000
10000000
00000000
,
01000000
00000000
00010000
00000000
,
00100000
00000000
00010000
00000000
,
00001000
00000000
00000100
00000000
,
00000001
00000000
00000010
00000000
,
00000001
00000000
00000100
00000000
,
00000220
00000000
00000000
00000330
,
00000010
00000000
00000100
00000000
,
00001000
00000000
00010000
00000000
,
00100000
00100000
01000000
01000000
,
10000000
10000000
00010000
00010000
,
01000000
00000000
00010000
00000000
,
00001000
00000000
00000100
00000000
,
00000001
00000001
00000010
00000010
,
00000001
00000001
00000100
00000100
,
00000010
00000000
00001000
00000000
,
00000001
00000000
00000100
00000000
,
00000010
00000000
00001000
00000000
,
00010000
00000000
00100000
00000000
,
00010000
00000000
01000000
00000000
,
10000000
00000000
00100000
00000000
,
01000000
00000000
00010000
00000000
,
10000000
00000000
00100000
00000000
,
02200000
00000000
00000000
03300000
,
10010000
10010000
01000000
00000000
,
00100000
00000000
00010000
00000000
,
00011000
00011000
00001000
00000000
,
00000100
00000000
00000001
00000000
,
00000011
00000011
00000001
00000000
,
00000100
00000000
00000010
00000000
,
00001010
00001010
00000000
00000000
,
00002000
00000000
00000000
00003000
,
00001000
00000000
00000001
00000000
,
00000100
00000000
00000010
00000000
,
00001000
00000000
00010000
00000000
,
00100000
00000000
10000000
00000000
,
02000000
00000000
00000000
03000000
,
00200000
00000000
00000000
00300000
,
00020000
00000000
00000000
00030000
,
00002000
00003000
00000200
00000300
,
00000001
00000001
00000010
00000000
,
00000100
00000000
00001000
00000000
,
00010000
00010000
00100000
00000000
,
01000000
00000000
10000000
00000000
,
01000000
01000000
00100000
00000000
,
00010000
00000000
00001000
00000000
,
00000100
00000100
00000000
00000000
,
00000002
00000000
00000000
00000003
,
00001000
00000000
00000010
00000000
,
00000100
00000000
00000001
00000000
,
00000010
00000000
00001000
00000000
,
00010000
00000000
00100000
00000000
,
02000000
00000000
00000000
00000000
,
00000000
00000000
03000000
00000000
;

//---------------dance-double - Oren G.----------------
#NOTES:
     dance-double:
     Oren G.:
     Challenge:
     9:
     0.562,0.568,0.346,0.246,0.173,367.000,38.000,27.000,7.000,4.000,1.000,0.562,0.568,0.346,0.246,0.173,367.000,38.000,27.000,7.000,4.000,1.000: // measure 1
00000000
00000000
00000000
00000000
,  // measure 2
00000000
00000000
00000000
00000000
,  // measure 3
00000000
00000000
00000000
00000000
,  // measure 4
00000000
00000000
00000000
00000000
,  // measure 5
00110000
00000000
00001010
00000000
00000100
00000001
00000010
00001000
,  // measure 6
00000000
0000M000
01000000
00000000
10000000
00000000
00200000
00000000
00300000
00000000
01000000
00000000
00001000
00000000
00000000
00000000
,  // measure 7
00011000
00000000
00000101
00000000
00000010
00001000
00010000
00000000
,  // measure 8
20002000
00000000
00000000
00000000
00000000
00003000
0000M000
00000000
00000000
00000000
00000000
00000000
00000000
00000000
30000000
00000000
,  // measure 9
00100000
01000000
00001000
01000000
00010000
00100000
00002000
01000000
,  // measure 10
00003000
00010000
00000200
00000010
00000300
00001000
00000010
00000000
,  // measure 11
00010000
00000100
00000010
00000100
00001000
00000010
00000200
00001000
,  // measure 12
00000300
00000010
00020000
00001000
00030000
00000100
00001000
00000000
,  // measure 13
00000001
00000100
00001000
00000100
00000010
00010000
00002000
01000000
,  // measure 14
00003000
00100000
00020000
10000000
00030000
01000000
00100000
00000000
,  // measure 15
10000000
01000000
00010000
01000000
00100000
00010000
01000000
00001000
,  // measure 16
00011000
00000000
00000000
00000000
00000000
00000000
00000000
00000000
00000000
00000000
00000000
00001000
00100000
00000000
00010000
10000000
,  // measure 17
00100000
00000000
00000000
01000000
10000000
00000000
01000000
00000000
00010000
00000000
00000000
00100000
01000000
00000000
00010000
00000000
,  // measure 18
00001000
00000000
00000000
00010000
00100000
00000000
00010000
00000000
00001000
00000000
00000000
00010000
00000010
00000000
00001000
00000000
,  // measure 19
00000001
00000000
00000010
00000100
00000000
00000001
00000100
00000000
00001000
00000000
00000010
00000100
00000000
00001000
00000100
00000000
,  // measure 20
00000010
00000000
00001000
00000010
00000000
00010000
00001000
00000000
00100000
00000000
00010000
01000000
00000000
00100000
10000000
00000000
,  // measure 21
00010000
00000000
00000000
00100000
01000000
00000000
00010000
00000000
00001000
00000000
00000000
00000010
00000100
00000000
00001000
00000000
,  // measure 22
00000010
00000000
00000000
00000100
00001000
00000000
00000100
00000000
00000001
00000000
00000000
00000010
00000100
00000000
00001000
00000000
,  // measure 23
00000010
00000000
00000100
00001000
00000000
00010000
00001000
00000000
00100000
00000000
00010000
01000000
00000000
10000000
01000000
00000000
,  // measure 24
00100000
00000000
00000000
01010000
00000000
00000000
00001000
00000000
00100000
00000000
00000000
10010000
00000000
00000000
00100000
01000000
,  // measure 25
10000000
00100000
00010000
00001000
00100000
01000000
00010000
00001000
,  // measure 26
00000100
00000010
00001000
00000100
00000001
00001000
00000010
00000001
,  // measure 27
00000100
00001000
00010000
00100000
01000000
10000000
00010000
00100000
,  // measure 28
10000000
01000000
00010000
00001000
01000000
00100000
00010000
00001000
,  // measure 29
00100000
00010000
00100000
00000000
01000000
00000000
10000000
00000000
00010000
01000000
00010000
00000000
00100000
00000000
00001000
00000000
,  // measure 30
00010000
00000100
00010000
00000000
00000010
00000000
00001000
00000000
00000001
00000010
00000001
00000000
00000100
00000000
00000010
00000000
,  // measure 31
00001000
00000001
00001000
00000000
00000010
00000000
00010000
00000000
00001000
00100000
00001000
00000000
00010000
00000000
00000100
00000000
,  // measure 32
00001010
00000000
01001000
00000000
00110000
10000000
11000000
00000000
,  // measure 33
01002000
00000000
00000000
00040000
00000000
00000000
00033000
00000000
,  // measure 34
00001100
00000000
01010000
00000000
10000000
01000000
00010000
00001000
,  // measure 35
00000000
0000M000
00000001
00000000
00000010
00000000
00002000
00000000
00003000
00000000
00010000
00000000
00000100
00000000
00000000
00000000
,  // measure 36
00001001
00000000
00011000
00000000
00100000
01000000
10000000
00100000
,  // measure 37
00000000
00M00000
00001000
00000000
00010000
00000000
00000020
00000000
00000030
00000000
00000100
00000000
00001000
00000000
00000000
00000000
,  // measure 38
00001010
00000000
00110000
00000000
00001000
00010000
00100000
10000000
,  // measure 39
00000000
M0000000
00010000
00000000
00001000
00000000
00200000
00000000
00300000
00000000
01000000
00000000
10000000
00000000
00000000
00000000
,  // measure 40
10100000
00000000
00011000
00000000
00100000
00010000
01000000
00000000
,  // measure 41
00011000
00000000
00001000
00001010
00000000
00000100
00000001
00000010
,  // measure 42
00000100
00010000
00000100
00000010
00001000
00010000
00000020
00001000
,  // measure 43
00000030
00010000
00002000
00100000
00003000
01000000
00010000
00000000
,  // measure 44
00100000
01000000
00100000
00001000
01000000
00100000
00020000
00001000
,  // measure 45
00030000
00000000
00000010
00000000
00002000
00000000
00000001
00000000
00003000
00000000
00000000
00000100
00000001
00000000
00001000
00000100
,  // measure 46
00000020
00000000
00002000
00000001
00000000
00000000
00000030
00000000
,  // measure 47
00020000
00000000
00000000
00003000
00000000
00000000
00000000
00000000
00000000
00000000
00000000
00000000
00000000
00000000
00000000
00000000
,  // measure 48
02000000
00000000
00001000
00100000
00000000
00000000
03030000
00000000
,  // measure 49
00110000
00000000
00000000
00000000
00001100
00000000
00000000
00000000
01010000
00000000
00000000
00000000
00001010
00000000
00001000
00000001
,  // measure 50
00001001
00000000
00011000
00000000
00100000
01000000
00010000
00001000
,  // measure 51
00000100
00000010
00001000
00000100
00000000
00010000
00000010
00000000
,  // measure 52
01010000
00000000
00001010
00000000
00000100
00000001
00000010
00001000
,  // measure 53
00010000
00100000
10000000
01000000
00000000
00100000
00001000
00000000
,  // measure 54
00001100
00000000
00110000
00000000
00001000
00010000
00100000
01000000
,  // measure 55
00001000
00100000
01000000
10000000
00000000
00100000
00010000
00000000
,  // measure 56
10010000
00000000
00011000
00000000
00000010
00000001
00001000
00000000
,  // measure 57
00001100
00000000
00010000
00011000
00000000
00100000
00010000
10000000
,  // measure 58
00100000
01000000
00001000
01000000
00100000
10000000
02000000
00010000
,  // measure 59
03000000
10000000
00020000
00100000
00030000
01000000
00001000
00000000
,  // measure 60
00010000
00000100
00000010
00000100
00010000
00000010
00000200
00001000
,  // measure 61
00000300
00000001
00002000
00000010
00003000
00000100
00010000
00000000
,  // measure 62
00202000
000M0000
000M0000
00000000
,  // measure 63
00000000
00010000
00000000
00303000
00000000
00000000
00000000
00000000
;

//---------------dance-double - C. Zou----------------
#NOTES:
     dance-double:
     C. Zou:
     Medium:
     6:
     0.426,0.424,0.091,0.528,0.000: // measure 1
00000000
00000000
00000000
00000000
,  // measure 2
00000000
00000000
00000000
00000000
,  // measure 3
00000000
00000000
00000000
00000000
,  // measure 4
00000000
00000000
00000000
00000000
,  // measure 5
20000000
00000000
30020000
00000000
01030000
00000000
00010000
00100000
,  // measure 6
00000000
00001000
00010000
00000010
00000000
00000100
00000010
00000000
,  // measure 7
00002000
00003002
00000013
00000100
,  // measure 8
00022000
00000000
00000000
00033000
,  // measure 9
00002000
00000000
02003000
00000000
03100000
00000000
10000000
00010000
,  // measure 10
00000000
00100000
01000000
00100000
00000000
00001000
01000000
00000000
,  // measure 11
00020000
00000000
00230000
00000000
00301000
00000000
00010000
00000010
,  // measure 12
00000000
00000100
00000010
00010000
00000000
00000100
00000010
00000000
,  // measure 13
00000200
00000000
00020300
00000000
00031000
00000000
01000000
00100000
,  // measure 14
00000000
10000000
00010000
00100000
00000000
01000000
10000000
00000000
,  // measure 15
00020000
00000000
02030000
00000000
03001000
00000000
00010000
00000100
,  // measure 16
00000000
00001000
00000010
00000100
00000000
00000001
00001000
00000000
,  // measure 17
00000100
00000010
00000100
00010000
,  // measure 18
00001000
01000000
00100000
00000000
10000000
01000000
00010000
00000000
,  // measure 19
01000000
10000000
00100000
01000000
,  // measure 20
00001000
00010000
00000100
00010000
00000000
00001000
00000100
00000001
,  // measure 21
00001000
00000100
00000010
00000100
,  // measure 22
00010000
00001000
01000000
00000000
00010000
00100000
10000000
00000000
,  // measure 23
00100000
00010000
01000000
00001000
,  // measure 24
00010000
00000100
00001000
00000100
00000000
00000000
00010000
00000000
,  // measure 25
00000010
00000100
00000001
00000000
00001000
00000100
00010000
00000000
,  // measure 26
00012000
01003000
20100000
31000000
,  // measure 27
00100000
00010000
01000000
00000000
00001000
00100000
00010000
00000000
,  // measure 28
00102000
00013000
00010020
00000130
,  // measure 29
00000001
00001000
00000100
00000000
00010000
00001000
01000000
00000000
,  // measure 30
00021000
00030100
00012000
00103000
,  // measure 31
00010000
01000000
00100000
00000000
10000000
00010000
00100000
00000000
,  // measure 32
01000000
00100000
00001000
00010000
00000010
00000100
00000010
00000000
,  // measure 33
00022000
00000000
00000000
00033000
,  // measure 34
00000200
00000000
00020300
00000000
00031000
00000000
00000100
00000001
,  // measure 35
00000000
00001000
00000100
00010000
00000000
00001000
01000000
00000000
,  // measure 36
00020000
00000000
00230000
00000000
01300000
00000000
00100000
00001000
,  // measure 37
00000000
00010000
00000100
00001000
00000000
00000010
00010000
00000000
,  // measure 38
00002000
00000000
00203000
00000000
01300000
00000000
10000000
00010000
,  // measure 39
00000000
01000000
00100000
10000000
00000000
01000000
00100000
00000000
,  // measure 40
00002000
00023000
00030010
00000100
,  // measure 41
00002002
00000000
00000000
00003003
,  // measure 42
00002000
00000000
00003200
00000000
00010300
00000000
00001000
01000000
,  // measure 43
00000000
00010000
10000000
01000000
00000000
00010000
01000000
00000000
,  // measure 44
20000000
00000000
30020000
00000000
01030000
00000000
00001000
00010000
,  // measure 45
00000000
00000100
00000010
00000100
00000000
00001000
00000001
00000000
,  // measure 46
00000100
00000020
00000000
00000000
,  // measure 47
00020030
00000000
00000000
00000000
,  // measure 48
00031000
00200000
00000000
00000000
,  // measure 49
02300000
23000000
30200000
02300000
,  // measure 50
03002000
00000000
00023000
00000000
00030100
00000000
00001000
00000001
,  // measure 51
00000000
00000100
00000010
00000100
00000000
00001000
00010000
00000000
,  // measure 52
00002000
00000000
00203000
00000000
01300000
00000000
00100000
00010000
,  // measure 53
00000000
01000000
00100000
10000000
00000000
00010000
00100000
00000000
,  // measure 54
00002000
00000000
00023000
00000000
00030010
00000000
00000100
00000001
,  // measure 55
00000000
00001000
00000100
00000010
00000000
00000100
00010000
00000000
,  // measure 56
00002000
02003000
03100000
01000000
,  // measure 57
20020000
00000000
00000000
30030000
,  // measure 58
00200000
00000000
20300000
00000000
30010000
00000000
00100000
01000000
,  // measure 59
00000000
00100000
00001000
00010000
00000000
00000100
00001000
00000000
,  // measure 60
00000020
00000000
00000230
00000000
00000301
00000000
00001000
00000100
,  // measure 61
00000000
00010000
00001000
01000000
00000000
00100000
10000000
00000000
,  // measure 62
02000000
00000000
00000000
00000000
,  // measure 63
00000000
03100000
00000000
00000000
00000000
00000000
00000000
00000000
;

//---------------dance-double - C. Zou----------------
#NOTES:
     dance-double:
     C. Zou:
     Hard:
     7:
     0.537,0.509,0.218,0.400,0.036: // measure 1
00000000
00000000
00000000
00000000
,  // measure 2
00000000
00000000
00000000
00000000
,  // measure 3
00000000
00000000
00000000
00000000
,  // measure 4
00000000
00000000
00000000
00000000
,  // measure 5
00011000
00000000
00101000
00000000
00010000
00100000
01000000
00100000
,  // measure 6
00000000
00010000
01000000
10000000
00000000
01000000
00010000
00000000
,  // measure 7
00110000
00000000
00101000
00000000
00010000
00000100
00010000
000M1M00
,  // measure 8
00M2M0M0
00000000
00M000M0
00032000
000M0M00
00003000
0000M110
00000000
,  // measure 9
00000001
00001000
00000200
00000000
00010300
00001000
00000100
00002000
,  // measure 10
00000000
00013000
00100000
02000000
00000000
03010000
10000000
01000000
,  // measure 11
00100000
01000000
20000000
00000000
30100000
01000000
00001000
00020000
,  // measure 12
00000000
00030100
00001000
00000020
00000000
00010030
00001000
00100000
,  // measure 13
01000000
00100000
00020000
00000000
01030000
00001000
00010000
00000200
,  // measure 14
00000000
00000310
00000001
00000200
00000000
00000310
00010000
00001000
,  // measure 15
00100000
00001000
00020000
00000000
00030100
00001000
00000010
00020000
,  // measure 16
00000000
00031000
00100000
02000000
00000000
03100000
00010000
01000000
,  // measure 17
00100000
00000000
00000000
10000000
00000000
00000000
01000000
00000000
00010000
00000000
00000000
00001000
00000000
00000000
00000100
00000000
,  // measure 18
00001000
00000000
00000000
00010000
00000000
00000000
00100000
00000000
00010000
00000000
00000000
00001000
00000000
00000000
00000010
00000000
,  // measure 19
00000001
00000100
00000010
00001000
00000100
00000001
00000100
00000000
,  // measure 20
00010000
00001000
00100000
00010000
01000000
00100000
01000000
00000000
,  // measure 21
00010000
00000000
00000000
10000000
00000000
00000000
01000000
00000000
00100000
00000000
00000000
00001000
00000000
00000000
00010000
00000000
,  // measure 22
00100000
00000000
00000000
00010000
00000000
00000000
00001000
00000000
00000010
00000000
00000000
00001000
00000000
00000000
00010000
00000000
,  // measure 23
01000000
00100000
00001000
00010000
00000010
00000100
00000001
00000000
,  // measure 24
00001000
00000100
00000010
00000100
00010000
00001000
01000000
00000000
,  // measure 25
00010000
01000000
00100000
10000000
00010000
01000000
00100000
10000000
,  // measure 26
01000000
00100000
00001000
00010000
01000000
00100000
00001000
00010000
,  // measure 27
00000100
00001000
00000010
00010000
00001000
00000010
00000001
00000100
,  // measure 28
00000010
00010000
00001000
00000010
00001000
00010000
00100000
01000000
,  // measure 29
00010000
00100000
00001000
01000000
00010000
00100000
00001000
01000000
,  // measure 30
00010000
00100000
01000000
10000000
00010000
00100000
01000000
10000000
,  // measure 31
00100000
00010000
00001000
00000100
00000001
00000010
00001000
00010000
,  // measure 32
00001000
00000100
00001000
00010000
00100000
00010000
00001000
00010000
,  // measure 33
00022000
00000000
00100000
00033010
,  // measure 34
00101000
00000000
00110000
00000000
01000000
00010000
10000000
01000000
,  // measure 35
00000000
00010000
00001000
00010000
00000000
00000100
00001000
00000000
,  // measure 36
00001010
00000000
00000101
00000000
00001000
00000001
00000010
00000100
,  // measure 37
00000000
00010000
00001000
01000000
00000000
00010000
00100000
00000000
,  // measure 38
11000000
00000000
10100000
00000000
01000000
00010000
10000000
01000000
,  // measure 39
00000000
00100000
00001000
00010000
00000000
00000010
00001000
00000000
,  // measure 40
00001100
00000000
00000011
00000000
00001000
00000000
00000010
000M0M00
,  // measure 41
00M2M0M0
00000000
00M000M0
00032000
000M0M00
00003000
0110M000
00000000
,  // measure 42
00010000
10000000
00200000
00000000
01300000
00001000
00100000
00020000
,  // measure 43
00000000
00130000
00001000
00020000
00000000
00030100
00001000
00000010
,  // measure 44
00000100
00000001
00002000
00000000
00003010
00010000
00001000
00200000
,  // measure 45
00000000
00310000
01000000
00200000
00000000
10300000
01000000
10000000
,  // measure 46
20200000
00010000
00000000
30300000
,  // measure 47
02002000
00000000
00000000
03003000
,  // measure 48
00020020
00001000
00000000
00030030
,  // measure 49
00001001
00000011
00000110
00010100
,  // measure 50
00001000
00100000
00001000
01000000
00100000
01000000
00010000
20000000
,  // measure 51
00000000
31000000
00010000
02000000
00000000
13000000
00100000
01000000
,  // measure 52
00001000
00010000
01000000
00010000
00001000
00000100
00000001
00000020
,  // measure 53
00000000
00000130
00010000
00002000
00000000
00103000
00010000
00000000
,  // measure 54
01000000
00001000
00010000
01000000
00010000
00001000
00010000
00200000
,  // measure 55
00000000
10300000
01000000
00200000
00000000
00301000
00010000
00000000
,  // measure 56
00100000
00010000
00001000
00000010
00000001
00000100
00000010
00M1M000
,  // measure 57
0M0M2M00
00000000
0M000M00
00023000
00M0M000
00030000
011M0000
00000000
,  // measure 58
10000000
00010000
02000000
00000000
13000000
01000000
00010000
00200000
,  // measure 59
00000000
00301000
00010000
00000020
00000000
00001030
00000100
00000001
,  // measure 60
00000100
00001000
00000020
00000000
00010030
00001000
00100000
02000000
,  // measure 61
00000000
03100000
00010000
02000000
00000000
03100000
10000000
00010000
,  // measure 62
00100000
000M0M00
00M0M0M0
00000000
00M000M0
00000000
000M0M00
00000000
,  // measure 63
0000M000
00000110
00000000
00000000
00000000
00000000
00000000
00000000
;
