#TITLE:Hardkore Atomic;
#SUBTITLE:;
#ARTIST:CanBlaster;
#TITLETRANSLIT:;
#SUBTITLETRANSLIT:;
#ARTISTTRANSLIT:;
#GENRE:Hardcore;
#CREDIT:;
#BANNER:Hardkore Atomic-bn.png;
#BACKGROUND:Hardkore Atomic-bg.png;
#LYRICSPATH:;
#CDTITLE:;
#MUSIC:Hardkore Atomic.ogg;
#OFFSET:-0.034;
#SAMPLESTART:31.840;
#SAMPLELENGTH:11.840;
#SELECTABLE:YES;
#BPMS:0.000=180.992;
#STOPS:;
#BGCHANGES:0.839=Hardkore Atomic.mpg=1.000=1=0=0=StretchNoLoop==CrossFade==,
99999=-nosongbg-=1.000=0=0=0 // don't automatically add -songbackground-;
#KEYSOUNDS:;

//---------------dance-single - D. D'Amato----------------
#NOTES:
     dance-single:
     D. D'Amato:
     Hard:
     9:
     0.646,0.706,0.594,0.269,0.743,394.000,64.000,29.000,6.000,0.000,0.000,0.646,0.706,0.594,0.269,0.743,394.000,64.000,29.000,6.000,0.000,0.000:
0000
0000
0000
0000
,
0000
0000
0000
0000
,
0000
0000
0000
0000
,
1000
0000
0000
1000
0000
0000
0001
0000
0000
0001
0000
0100
,
0001
0001
1000
1000
,
0100
0000
0000
0100
0000
0000
1000
0000
0000
1000
0000
0100
,
1000
1000
0001
0001
,
0100
0000
0000
0001
0000
0000
1000
0000
0000
0100
0010
0100
,
0010
0001
0011
1000
,
1100
0000
0000
0010
0000
0000
0110
0000
0100
0001
0000
0100
,
0010
1000
1010
0001
,
0101
0000
0000
0010
0000
0000
0110
0000
0100
1000
0100
1000
,
0010
0100
0101
0100
,
1100
0000
0000
0100
0000
0001
0100
0000
0001
0100
0000
0001
,
0010
0100
1100
0100
,
0101
0000
0100
0000
1000
0000
0010
0100
0010
0200
0000
0000
,
0301
0001
1000
1000
,
0001
0000
1000
0001
0000
1000
0001
1000
0001
2000
0000
0000
,
0100
3010
1010
0101
,
0002
0000
1000
0000
1000
0000
1000
0000
0000
2000
0003
0000
,
3010
0000
0M00
0010
0000
0M00
0010
0000
0M00
0010
0000
0100
,
0010
0000
0100
0010
0000
0100
0010
0000
0100
0010
0000
1000
,
0001
0000
0010
0200
0000
1000
0000
0000
0001
0000
0000
0010
,
0000
0000
1300
0001
0000
0000
0101
0000
0000
1010
0000
0000
,
1001
0000
0000
0010
0000
0100
0000
0000
1001
0000
0000
0110
,
0000
0000
0001
1000
0000
0000
0010
0000
1000
0000
0000
0001
,
0010
0000
0000
0100
0000
0010
0000
0000
1001
0000
0000
0110
,
0000
0000
1000
0001
0000
0000
0100
0000
0001
0000
0000
1000
,
0100
0000
0000
1000
0000
0001
0000
0000
0110
0000
0000
1001
,
0000
0000
0100
0010
0000
0000
0001
0000
0100
0000
0000
0010
,
1000
0000
0000
0001
0000
1000
0000
0000
0110
0000
0000
1000
,
0001
0000
0010
0000
0100
0000
1000
0000
0100
0000
0010
0000
,
0001
0000
0000
0010
0000
0100
0000
0000
0011
0000
0000
1100
,
0000
0000
0001
1000
0000
0000
0010
0000
1000
0000
0000
0001
,
0010
0000
0000
0100
0000
0010
0000
0000
1100
0000
0000
0011
,
0000
0000
1000
0001
0000
0000
0100
0000
0001
0000
0000
1000
,
0100
0000
0000
1000
0000
0001
0000
0000
1100
0000
0000
0011
,
0000
0000
0100
0010
0000
0000
0001
0000
0100
0000
0000
0010
,
1000
0000
0000
0001
0000
1000
0000
0000
0101
0000
0000
1000
,
0010
0000
0100
0000
0001
0000
0100
0000
0010
0000
1000
0000
,
0200
0000
0000
0000
,
2300
0000
0000
0000
,
3002
0000
0000
0000
,
0203
0000
0000
0000
,
0302
0000
0023
0000
,
0230
0000
2300
0010
,
3002
0100
0010
2003
,
0010
0100
3001
1001
,
1000
0000
1000
0100
0000
0000
0010
0000
0000
0001
0000
0000
,
0001
0000
0001
0100
0000
0100
0010
0000
0000
0100
0000
0100
,
0001
0000
0001
0100
0000
0000
0010
0000
0000
1000
0000
0000
,
1000
0000
1000
0100
0000
0100
0010
0000
0000
0100
0000
0000
,
1100
0011
1100
0002
,
1000
0000
0003
1000
0001
1000
0001
0000
0000
1001
0000
0000
,
1010
0101
0011
1100
,
0120
0000
0000
0000
0000
0000
0130
0010
0100
0010
0100
0010
,
0001
0001
0001
0001
,
1000
1000
1000
1000
,
0001
0001
1000
1000
,
0001
0000
1000
0000
0001
0000
1000
0001
1000
0002
0000
0000
,
0103
0000
00M0
0100
0000
00M0
0100
0000
00M0
0100
0000
0010
,
0100
0000
0010
0100
0000
0010
0100
0000
0010
0100
0000
0001
,
1000
0000
0100
0020
0000
0001
0000
0000
1000
0000
0000
0100
,
0000
0000
0031
1000
0000
0000
1010
0000
0000
0101
0000
0000
,
1001
0000
0000
1000
0000
0001
0000
0000
0101
0000
0000
1000
,
0000
0000
1000
0200
0000
0000
1300
0000
0001
0100
0001
0100
,
0010
0000
0000
1000
0000
0001
0000
0000
0011
0000
0000
1000
,
0020
1000
0000
0130
0000
0001
0020
0001
0000
0130
0000
0100
,
0010
0000
0000
0001
0000
1000
0000
0000
1100
0000
0000
0001
,
0000
0000
0020
0100
0000
0000
0001
0000
1000
0000
0000
0130
,
0010
0000
0000
0001
0100
0001
0200
0000
0000
0310
1000
0010
,
2000
0000
0001
0000
3001
0000
1002
0000
1000
0000
1003
0000
,
1001
1100
0011
0110
,
1100
0000
0000
1001
0000
0000
0101
0000
0001
0100
0000
0001
,
0100
0101
1010
0110
,
0100
0001
2000
0000
3002
0000
1003
0001
1000
0001
1000
0001
,
0100
0110
1010
0110
,
0011
0110
1010
1100
,
0210
0001
0010
1000
,
0310
0100
0010
0100
0010
0100
1000
0001
1000
0001
1000
0001
,
0100
0000
0000
0000
;

//---------------dance-single - D. D'Amato----------------
#NOTES:
     dance-single:
     D. D'Amato:
     Challenge:
     10:
     0.817,0.893,0.798,0.214,1.000,507.000,86.000,23.000,107.000,0.000,0.000,0.817,0.893,0.798,0.214,1.000,507.000,86.000,23.000,107.000,0.000,0.000: // measure 1
0000
0000
0000
0000
,  // measure 2
0000
0000
0000
0000
,  // measure 3
0000
0000
0000
0000
,  // measure 4
1000
0000
0000
1000
0000
0000
0001
0000
1000
0001
0000
1000
,  // measure 5
0001
0001
1000
1000
,  // measure 6
0101
0000
0000
1010
0000
0000
0001
0000
M000
0001
0000
1000
,  // measure 7
0001
0001
1000
1000
,  // measure 8
0011
0000
0000
1100
0000
0000
0001
1000
0001
1000
0001
1000
,  // measure 9
0001
0000
0000
0001
1000
0100
1000
0000
0000
0010
1000
0001
,  // measure 10
1000
0000
0000
0100
1000
0010
1000
0000
0001
0100
0000
0001
,  // measure 11
1000
0000
0000
1000
0001
0100
0001
0000
0000
0010
0001
1000
,  // measure 12
0001
0000
0000
0100
0001
0010
0001
1000
0100
0010
0001
1000
,  // measure 13
0010
0000
0010
0100
0000
0100
0010
0000
0010
1000
0000
1000
,  // measure 14
0100
0000
0100
0010
M00M
0010
0100
M00M
0010
0100
1000
0010
,  // measure 15
0100
0000
0100
0010
0000
0010
0100
0000
0100
0001
0000
0001
,  // measure 16
0010
M00M
0100
0000
M01M
0000
0100
1000
0010
0100
0001
1000
,  // measure 17
0100
0000
0100
0010
0000
0010
1000
0000
1000
0010
0000
0010
,  // measure 18
0001
0000
0002
1MM3
0000
0MM2
1003
0100
0010
0001
0100
0010
,  // measure 19
0100
0000
0100
0010
0000
0010
0001
0000
0001
0010
0000
0010
,  // measure 20
1000
0000
0001
0MM0
1000
0MM0
0001
0000
M000
0002
0000
0000
,  // measure 21
1003
0000
0001
0100
0000
0010
1000
0000
0100
0010
0000
0001
,  // measure 22
1000
0000
0010
0100
0000
0001
0010
0000
0100
1000
0000
0001
,  // measure 23
1000
0010
0100
0001
0100
0010
1000
0010
0100
0010
1000
0100
,  // measure 24
0010
0001
0010
0100
1000
0100
0010
0100
1000
0010
0100
0001
,  // measure 25
1001
0000
0000
1001
0000
1100
0000
0000
1100
0000
0000
1010
,  // measure 26
0000
0000
1000
0010
0000
0000
1010
0000
1001
0000
0000
0001
,  // measure 27
0010
0000
0000
0110
0000
1100
0000
0000
0011
0000
0000
1001
,  // measure 28
0000
0000
0000
0000
0001
0000
0100
0000
0000
0000
0000
0000
0120
0000
0000
0000
1000
0000
0000
M000
0030
0000
1000
0000
,  // measure 29
0100
0000
0000
0110
0000
0011
0000
0000
1001
0000
0000
0101
,  // measure 30
0000
0000
0100
0010
0000
0000
1010
0000
1100
0000
0000
0100
,  // measure 31
0010
0000
0000
0110
0000
0000
1001
0000
0100
0010
0100
0000
,  // measure 32
1001
0000
01M0
0000
0M01
0000
0110
0000
100M
0000
M010
0000
,  // measure 33
1001
0000
0000
1001
0000
0101
0000
0000
0101
0000
0000
0011
,  // measure 34
0000
0000
0001
0010
0000
0000
0011
0000
1001
0000
0000
1000
,  // measure 35
0010
0000
0000
0110
0000
0101
0000
0000
1010
0000
0000
1001
,  // measure 36
0000
0000
0000
0000
1000
0000
0100
0000
0000
0000
0000
0000
0120
0000
0000
0000
0001
0000
0000
000M
0030
0000
0001
0000
,  // measure 37
0100
0000
0000
0110
0000
1010
0000
0000
1001
0000
0000
1100
,  // measure 38
0000
0000
0100
0010
0000
0000
0011
0000
0101
0000
0000
0100
,  // measure 39
0010
0000
0000
0110
0000
0000
1001
0000
0010
0100
0010
0000
,  // measure 40
M101
0000
0M10
0000
01M0
0000
1010
0000
M001
0000
100M
0000
,  // measure 41
0M02
0M00
0M00
0M00
,  // measure 42
20M3
00M0
00M0
00M0
,  // measure 43
302M
000M
000M
000M
,  // measure 44
M23M
M000
M000
M000
,  // measure 45
M301
0000
0011
0000
,  // measure 46
1000
0000
1100
0010
,  // measure 47
0002
0000
2003
0000
,  // measure 48
3001
0010
0100
1001
,  // measure 49
0010
0000
0001
0010
0000
0000
0010
0000
0001
0010
0000
0100
,  // measure 50
0010
0100
0000
0010
0001
0100
0020
0000
0000
2030
0000
0000
,  // measure 51
3100
0000
1000
0100
0000
0010
0100
0010
0000
0100
0000
1000
,  // measure 52
0100
0000
0010
0100
1000
0010
0200
0000
0000
0302
0000
0000
,  // measure 53
0013
0000
0001
0100
0000
0001
0100
0000
0010
1000
0010
0100
,  // measure 54
0001
0100
0000
0001
0010
0001
0100
0000
0001
1000
0100
1000
,  // measure 55
0010
0000
1000
0100
0000
1000
0100
0000
10M0
010M
0000
1000
,  // measure 56
0100
0010
0001
0010
0100
1000
0010
0100
0001
1000
0010
0100
,  // measure 57
0110
M110
1010
101M
,  // measure 58
1100
11M0
0110
011M
,  // measure 59
0011
0M11
0101
01M1
,  // measure 60
1001
0000
1010
0000
1100
0000
0100
0010
0001
1000
0010
0100
,  // measure 61
0110
0000
0010
1000
0000
0010
0100
0000
0010
0001
0000
0010
,  // measure 62
0100
0000
0010
1000
0000
0100
0010
0000
0100
0001
0000
0100
,  // measure 63
0010
0000
0100
1000
0000
0010
0M00
0000
0010
000M
0000
0010
,  // measure 64
0M00
0000
0010
1000
0000
0M00
0010
0000
0000
1001
0000
0000
,  // measure 65
1100
0000
0000
0011
0000
0000
1100
0000
0000
0011
0000
0101
,  // measure 66
0000
0000
0010
1000
0000
0000
0100
0000
1000
0100
0010
0001
,  // measure 67
1001
0000
0000
1010
0000
0101
0000
0000
1010
0000
0000
1000
,  // measure 68
0001
0010
0000
0200
0000
0310
0001
1000
0000
0020
0000
0130
,  // measure 69
00M1
0000
0000
0011
0000
0000
1M00
0000
0001
0010
0000
0100
,  // measure 70
0010
0000
0001
1000
00M0
0000
M100
0000
0M10
0000
0000
0001
,  // measure 71
1000
0000
0000
0010
0100
0001
1001
0000
1000
0100
0010
0001
,  // measure 72
1001
0000
1100
0000
0110
0000
0011
0000
0101
0000
0110
0000
,  // measure 73
1010
0000
1000
0100
00M0
100M
0100
0000
0010
0001
M000
0M10
,  // measure 74
0001
0000
0100
0010
000M
M100
0010
0000
2000
30M1
0M00
2000
,  // measure 75
30M1
0M00
0010
010M
0000
1M00
001M
0000
M100
00M1
0000
M010
,  // measure 76
010M
0000
0000
0000
1000
0000
0100
0000
0020
0000
M000
0000
0031
0000
0100
0000
0010
0000
1000
0M00
0001
00M0
1000
0000
,  // measure 77
0100
0000
M010
010M
0000
1M00
001M
0000
M100
00M1
0000
M010
,  // measure 78
010M
0000
2000
001M
3000
0200
M001
0300
0020
M10M
0030
1000
,  // measure 79
0001
0100
0010
100M
0100
0010
M001
0100
0010
100M
0100
0010
,  // measure 80
0001
1M00
00M1
1000
010M
0010
010M
1000
0001
M010
0100
M010
,  // measure 81
0001
0M00
00M0
0000
0000
0000
0000
0000
0000
0000
0000
0000
;

//---------------dance-single - D. D'Amato----------------
#NOTES:
     dance-single:
     D. D'Amato:
     Medium:
     7:
     0.528,0.594,0.381,0.306,0.283,324.000,41.000,33.000,0.000,0.000,0.000,0.528,0.594,0.381,0.306,0.283,324.000,41.000,33.000,0.000,0.000,0.000:
0000
0000
0000
0000
,
0000
0000
0000
0000
,
0000
0000
0000
0000
,
1000
0100
1000
1000
,
0001
0100
0001
0001
,
0010
0000
0000
0100
0000
0000
1000
0000
0000
1000
0000
0001
,
1000
1000
0001
1000
,
0010
0000
0000
0100
0000
0000
0001
0000
0000
0001
0000
1000
,
0001
0100
0010
0010
,
1001
0000
0000
0010
0000
0000
0101
0000
0000
0010
0000
0001
,
1000
0100
0010
0010
,
1001
0000
0000
0010
0000
0000
2100
0000
0000
3010
0000
1000
,
0001
0100
1000
0100
,
0010
0000
0000
0100
0000
0000
0001
0000
0000
0100
0000
0010
,
1000
0100
0001
0100
,
0010
0000
0100
0000
1000
0000
0200
0000
0000
0010
0000
0000
,
1300
0100
1000
0100
,
1000
0000
0100
1000
0000
0100
2000
0000
0000
3200
0000
0000
,
1300
0001
0100
0001
,
0100
0000
0001
0000
0100
0000
0001
0000
0000
0200
0000
0000
,
0301
0001
0010
0010
,
0001
0010
0100
1000
,
0001
0000
0000
0001
0000
0010
0000
0000
0010
0000
0000
0001
,
0000
0000
0010
0100
0000
0000
1000
0000
0000
0010
0000
0000
,
1001
0010
0101
0010
,
1000
0000
0001
1000
0000
0000
0001
0000
0000
0110
0000
0000
,
1001
0010
1100
0010
,
0001
0000
1000
0001
0000
0000
1000
0000
0110
0000
0000
0000
,
1001
0100
0011
0100
,
1000
0000
0001
1000
0000
0000
0001
0000
0000
0110
0000
0000
,
1001
0100
1010
0100
,
0001
0000
1000
0000
0001
0000
0100
0000
0010
0000
0100
0000
,
0110
1000
0101
1000
,
0010
0000
0100
0010
0000
0000
0100
0000
0000
1001
0000
0000
,
0110
1000
0011
1000
,
0100
0000
0010
0100
0000
0000
0010
0000
1001
0000
0000
0000
,
0110
0001
1100
0001
,
0010
0000
0100
0010
0000
0000
0100
0000
0000
1001
0000
0000
,
0110
0001
1010
0001
,
0100
0000
0010
0000
0100
0000
0001
0000
1000
0000
0001
0000
,
0200
0000
0000
0000
,
0302
0000
0000
0000
,
0023
0000
0000
0000
,
0230
0000
0000
0000
,
1300
0000
0010
0000
,
0100
0000
0010
0010
,
0100
0100
0010
1000
,
0020
0100
1030
1001
,
1000
0000
0100
1000
0000
0000
0001
0000
0000
1000
0000
0000
,
0020
0000
0130
0101
,
0001
0000
0100
0001
0000
0000
1000
0000
0000
0001
0000
0000
,
0020
0000
0130
1100
,
1000
1000
1000
0020
,
0100
2030
0001
0100
,
3001
0011
0001
0011
,
0220
0000
0000
0330
,
1000
0001
1000
0001
,
1000
0001
1000
0001
,
0100
0010
0100
0010
,
1000
0000
0001
0000
1000
0000
0200
0000
0000
0010
0000
0000
,
1300
1000
0010
0010
,
1000
0010
0100
0001
,
1000
0000
0000
1000
0000
0010
0000
0000
0010
0000
0000
1000
,
0000
0000
0010
0100
0000
0000
0001
0000
0000
0010
0000
0000
,
1001
0000
0000
1000
0000
0001
0000
0000
0100
0000
0000
0010
,
0000
0000
1000
0200
0000
0000
0310
0000
0000
0001
0000
0100
,
0001
0000
0000
1000
0000
0100
0000
0000
0010
0000
0000
0001
,
0200
0000
0000
0301
0000
1000
0200
0000
0000
1300
0000
0100
,
1000
0000
0000
0001
0000
0010
0000
0000
0100
0000
0000
1000
,
0000
0000
0000
0100
0000
0000
0010
0000
0001
0000
0000
0100
,
0001
0000
0000
1000
0010
0000
0200
0000
0000
0301
1000
0000
,
0100
0000
0010
0000
0100
0000
1000
0000
0001
0000
1000
0000
,
1001
1000
0011
0010
,
1100
0100
0010
0002
,
0203
0301
1010
0010
,
0101
0100
0020
1000
,
0230
0320
2030
3200
,
0320
0032
0203
0320
,
0230
0001
0010
1000
,
0310
0000
0000
0110
0000
0000
1010
0000
0000
1001
0000
0001
,
0100
0000
0000
0000
;

//---------------dance-single - D. D'Amato----------------
#NOTES:
     dance-single:
     D. D'Amato:
     Easy:
     4:
     0.426,0.520,0.260,0.427,0.000,247.000,28.000,46.000,0.000,0.000,0.000,0.426,0.520,0.260,0.427,0.000,247.000,28.000,46.000,0.000,0.000,0.000:
0000
0000
0000
0000
,
0000
0000
0000
0000
,
0000
0000
0000
0000
,
1000
1000
0010
0010
,
0100
0100
0001
0001
,
0010
0100
1000
1000
,
1001
0001
1000
0100
,
0110
0010
0001
1000
,
1002
0100
0010
0013
,
2000
0100
0010
3010
,
0110
0100
0110
0010
,
0110
1010
1001
0101
,
1001
1000
1000
1000
,
0010
0020
0230
0310
,
0100
0001
0001
0001
,
1001
0000
1002
0100
,
0103
0010
1000
0100
,
1000
0020
2030
0000
,
3100
0010
0001
0100
,
0001
0011
0102
0000
,
0013
0100
1000
1000
,
0010
0100
0001
0001
,
1000
0001
1000
0001
,
0100
0010
0100
1010
,
0001
0100
0001
0100
,
0010
0010
2000
0000
,
3001
0010
0001
0010
,
0100
0100
2000
0100
,
3010
0100
0010
0100
,
0001
0001
0020
0000
,
0130
0010
0100
0010
,
2001
0000
3020
0000
,
1030
0100
1000
0100
,
0010
0010
0002
0000
,
1003
0010
1000
0010
,
0100
0100
0002
0100
,
0013
0100
0010
0100
,
1000
1000
0020
0000
,
0130
0010
0100
0010
,
1002
0000
0023
0000
,
0230
0000
0000
0000
,
2300
0000
0000
0000
,
3002
0000
0000
0000
,
0203
0000
0000
0000
,
0310
0000
0000
0000
,
0100
0000
0010
0000
,
1000
0000
0100
0010
,
0002
0000
1000
0003
,
1001
0000
0001
0000
,
0020
0000
0031
0100
,
0110
0000
0010
0000
,
2000
0000
3010
0001
,
1001
0000
1000
0000
,
0200
0000
1300
0010
,
0110
0000
0100
0000
,
0002
0000
0103
1000
,
2001
0000
3002
0000
,
2003
0000
3002
0000
,
0103
0001
0100
0010
,
0200
0000
0320
0000
,
0130
0010
1000
1000
,
0100
0010
0001
0001
,
1000
0001
1000
0001
,
0010
0100
0010
1100
,
0001
0001
0010
0010
,
0001
1000
0000
0100
,
0100
1000
1000
0010
,
0020
0130
0200
0310
,
1000
0001
0001
0100
,
0000
0010
1000
0000
,
0001
1000
2000
3001
,
1002
0000
0023
0000
,
0130
1000
0001
0010
,
0100
1000
0001
0020
,
0032
1003
0010
0100
,
0001
2000
3020
0030
,
1010
0101
1000
0100
,
0010
0001
0100
0010
,
2002
0000
0000
3003
,
0220
0000
0000
0000
,
0330
0000
0000
0000
;

//---------------dance-double - D. D'Amato----------------
#NOTES:
     dance-double:
     D. D'Amato:
     Challenge:
     10:
     0.840,0.891,0.511,0.603,1.000,513.000,55.000,65.000,55.000,0.000,0.000,0.840,0.891,0.511,0.603,1.000,513.000,55.000,65.000,55.000,0.000,0.000:
00000000
00000000
00000000
00000000
,
00000000
00000000
00000000
00000000
,
00000000
00000000
00000000
00000000
,
01000000
00000000
00000000
01000000
00000000
00000000
0M001000
00000000
00010000
0M001000
00000000
00010000
,
00000100
00000100
00000010
00000010
,
00000011
00000000
00000000
00001100
00000000
00000000
00000100
00000000
000M0000
00000100
00000000
00010000
,
00001M00
01000M00
01000000
00100000
,
10100000
00000000
00000000
01010000
00000000
00000000
00100000
00001000
00010000
00001000
00010000
00001000
,
00010000
00000000
00000000
00000100
00001000
00000100
00000010
00000000
00000000
00000100
00000010
00000001
,
00000010
00000000
00000000
00000001
00000010
00000001
00001000
00000000
00000100
00010000
00000000
00010000
,
00001000
00000000
00000000
01000000
00010000
01000000
00100000
00000000
00000000
01000000
00100000
10000000
,
00100000
00000000
00000000
10000000
00100000
10000000
00010000
10000000
01000000
00100000
00010000
10000000
,
00100000
00000000
10000000
00010000
00000000
01000000
00010000
00000000
00100000
00001000
00000000
00010000
,
00000100
00000000
00001000
00000010
00000000
00000100
00000010
00000000
00000100
00000010
00001000
00000100
,
00000010
00000000
00000001
00001000
00000000
00000100
00001000
00000000
00000010
00010000
00000000
00001000
,
00000200
00000000
00000302
00000000
00000023
00000000
00002030
00000000
00003000
00010000
00001000
00010000
,
00001000
00000000
01000000
00100000
00000000
10000000
00010000
00000000
00100000
00001000
00000000
00010000
,
00000100
00000000
00020000
00031000
00000000
00020000
00031000
00100000
00010000
00100000
00010000
10000000
,
00100000
00000000
10000000
00010000
00000000
10000000
01000000
00000000
00100000
00010000
00000000
00100000
,
00001000
00000000
00010000
00000000
00001000
00000000
00010000
00000000
00000000
00002000
00000000
00000000
,
00013000
00000000
00010000
00000100
000M0000
00000100
00001000
00000M00
00001000
00000010
0000M000
00000010
,
00000100
000000M0
00000100
00000001
00000M00
00000001
00000010
0000000M
00000010
00000100
000000M0
00000100
,
00010000
00001M00
01000000
00010000
0100M000
00100000
10000000
00010000
00100000
00001000
00010000
00000100
,
00001000
00000100
00000010
00000001
00001000
00000010
00010000
00001000
01000000
00010000
10000000
01000000
,
21000000
00000000
00000000
30010000
00000000
12000000
00000000
00000000
03100000
00000000
00000000
00120000
,
00000000
00000000
01030000
00002000
00000000
00000000
00013000
00000000
00021000
00000000
00000000
00030100
,
00002000
00000000
00000000
00003010
00000000
00000102
00000000
00000000
00000013
00000000
00000000
00001200
,
00000000
00000000
00010300
00001000
00000000
00000000
00021000
00000000
00100000
0000MM00
00000000
00030010
,
00002000
00000000
00000000
00003001
00000000
00001020
00000000
00000000
00010030
00000000
00000000
00012000
,
00000000
00000000
01003000
00200000
00000000
00000000
10300000
00000000
21000000
00000000
00000000
30100000
,
01000000
00000000
00010000
00100000
00000000
00001000
00010000
00000100
00001000
00000100
00000010
00000001
,
00000100
00000000
00001010
00000000
00000100
00000000
00000010
00000000
00000101
00000000
00000010
00000000
,
00000102
00000000
00000000
00001003
00000000
00000201
00000000
00000000
00000310
00000000
00000000
00002010
,
00000000
00000000
00003100
00020000
00000000
00000000
00031000
00000000
00012000
00000000
00000000
01003000
,
00020000
00000000
00000000
00130000
00000000
21000000
00000000
00000000
30100000
00000000
00000000
02010000
,
00000000
00000000
03001000
00010000
00000000
00000000
00012000
00000000
00000010
0M0M0000
00000000
00103000
,
00020000
00000000
00000000
10030000
00000000
00210000
00000000
00000000
00301000
00000000
00000000
00021000
,
00000000
00000000
00030100
00000020
00000000
00000000
00000031
00000000
00000102
00000000
00000000
00000013
,
00000100
00000000
00001000
00000010
00000000
00010000
00001000
01000000
00010000
01000000
00100000
10000000
,
01000000
00000000
00110000
00000000
01000000
00000000
00100000
00000000
11000000
00000000
00100000
00000000
,
10020000
0M000000
00M00000
M0000000
,
02030000
00M00000
0000M000
000M0000
,
03002000
00M00000
000M0000
0M000000
,
00023000
00000M00
0000M000
000000M0
,
00031000
00000000
00010000
00000100
,
00001000
00000010
00000110
00000100
,
00000002
00000000
00002003
00000000
,
00003010
00010000
00001000
00011000
,
00010000
00000000
00001000
00010000
00000000
00000000
00010000
00000000
00001000
00010000
00000000
00001000
,
00010000
00000100
00000000
00010000
00000100
00001000
00000002
00000000
00000000
00002003
00000000
00000000
,
00003010
00000100
00000000
00000010
00001000
00000100
00000010
00000000
00000001
00000010
00000000
00000100
,
00000010
00000000
00000100
00000010
00000001
00001000
00000020
00000000
00000000
00000230
00000000
00000000
,
00000301
00000000
00001000
00000001
00000000
00001000
00000001
00000000
00000010
00000001
00000100
00000000
,
00000001
00001000
00000000
00000100
00010000
00000000
00001000
00010000
00001000
00100000
00010000
00100000
,
01000000
00000000
00100000
00010000
00000000
00100000
00001000
00000000
00100000
00010000
00000000
00100000
,
00001000
00010000
00000010
00001000
00000010
00000100
00000001
00000100
00000010
00001000
00000100
00010000
,
00012000
00103000
210M0000
30100000
,
1M020000
01000000
M0130000
00101000
,
00021M00
00030010
0000M102
00000013
,
00002M01
00000000
00000010
00000000
00000001
00000000
00003200
00000000
00000300
00010000
00001000
00010000
,
00001000
00010000
00001000
00100000
00000000
01000000
10000000
00000000
00100000
00010000
00000000
00001000
,
00000100
00000000
00000001
00000010
00000000
00000100
00010000
00001000
00010000
00001000
00000000
00010000
,
00000010
00000000
00000010
00000100
00000000
00000120
00000000
00000000
00001000
00000000
00000000
00010030
,
00000000
00000000
000100M0
00001000
00000000
00000000
00100000
00000000
00000000
10010000
00000000
00000000
,
01200000
00000000
00000000
00010000
00000000
00000000
00301000
00000000
00000000
00M11000
00000000
01001000
,
00000000
00000000
01000000
00100000
00000000
00000000
10000000
00000000
01000000
00100000
00001000
00010000
,
00011000
00000000
00000000
00010020
00000000
00001000
00000000
00000000
00000130
00000000
00000000
00000010
,
00001000
00000100
00000000
00020000
00000000
00031000
00100000
00010000
01000000
00002000
00000000
00013000
,
00000020
00000000
00000000
00001000
00000000
00000000
00010030
00000000
00000000
00011000
00000000
00201000
,
00000000
00000000
00000000
00010000
00000000
00000000
01300000
00000000
00100000
00000000
00000000
00001000
,
00010000
00000000
00000000
00000100
00000010
00000001
00001001
00000000
00001000
00000010
00010000
00001000
,
00011000
00000000
01001000
00000000
01100000
00000000
10100000
00000000
10010000
00000000
00110000
00000000
,
00101000
00000000
00001000
00010000
00000000
00010000
00000100
000M0000
00000100
00000010
00000M00
00000010
,
00000001
000000M0
00000001
00000100
0000000M
00000100
00001000
00000M00
00002000
00013000
00000000
00002000
,
00013000
00000000
00010000
01000000
000M0000
01000000
10000000
0M000000
10000000
00100000
M0000000
00100000
,
01000000
00M00000
01000000
00001000
0M020000
00000000
00030010
00001000
00000100
00000010
00000001
00000100
,
00000010
00000000
00000010
00010000
00000000
00001000
00100000
00000000
00100000
01000000
00000000
10000000
,
00010000
00000000
00200000
00001000
00300000
00020000
00000100
00030000
00000020
00000001
00000030
00000100
,
0000001M
00001000
00000100
000100M0
00001000
00100000
00010M00
01000000
00100000
1000M000
01000000
00100000
,
00010000
01000000
00001000
00M10000
00000100
00001000
0M000010
00000100
00000001
M0001000
00000100
00010000
,
00001000
00000000
00000000
00000000
;

//---------------dance-double - D. D'Amato----------------
#NOTES:
     dance-double:
     D. D'Amato:
     Hard:
     9:
     0.642,0.706,0.585,0.260,0.715,393.000,63.000,28.000,10.000,0.000,0.000,0.642,0.706,0.585,0.260,0.715,393.000,63.000,28.000,10.000,0.000,0.000:
00000000
00000000
00000000
00000000
,
00000000
00000000
00000000
00000000
,
00000000
00000000
00000000
00000000
,
10000000
00000000
00000000
10000000
00000000
00000000
01000000
00000000
00000000
01000000
00000000
00100000
,
00010000
00010000
01000000
01000000
,
00001000
00000000
00000000
00001000
00000000
00000000
00010000
00000000
00000000
00010000
00000000
00000010
,
00001000
00001000
00000100
00000100
,
00000010
00000000
00000000
00000001
00000000
00000000
00000100
00000000
00000000
00000010
00001000
00000010
,
00001000
00000100
00010100
00010000
,
00011000
00000000
00000000
00001000
00000000
00000000
01001000
00000000
01000000
00010000
00000000
01000000
,
00010000
00010000
00110000
00100000
,
01100000
00000000
00000000
01000000
00000000
00000000
11000000
00000000
01000000
10000000
01000000
10000000
,
00010000
01000000
00100000
10000000
,
01000000
00000000
00000000
00010000
00000000
00001000
00010000
00000000
00001000
00010000
00000000
00001000
,
00000100
00000001
00000010
00000100
,
00001000
00000000
00000001
00000000
00001000
00000000
00000100
00000010
00000100
00000020
00000000
00000000
,
00000031
00000001
00001000
00001000
,
00000MM1
00000000
00001000
00000MM1
00000000
00001000
00000001
00001000
00000001
00000200
00000000
00000000
,
00000000
00000310
00001010
00001100
,
00020100
00000000
00000100
00000000
00000100
00000000
00000100
00000000
00000000
00002000
00030000
00000000
,
00103000
00000000
00000000
00010000
00000000
00000000
00100000
00000000
01000000
10000000
00000000
01000000
,
00100000
00000000
00010000
10000000
00000000
01000000
00100000
00000000
00010000
10000000
00000000
01000000
,
00100000
00000000
00010000
02000000
00000000
00001000
00000000
00000000
00010000
00000000
00000000
00100000
,
00000000
00000000
03001000
00010000
00000000
00000000
00011000
00000000
00000000
00010100
00000000
00000000
,
00001010
00000000
00000000
00000100
00000001
00000000
00000000
00000000
00001010
00000000
00000000
00010100
,
00000000
00000000
00001000
00010000
00000000
00000000
00000010
00000000
00000100
00000000
00000000
00000001
,
00001000
00000000
00000000
00000100
00000000
00010000
00000000
00000000
00101000
00000000
00000000
01010000
,
00000000
00000000
00100000
10000000
00000000
00000000
01000000
00000000
00100000
00000000
00000000
00010000
,
01000000
00000000
00000000
00100000
00000000
10000000
00000000
00000000
01010000
00000000
00000000
00101000
,
00000000
00000000
00010000
00001000
00000000
00000000
01000000
00000000
00100000
00000000
00000000
10000000
,
01000000
00000000
00000000
00100000
00000000
00010000
00000000
00000000
11000000
00000000
00000000
00100000
,
01000000
00000000
10000000
00000000
01000000
00000000
00100000
00000000
00010000
00000000
10000000
00000000
,
01010000
00000000
00000000
00100000
10000000
00000000
00000000
00000000
01010000
00000000
00000000
00101000
,
00000000
00000000
00010000
00001000
00000000
00000000
01000000
00000000
00100000
00000000
00000000
10000000
,
00010000
00000000
00000000
00100000
00000000
00001000
00000000
00000000
00010100
00000000
00000000
00001010
,
00000000
00000000
00000100
00000001
00000000
00000000
00000010
00000000
00000100
00000000
00000000
00001000
,
00000010
00000000
00000000
00000100
00000000
00000001
00000000
00000000
00001010
00000000
00000000
00010100
,
00000000
00000000
00001000
00010000
00000000
00000000
00000010
00000000
00000100
00000000
00000000
00000001
,
00000010
00000000
00000000
00000100
00000000
00001000
00000000
00000000
00000011
00000000
00000000
00000100
,
00000010
00000000
00000001
00000000
00000010
00000000
00000100
00000000
00001000
00000000
00000001
00000000
,
00000200
00000000
00000000
00000000
,
00000320
00000000
00000000
00000000
,
00020030
00000000
00000000
00000000
,
00032000
00000000
00000000
00000000
,
00203000
00000000
00320000
00000000
,
20030000
00000000
30100000
01000000
,
00010000
00100000
00001000
00020000
,
00000100
00000010
00031000
00011000
,
00010000
00000000
00000100
00001000
00000000
00000000
00000100
00000000
00000000
00000010
00000000
00000000
,
00000001
00000000
00001000
00000010
00000000
00001000
00000100
00000000
00000000
00010000
00000000
00010000
,
00001000
00000000
01000000
00010000
00000000
00000000
01000000
00000000
00000000
00100000
00000000
00000000
,
10000000
00000000
00010000
00100000
00000000
00010000
01000000
00000000
00000000
00001000
00000000
00000000
,
01001000
00101000
00011000
00002000
,
00010000
00000000
00003000
00010000
00001000
00010000
00001000
00000000
00000000
00011000
00000000
00000000
,
00010100
00010010
00001010
00000110
,
00002001
00000000
00000000
00000000
00000000
00000000
00003001
00001000
00000001
00001000
00000001
00001000
,
00000100
000M0100
000M0100
00000100
,
00010000
00010M00
00010M00
00010000
,
00001000
00M01000
00M01000
00001000
,
01002000
00000000
01000000
00000000
01000000
00000000
01000000
00000000
00000000
00020000
00003000
00000000
,
00030010
00000000
00000000
00001000
00000000
00000000
00000010
00000000
00000100
00000001
00000000
00000100
,
00000010
00000000
00001000
00000001
00000000
00000100
00000010
00000000
00001000
00000001
00000000
00000100
,
00000010
00000000
00001000
00000200
00000000
00010000
00000000
00000000
00001000
00000000
00000000
00000010
,
00000000
00000000
00010300
00001000
00000000
00000000
00011000
00000000
00000000
01001000
00000000
00000000
,
10010000
00000000
00000000
01000000
00000000
00010000
00000000
00000000
01010000
00000000
00000000
00100000
,
00000000
00000000
10000000
02000000
00000000
00000000
03100000
00000000
00001000
00010000
00001000
00010000
,
00000010
00000000
00000000
00000010
00000000
00001000
00000000
00000000
00001010
00000000
00000000
00000100
,
00000002
00000100
00000000
00000013
00000000
00000100
00002000
00000100
00000000
00003010
00000000
00000010
,
00010000
00000000
00000000
00001000
00000000
00010000
00000000
00000000
00011000
00000000
00000000
00001000
,
00000000
00000000
02000000
00100000
00000000
00000000
00001000
00000000
00010000
00000000
00000000
03001000
,
00010000
00000000
00000000
00010000
00000100
00010000
00002000
00000000
00000000
01003000
00010000
01000000
,
00200000
00000000
10000000
00000000
10300000
00000000
20010000
00000000
00010000
00000000
30010000
00000000
,
10010000
11000000
00110000
01001000
,
00011000
00000000
00000000
00010100
00000000
00000000
00001010
00000000
00000010
00000100
00000000
00000010
,
00001000
00001010
00000101
00000110
,
00001000
00000001
00000200
00000000
00000320
00000000
00001030
00000001
00001000
00000001
00001000
00000001
,
00000100
00000110
00000101
00000110
,
00001100
00000110
00000101
00000011
,
00000120
00001000
00000100
00000001
,
00000130
00000010
00000100
00000010
00000100
00000010
00000001
00001000
00000001
00001000
00000001
00001000
,
00000010
00000000
00000000
00000000
;

//---------------dance-double - D. D'Amato----------------
#NOTES:
     dance-double:
     D. D'Amato:
     Medium:
     7:
     0.533,0.520,0.334,0.390,0.302,324.000,36.000,42.000,0.000,0.000,0.000,0.533,0.520,0.334,0.390,0.302,324.000,36.000,42.000,0.000,0.000,0.000:
00000000
00000000
00000000
00000000
,
00000000
00000000
00000000
00000000
,
00000000
00000000
00000000
00000000
,
00001000
01000000
00100000
00010000
,
00010000
00000100
00000010
00001000
,
00001000
00000000
00000000
01000000
00000000
00000000
00100000
00000000
00000000
10000000
00000000
00010000
,
10000000
01000000
00100000
00001000
,
00010000
00000000
00000000
00000010
00000000
00000000
00000100
00000000
00000000
00000001
00000000
00001000
,
00000001
00000010
00000100
00000100
,
00001001
00000000
00000000
00000010
00000000
00000000
00001010
00000000
00000000
00001000
00000000
00000100
,
00010000
00001000
01000000
01000000
,
10010000
00000000
00000000
00100000
00000000
00000000
00210000
00000000
00000000
00310000
00000000
01000000
,
00001000
00010000
00000100
00001000
,
00000002
00000000
00000000
00000103
00000000
00000000
00001000
00000000
00000000
00000100
00000000
00010000
,
00001000
01000000
00010000
10000000
,
01000000
00000000
00100000
00000000
00001000
00000000
00020000
00000000
00000000
00000010
00000000
00000000
,
00030100
00001000
00000001
00000100
,
00000010
00000000
00000100
00000010
00000000
00000100
00000020
00000000
00000000
00002030
00000000
00000000
,
00003100
00010000
00001000
00100000
,
01000000
00000000
10000000
00000000
00010000
00000000
01000000
00000000
00000000
00002000
00000000
00000000
,
00013000
00010000
00000100
00000100
,
00010000
00001000
01000000
00001000
,
00100000
00000000
00000000
00010000
00000000
10000000
00000000
00000000
00010000
00000000
00000000
01000000
,
00000000
00000000
00001000
00010000
00000000
00000000
00002000
00000000
00000000
00023000
00000000
00000000
,
00030100
00000010
00001100
00000001
,
00000100
00000000
00000010
00001000
00000000
00000000
00000100
00000000
00002002
00000000
00000000
00003003
,
00000010
00000100
00001010
00010000
,
00001000
00000000
01000000
00100000
00000000
00000000
10000000
00000000
02200000
00000000
00000000
03300000
,
10010000
01000000
00110000
10000000
,
00100000
00000000
01000000
00100000
00000000
00000000
10000000
00000000
02200000
00000000
00000000
03300000
,
00010000
10000000
01010000
00100000
,
00001000
00000000
00010000
00000000
00000100
00000000
00010000
00000000
00001000
00000000
00100000
00000000
,
00101000
01000000
00110000
10000000
,
00100000
00000000
01000000
00010000
00000000
00000000
00100000
00000000
20020000
00000000
00000000
30030000
,
01000000
00100000
01010000
00001000
,
00010000
00000000
00000010
00000100
00000000
00000000
00000001
00000000
00000220
00000000
00000000
00000330
,
00001001
00000010
00001100
00000001
,
00000100
00000000
00000010
00000100
00000000
00000000
00000001
00000000
00000220
00000000
00000000
00000330
,
00001000
00000001
00001010
00000100
,
00010000
00000000
00000100
00000000
00010000
00000000
00001000
00000000
00100000
00000000
00001000
00000000
,
00020000
00000000
00000000
00000000
,
00030200
00000000
00000000
00000000
,
00002300
00000000
00000000
00000000
,
00003002
00000000
00000000
00000000
,
00000103
00000000
00000010
00000000
,
00010000
00000000
00001000
00001000
,
00010000
00010000
00001000
00100000
,
00020000
01000000
10030000
10010000
,
10000000
00000000
01000000
10000000
00000000
00000000
00010000
00000000
00000000
10000000
00000000
00000000
,
00200000
00000000
01300000
01010000
,
00001000
00000000
00010000
00000100
00000000
00000000
00001000
00000000
00000000
00000100
00000000
00000000
,
00000020
00000000
00000130
00001100
,
00010000
00010000
00010000
00002000
,
01000000
00203000
00010000
01000000
,
00310000
00110000
00101000
00011000
,
00022000
00000000
00000000
00033000
,
00001000
00000100
00000001
00000100
,
00001000
00010000
01000000
10000000
,
01000000
00010000
00001000
00010000
,
00001000
00000000
00010000
00000000
00000100
00000000
00020000
00000000
00000000
00000010
00000000
00000000
,
00031000
00001000
00100000
00100000
,
00001000
00010000
00000010
00010000
,
00000100
00000000
00000000
00001000
00000000
00000001
00000000
00000000
00001000
00000000
00000000
00000010
,
00000000
00000000
00010000
00001000
00000000
00000000
00020000
00000000
00000000
00032000
00000000
00000000
,
00103000
00000000
00000000
00010000
00000000
01000000
00000000
00000000
00001000
00000000
00000000
00010000
,
00000000
00000000
00000100
00002000
00000000
00000000
00003001
00000000
00000000
00000100
00000000
00000010
,
00001000
00000000
00000000
00000100
00000000
00010000
00000000
00000000
00000010
00000000
00000000
00001000
,
00000200
00000000
00000000
00000310
00000000
00000001
00000200
00000000
00000000
00000310
00000000
00001000
,
00000100
00000000
00000000
00010000
00000000
00001000
00000000
00000000
01000000
00000000
00000000
00100000
,
00000000
00000000
00000000
01100000
00000000
00000000
10010000
00000000
00100000
00000000
00000000
01000000
,
00010000
00000000
00000000
10000000
00100000
00000000
02000000
00000000
00000000
03010000
10000000
00000000
,
01000000
00000000
00100000
00000000
01000000
00000000
10000000
00000000
00010000
00000000
10000000
00000000
,
10010000
10000000
01000000
00100000
,
11000000
01000000
00100000
00002000
,
00023000
00030100
00001100
00000100
,
00000010
00000001
00000200
00000010
,
00000301
00001000
00000100
00010000
,
00001000
01000000
00100000
10000000
,
02000000
00010000
00100000
10000000
,
03100000
00000000
00000000
01100000
00000000
00000000
00101000
00000000
00000000
00011000
00000000
00010000
,
00000100
00000000
00000000
00000000
;

//---------------dance-double - D. D'Amato----------------
#NOTES:
     dance-double:
     D. D'Amato:
     Easy:
     4:
     0.435,0.520,0.288,0.436,0.000,250.000,31.000,47.000,0.000,0.000,0.000,0.435,0.520,0.288,0.436,0.000,250.000,31.000,47.000,0.000,0.000,0.000:
00000000
00000000
00000000
00000000
,
00000000
00000000
00000000
00000000
,
00000000
00000000
00000000
00000000
,
00100000
00100000
01000000
01000000
,
00001000
00001000
00010000
00010000
,
00000100
00000010
00000001
00001000
,
00001001
00000001
00001000
00000010
,
00000110
00000100
00000001
00001000
,
00002001
00000010
00000100
00003100
,
00000020
00001000
00010000
00010030
,
00011000
00001000
01001000
01000000
,
01010000
10100000
10010000
01010000
,
10010000
00100000
00100000
00100000
,
01000000
00002000
00023000
00030100
,
00001001
00000010
00000010
00000010
,
00000202
00000000
00000000
00000000
00000303
00000000
00002020
00000000
00000000
00000000
00000000
00003030
,
00000100
00010000
00001000
01000000
,
00100000
20000000
30020000
10000000
,
10030000
00100000
10000000
01000000
,
00010000
00011000
00002000
00000000
,
00103000
01000000
10000000
00100000
,
01000000
00001000
00010000
00010000
,
00000100
00000010
00000100
00000010
,
00001001
00000110
00001000
00000110
,
00001001
00000100
00000010
00010000
,
00001000
00001000
00020000
00000000
,
00030100
00001000
00000010
00010000
,
00001000
00001000
00200000
00010000
,
01300000
10000000
00010000
01000000
,
00100000
00100000
02000000
00000000
,
03010000
00100000
00001000
00010000
,
00012000
00000000
00103000
00100000
,
10010000
01000000
00100000
00001000
,
00010000
00010000
00002000
00000000
,
01003000
00010000
00100000
00001000
,
00010000
00010000
00000020
00001000
,
00000130
00000001
00001000
00000100
,
00000010
00000010
00000200
00000000
,
00001300
00000010
00010000
00001000
,
00021000
00000000
00030010
00000010
,
00002000
00000000
00000000
00000000
,
00003200
00000000
00000000
00000000
,
00020300
00000000
00000000
00000000
,
00032000
00000000
00000000
00000000
,
00103000
00000000
00000000
00000000
,
01000000
00000000
00100000
00000000
,
00001000
00000000
00010000
00001000
,
00020000
00000000
00001000
00030000
,
00011000
00000000
00010000
00000000
,
00000200
00000000
00010300
00001000
,
00100000
00000000
00010000
00000000
,
02000000
00000000
03001000
00010000
,
00000010
00000000
00001000
00000000
,
00000200
00000000
00010300
00001000
,
01000000
00000000
00010000
00000000
,
20000000
00000000
31000000
00010000
,
00012000
00000000
00023000
00000000
,
00032000
00000000
00023000
00000000
,
00031000
00000100
00000001
00000010
,
00000200
00000000
00000320
00000000
,
00000130
00000010
00000001
00000100
,
00000010
00010000
00001000
00001000
,
00100000
01000000
00100000
01000000
,
10010000
01100000
00010000
01100000
,
10010000
00010000
00100000
00100000
,
00010000
10000000
01000000
00100000
,
00100000
00001000
00001000
00010000
,
00020000
00031000
00002000
00013000
,
00000010
00001000
00001000
00000100
,
00000000
00000010
00000001
00000000
,
00001000
00000001
00000002
00001003
,
00002000
00000000
00003020
00000000
,
00010030
00001000
00100000
01000000
,
00100000
00001000
00010000
00002000
,
00023000
00030010
00000100
00000010
,
00001000
00000002
00000023
00000030
,
00001100
00000011
00001000
00000100
,
00010000
00001000
01000000
00100000
,
20020000
00000000
00000000
30030000
,
02200000
00000000
00000000
00000000
,
03300000
00000000
00000000
00000000
;

//---------------dance-double - M. Emirzian----------------
#NOTES:
     dance-double:
     M. Emirzian:
     Edit:
     11:
     0.000,0.000,0.000,0.000,0.000,0.000,0.000,0.000,0.000,0.000,0.000,0.000,0.000,0.000,0.000,0.000,0.000,0.000,0.000,0.000,0.000,0.000:
;

//---------------dance-single - J. Frederick----------------
#NOTES:
     dance-single:
     J. Frederick:
     Beginner:
     1:
     0.111,0.111,0.065,0.000,0.000,77.000,7.000,0.000,0.000,0.000,0.000,0.111,0.111,0.065,0.000,0.000,77.000,7.000,0.000,0.000,0.000,0.000:
0000
0000
0000
0000
,
0000
0000
0000
0000
,
0000
0000
0000
0000
,
0000
0000
0000
0000
,
1000
0000
0000
0000
,
0001
0000
0000
0000
,
0100
0000
0000
0000
,
0010
0000
0000
0000
,
1001
0000
0000
0000
,
0100
0000
0000
0000
,
0010
0000
0000
0000
,
1000
0000
0000
0000
,
0001
0000
0000
0000
,
0100
0000
0000
0000
,
0010
0000
0000
0000
,
1000
0000
0000
0000
,
0001
0000
0000
0000
,
0100
0000
0000
0000
,
0010
0000
0000
0000
,
1000
0000
0000
0000
,
0001
0000
0000
0000
,
0100
0000
0000
0000
,
0010
0000
0000
0000
,
1001
0000
0000
0000
,
0110
0000
0000
0000
,
1000
0000
0000
0000
,
0001
0000
0000
0000
,
0010
0000
0000
0000
,
0100
0000
0000
0000
,
1000
0000
0000
0000
,
0001
0000
0000
0000
,
0100
0000
0000
0000
,
0010
0000
0000
0000
,
1000
0000
0000
0000
,
0001
0000
0000
0000
,
0010
0000
0000
0000
,
0100
0000
0000
0000
,
1000
0000
0000
0000
,
0001
0000
0000
0000
,
0110
0000
0000
0000
,
1000
0000
0000
0000
,
0001
0000
0000
0000
,
0010
0000
0000
0000
,
0100
0000
0000
0000
,
1000
0000
0000
0000
,
0001
0000
0000
0000
,
0100
0000
0000
0000
,
0010
0000
0000
0000
,
1000
0000
0000
0000
,
0001
0000
0000
0000
,
0100
0000
0000
0000
,
0010
0000
0000
0000
,
1000
0000
0000
0000
,
0001
0000
0000
0000
,
0010
0000
0000
0000
,
0100
0000
0000
0000
,
1001
0000
0000
0000
,
1000
0000
0000
0000
,
0001
0000
0000
0000
,
0100
0000
0000
0000
,
0010
0000
0000
0000
,
0001
0000
0000
0000
,
1000
0000
0000
0000
,
0000
0000
0010
0000
,
0100
0000
0000
0000
,
1000
0000
0000
0000
,
0001
0000
0000
0000
,
0010
0000
0000
0000
,
0100
0000
0000
0000
,
1000
0000
0000
0000
,
0001
0000
0000
0000
,
0100
0000
0000
0000
,
0010
0000
0000
0000
,
1000
0000
0000
0000
,
0001
0000
0000
0000
,
0010
0000
0000
0000
,
0100
0000
0000
0000
,
0001
0000
0000
0000
,
1000
0000
0000
0000
,
0110
0000
0000
0000
,
1001
0000
0000
0000
;
