#TITLE:Get Up;
#SUBTITLE:;
#ARTIST:Marwin & D-fly feat. Bina;
#TITLETRANSLIT:;
#SUBTITLETRANSLIT:;
#ARTISTTRANSLIT:;
#GENRE:Electro;
#CREDIT:;
#BANNER:Get Up-bn.png;
#BACKGROUND:Get Up-bg.png;
#LYRICSPATH:;
#CDTITLE:;
#MUSIC:Get Up.ogg;
#OFFSET:-0.006;
#SAMPLESTART:15.720;
#SAMPLELENGTH:11.840;
#SELECTABLE:YES;
#BPMS:0.000=122.000;
#STOPS:;
#BGCHANGES:0.543=Get Up.mpg=1.000=1=0=0=StretchNoLoop==CrossFade==,
99999=-nosongbg-=1.000=0=0=0 // don't automatically add -songbackground-;
#KEYSOUNDS:;

//---------------dance-single - D. D'Amato----------------
#NOTES:
     dance-single:
     D. D'Amato:
     Challenge:
     10:
     0.613,0.674,0.027,0.064,0.526,463.000,3.000,7.000,15.000,0.000,0.000,0.613,0.674,0.027,0.064,0.526,463.000,3.000,7.000,15.000,0.000,0.000: // measure 1
0000
0000
0000
0000
,  // measure 2
0000
0000
0000
0000
,  // measure 3
0000
0000
0000
0000
,  // measure 4
0000
0000
0000
0000
,  // measure 5
0100
0000
0010
0000
1000
0000
0010
0100
0000
0000
0001
0000
1000
0000
0100
0000
,  // measure 6
0010
0000
0100
0000
1000
0000
0100
0010
0000
0000
0001
0000
0100
0000
0010
0000
,  // measure 7
1000
0000
0010
0000
0100
0000
0001
1000
0000
0000
0001
0000
1000
0000
0100
0000
,  // measure 8
0010
0001
0100
0010
0000
0100
0001
0010
,  // measure 9
0001
1000
0010
1000
0100
0000
1000
0010
,  // measure 10
0100
0001
0100
1000
0010
0001
1000
0000
,  // measure 11
2000
0000
3200
0000
0302
0000
0013
1000
,  // measure 12
0010
0000
0100
0000
0001
0000
0100
0010
0000
0000
0100
0000
0110
0000
0001
0000
,  // measure 13
0010
0001
0000
0001
0100
0001
0000
0010
,  // measure 14
0100
1000
0100
0001
0010
1000
0001
0000
,  // measure 15
0002
0000
0203
0000
2300
0000
3010
0001
,  // measure 16
0010
MM0M
0010
MM0M
0010
MM1M
MM1M
MM1M
,  // measure 17
0110
0000
1000
0000
0100
0000
1000
0000
0001
0100
0000
0000
0000
0100
0000
0001
,  // measure 18
1000
0000
0100
0000
0010
0100
1000
0000
0100
0000
0010
0000
0001
0010
0000
0001
,  // measure 19
1000
0000
0001
0000
0100
0000
0001
0000
1000
0100
0000
0000
0000
0100
0000
1000
,  // measure 20
0001
0000
0100
0000
0010
0100
0001
0000
0100
0000
0010
0000
1000
0010
0000
1000
,  // measure 21
0001
0000
1000
0000
0010
0000
1000
0000
0001
0010
0000
0000
0000
0010
0000
0001
,  // measure 22
1000
0000
0010
0000
0100
0010
1000
0000
0010
0000
0100
0000
0001
0100
0000
0001
,  // measure 23
1000
0000
0001
0000
0010
0000
0001
0000
1000
0010
0000
0000
0000
0010
0000
1000
,  // measure 24
0001
0000
0010
0000
0100
0010
0001
0000
0010
0000
0100
0000
1000
0100
0000
1000
,  // measure 25
0001
0000
1000
0000
0001
0100
0000
0100
0001
0000
1000
0000
0010
0000
0100
0000
,  // measure 26
0001
0000
1000
0000
0100
0000
1000
0000
0001
0000
0100
0000
0001
1000
0001
0000
,  // measure 27
0010
0000
0100
0000
1000
0000
0100
0010
0000
0000
0001
0000
1000
0000
0010
0000
,  // measure 28
0100
0000
0010
0000
1000
0000
0010
0100
0000
0000
0001
0000
0010
0000
0100
0000
,  // measure 29
1000
0000
0100
0000
0010
0000
0001
1000
0000
0000
0001
0000
1000
0000
0010
0000
,  // measure 30
0100
0001
0010
0100
0000
0010
0001
0100
,  // measure 31
0010
0000
0100
0000
0001
0000
0100
0010
0000
0000
1000
0000
0001
0000
0010
0000
,  // measure 32
0100
0000
0010
0000
0001
0000
0010
0100
0000
0000
1000
0000
0010
0000
0100
0000
,  // measure 33
0001
0000
0100
0000
0010
0000
1000
0001
0000
0000
1000
0000
0001
0000
0010
0000
,  // measure 34
0100
0000
1000
0000
0010
0100
0010
0100
0000
0010
0100
0010
1000
0000
0001
0000
,  // measure 35
1001
0100
0001
0100
0002
0100
1000
0100
,  // measure 36
1003
0000
0010
0100
0000
0001
0100
0000
0010
0000
1000
0100
0000
0010
0100
0000
,  // measure 37
1000
0000
0001
0100
0000
0010
0100
0000
0001
0000
0010
0100
0000
1000
0100
0000
,  // measure 38
0010
0000
0001
0010
0000
0100
1000
0000
0001
0000
0100
0010
0000
1000
0001
0000
,  // measure 39
0010
0000
0100
1000
0000
0001
0100
0000
0010
0000
1000
0001
0000
0010
0100
0000
,  // measure 40
1000
0000
0100
0010
0000
0001
0010
0000
0100
0000
1000
0010
0000
0100
0010
0000
,  // measure 41
1000
0000
0001
0010
0000
0100
0010
0000
0001
0000
0100
0010
0000
1000
0010
0000
,  // measure 42
0100
0000
0001
0100
0000
0010
1000
0000
0001
0000
0010
0100
0000
1000
0001
0000
,  // measure 43
0100
0001
0100
0001
0100
0001
0100
0000
0010
1000
0010
1000
0010
1000
0010
1000
,  // measure 44
0001
0000
0100
0010
1000
0001
0010
0000
0100
1000
0001
0010
0100
0000
0010
0000
,  // measure 45
0001
0100
0010
1000
0001
0010
0100
0000
0010
0000
0001
1000
0010
0100
0001
0000
,  // measure 46
1000
0000
0100
0010
0001
1000
0010
0000
0100
0001
1000
0010
0100
0000
0010
0000
,  // measure 47
1000
0100
0010
0001
1000
0010
0100
0000
0010
0000
1000
0001
0010
0100
1000
0000
,  // measure 48
0001
0000
0010
0100
1000
0001
0100
0000
0010
1000
0001
0100
0010
0000
0100
0000
,  // measure 49
0001
0010
0100
1000
0001
0100
0010
0000
0100
0000
0001
1000
0100
0010
0001
0000
,  // measure 50
1000
0000
0010
0100
0001
1000
0100
0000
0010
0001
1000
0100
0010
0000
0100
0000
,  // measure 51
1000
0010
0100
0001
1000
0100
0010
0000
0100
0000
1000
0001
0100
0010
1000
0000
,  // measure 52
0100
0000
0010
0000
0001
0100
0001
0000
0010
0000
0100
0000
1000
0000
0010
0000
,  // measure 53
0000
0000
0010
0000
0000
0000
0010
0000
1000
0100
0000
0100
1000
0000
0001
0000
,  // measure 54
0100
0000
0010
0000
1000
0100
1000
0000
0010
0000
0100
0000
0001
0000
0010
0000
,  // measure 55
0000
0010
0000
0010
0001
0100
0001
1000
,  // measure 56
0100
0000
0000
0000
;

//---------------dance-single - D. D'Amato----------------
#NOTES:
     dance-single:
     D. D'Amato:
     Hard:
     7:
     0.438,0.399,0.091,0.018,0.036,326.000,10.000,2.000,0.000,1.000,0.000,0.438,0.399,0.091,0.018,0.036,326.000,10.000,2.000,0.000,1.000,0.000:
0000
0000
0000
0000
,
0000
0000
0000
0000
,
0000
0000
0000
0000
,
0000
0000
0000
0000
,
0001
0000
1000
0010
1000
0000
0100
1000
,
0100
0000
1000
0001
1000
0000
0100
0010
,
0100
0000
1000
0100
1000
0001
0010
0000
,
0010
0001
0100
0010
0000
0000
1000
0001
,
1000
0100
0010
0001
0100
0000
1001
0000
,
1100
0000
0101
0000
0001
0010
1000
0100
,
0001
0000
0000
0010
1000
0000
0110
0000
,
0001
1000
0010
0100
0001
0000
0000
0100
,
0020
0000
1001
0130
,
0011
0000
1010
0000
1000
0010
0001
0100
,
1000
0000
0000
0010
0001
0000
0100
0010
,
1000
0000
1000
0000
1000
1000
1000
1000
,
0100
1000
0100
0010
0100
0000
0000
0010
,
0100
0000
1000
0000
1000
0100
0000
0000
0100
0000
0010
0000
0010
0001
0000
0000
,
0100
0001
0100
0010
0100
0000
0000
0010
,
0100
0000
0001
0000
0001
0100
0000
0000
0100
0000
0010
0000
0010
1000
0000
0000
,
0010
1000
0010
0100
0010
0000
0000
0100
,
0010
0000
1000
0000
1000
0010
0000
0000
0010
0000
0100
0000
0100
0001
0000
0000
,
0010
0001
0010
0100
0010
0000
0000
0100
,
0010
0000
0001
0000
0001
0010
0000
0000
0010
0000
0100
0000
0100
1000
0000
0000
,
0100
0000
0010
0000
0100
0000
0010
0001
,
0100
0100
0001
0001
1000
1000
0010
1000
,
0001
0000
1000
0100
1000
0000
0010
1000
,
0010
0000
1000
0001
1000
0000
0010
0100
,
0010
0000
1000
0010
1000
0001
0100
0000
,
0100
0001
0010
0100
0000
0000
0010
0100
,
1000
0000
0001
0100
0001
0000
0010
0001
,
0010
0000
0001
1000
0001
0000
0010
0100
,
0010
0000
0001
0010
0001
1000
0100
0000
,
0100
1000
0010
0100
0100
0010
0010
1000
,
0001
1000
0002
1000
,
0103
0010
1000
0000
0100
0000
0010
0100
,
1000
0001
0010
0000
0001
1000
0010
1000
,
0100
0010
0001
0000
0100
0000
0010
0100
,
0001
1000
0010
0000
1000
0001
0100
0001
,
0010
0100
1000
0000
0010
0000
0100
0010
,
1000
0001
0100
0000
0001
1000
0100
1000
,
0010
0100
0001
0000
0010
0000
0100
0010
,
0001
1000
0100
0000
1000
0001
0010
0001
,
0100
0010
0100
0010
1000
0100
0010
0001
,
1000
0100
1000
0100
0010
0001
0100
0010
,
1000
0001
1000
0001
0010
0100
1000
0010
,
0100
0001
0100
0001
1000
0100
0010
0001
,
1000
0010
1000
0010
0100
0001
1000
0100
,
0010
0001
0010
0001
1000
0010
0100
0001
,
0010
0100
0010
0100
1000
0001
0100
0010
,
1000
0100
1000
0000
0001
0010
0001
0100
,
0010
0000
0100
0000
1010
0000
0001
0100
,
0010
0000
1000
0000
0100
0000
0010
0001
,
1000
0010
0100
0000
0010
0000
0101
0000
,
1000
0010
0100
0001
0000
0010
0000
0100
,
1001
0000
0000
0000
;

//---------------dance-single - D. D'Amato----------------
#NOTES:
     dance-single:
     D. D'Amato:
     Medium:
     5:
     0.360,0.324,0.000,0.045,0.000,273.000,0.000,5.000,0.000,0.000,0.000,0.360,0.324,0.000,0.045,0.000,273.000,0.000,5.000,0.000,0.000,0.000:
0000
0000
0000
0000
,
0000
0000
0000
0000
,
0000
0000
0000
0000
,
0000
0000
0000
0000
,
1000
0000
0010
0000
0001
0100
0001
1000
,
0001
0000
0010
0000
1000
0100
1000
0001
,
1000
0000
0100
0000
0001
0010
0100
0000
,
0001
0100
0010
0100
0000
1000
0100
0010
,
0000
0001
0010
0000
0100
0000
1000
0000
,
0001
0000
0100
0000
1000
0010
0001
0000
,
0100
0000
0000
1000
0010
0000
0100
0000
,
0010
1000
0001
0000
0010
0000
0100
0000
,
0010
0001
0100
0010
,
1000
0000
0100
0000
0001
0010
1000
0000
,
0100
0000
0000
0001
0010
0000
0100
0001
,
0010
0000
0010
0000
0010
0100
0010
0100
,
0010
0010
0001
0100
0001
0000
2000
0000
,
0100
0000
0001
0000
3100
0010
0100
1000
,
0010
0010
1000
0100
1000
0000
0002
0000
,
0100
0000
1000
0000
0013
0100
0010
0001
,
0100
0100
0001
0010
0001
0000
2000
0000
,
0010
0000
0001
0000
3010
0100
0010
1000
,
0100
0100
1000
0010
1000
0000
0002
0000
,
0010
0000
1000
0000
0103
0010
0100
0001
,
1000
0000
0100
0000
1000
0000
0100
1000
,
0010
0000
0100
0001
0010
0000
0001
0000
,
0100
0000
0010
0000
0001
0100
0001
0000
,
0100
0000
0010
0000
1000
0100
1000
0000
,
0100
0000
0010
0000
1000
0010
0100
0000
,
0001
0100
0010
0100
0000
1000
0100
0010
,
0001
0000
0010
0000
1000
0100
1000
0001
,
1000
0000
0010
0000
0001
0100
0001
1000
,
0001
0000
0100
0000
1000
0010
0100
0000
,
1000
0100
0010
0100
0100
0010
0010
0001
,
0200
0000
0000
0000
,
0310
0000
1000
0000
0100
0010
0001
0000
,
0100
0000
0010
0000
1000
0001
0100
0000
,
0010
0000
1000
0000
0010
0100
0001
0000
,
0010
0000
0100
0000
0010
0001
0100
0010
,
1000
0000
0001
0000
0100
0010
1000
0000
,
0100
0000
0010
0000
0001
1000
0100
0000
,
0010
0000
0001
0000
0010
0100
1000
0000
,
0010
0000
0100
0000
0010
1000
0100
0010
,
0001
0000
1000
0000
0010
0100
0001
0000
,
0010
0000
0100
0000
1000
0001
0010
0000
,
0100
0000
1000
0000
0100
0010
0001
0000
,
0100
0000
0010
0000
0100
0001
0010
0100
,
1000
0000
0001
0000
0010
0100
1000
0000
,
0010
0000
0100
0000
0001
1000
0010
0000
,
0100
0000
0001
0000
0100
0010
1000
0000
,
0100
0000
0010
0000
0100
1000
0010
0100
,
0001
0000
1000
0000
0100
0001
0100
0000
,
0010
0000
0100
0000
0010
0000
0100
0001
,
1000
0000
0001
0000
0100
1000
0100
0000
,
0010
0000
0100
0010
0000
0001
0000
0100
,
0010
0000
0000
0000
;

//---------------dance-single - D. D'Amato----------------
#NOTES:
     dance-single:
     D. D'Amato:
     Easy:
     3:
     0.219,0.274,0.209,0.054,0.000,140.000,23.000,6.000,0.000,0.000,0.000,0.219,0.274,0.209,0.054,0.000,140.000,23.000,6.000,0.000,0.000,0.000:
0000
0000
0000
0000
,
0000
0000
0000
0000
,
0000
0000
0000
0000
,
0000
0000
0000
0000
,
0000
0100
0000
0100
,
0000
0001
0000
0001
,
0000
1000
0000
1000
,
0100
0010
0100
1000
,
0000
0010
0100
0000
,
0001
0010
1000
0100
,
0011
0000
1100
0000
,
0010
0001
0100
0001
,
0010
0000
0100
0000
,
1000
0010
0001
0100
,
1010
0000
0101
0000
,
0010
0101
0202
0303
,
0010
1000
0010
0000
,
0001
0000
0100
1000
,
0010
0001
0010
0000
,
1000
0000
0100
0001
,
0100
1000
0100
0000
,
0001
0000
0010
1000
,
0100
0001
0100
0000
,
1000
0000
0010
0001
,
0010
1000
0010
1000
,
0001
0100
0001
0100
,
0020
0000
0000
0000
,
0000
0000
0000
0000
,
0000
0000
0000
0000
,
0000
0000
0000
0030
,
0000
0100
0000
0100
,
0000
1000
0000
1000
,
0000
0001
0000
0001
,
0100
0010
0100
0001
,
0010
0010
0020
0000
,
0130
1000
0000
0001
,
0100
0010
0000
0001
,
0010
1000
0000
0001
,
0010
0100
0000
0001
,
0100
0001
0000
1000
,
0100
0010
0000
1000
,
0010
0001
0000
1000
,
0020
0000
0200
0030
,
0301
0101
0000
0101
,
0010
1010
0000
1010
,
0001
0011
0000
0011
,
0100
1100
0000
1100
,
0001
0101
0000
0101
,
0010
1010
0000
1010
,
0001
0011
0000
0011
,
0100
1100
0000
1100
,
0010
0001
0000
0001
,
0100
0100
0010
0000
,
0010
1000
0000
1000
,
0100
0100
0010
0100
,
1001
0000
0000
0000
;

//---------------dance-double - J.Casarino----------------
#NOTES:
     dance-double:
     J.Casarino:
     Hard:
     7:
     0.450,0.399,0.064,0.109,0.014,328.000,7.000,12.000,4.000,0.000,2.000,0.450,0.399,0.064,0.109,0.014,328.000,7.000,12.000,4.000,0.000,2.000:
00000000
00000000
00000000
00000000
,
00000000
00000000
00000000
00000000
,
00010000
00001000
00010000
00000100
00001000
00000100
00000010
00000001
,
00001000
00000010
00010000
00001000
00000000
00001000
01000000
00001000
,
00010000
00001000
00100000
00010000
01000000
00000000
11000000
00000000
,
10000000
00100000
01000000
00010000
01000000
00000000
00110000
00000000
,
00001000
00010000
00000100
00000000
00000100
00000010
00001000
00000000
,
00001000
00010000
00000010
00000100
00000001
00000000
00001010
00000000
,
00000000
00000010
00000010
00000100
00000100
00000000
00000000
00000010
,
00000001
00000100
00001000
00000010
00000001
00000000
00000000
00000100
,
00000020
00000M00
00000000
00000000
00000030
00000000
00000010
00000000
00000200
000000M0
00000000
00000000
00000300
00000000
00000100
00000000
,
00001000
00010000
00001000
00100000
00010000
00000000
00000000
00100000
,
00100000
00000000
00000000
01000000
01000000
00000000
00000000
00100000
,
10000000
01000000
00010000
00100000
10000000
00000000
00000000
01000000
,
00200000
0M000000
00000000
00000000
00300000
00000000
00100000
00000000
02M00000
00000000
00000000
00000000
03000000
00000000
10010000
00000000
,
01000000
00000000
01000000
00000000
01000000
01000000
01000000
01000000
,
00100000
01000000
00100000
01000000
00100000
00000000
00010000
00000000
,
10000000
01000000
00100000
00000000
10000000
01000000
00100000
00000000
,
00010000
01000000
00001000
00010000
01000000
00000000
00010000
00000000
,
00001000
00000100
00000010
00000000
00001000
00000100
00000010
00000000
,
00000100
00010000
00001000
00010000
00000100
00000000
00010000
00000000
,
00001000
00010000
01000000
00000000
00001000
00010000
01000000
00000000
,
00010000
00001000
00010000
00000010
00001000
00000000
00000001
00000000
,
00000010
00000001
00000100
00000000
00000010
00000001
00000100
00000000
,
00002000
00000100
00010000
00003100
,
00020000
01000000
00001000
01030000
,
00010000
00001000
00010000
00000000
00000010
00000000
00000010
00000000
,
00002000
00003002
00000023
00002030
,
00013000
00000000
00100000
01000000
00010000
00000000
10000000
00000000
,
00010000
00020000
01000000
02000000
00000000
00000000
03030000
00000000
,
10000000
01000000
10000000
00100000
01000000
00000000
00001000
00000000
,
00010000
00000100
00010000
00001000
00000010
00000000
00000100
00000000
,
00001000
00000100
00001000
00000010
00000100
00000000
00000001
00000000
,
00001000
00001000
00000010
00000010
00000000
00000000
00000000
00000000
,
00014000
00000000
00000000
00000000
,
01003000
00010000
01000000
00010000
00100000
01000000
00100000
01000000
,
10000000
00100000
10000000
00010000
00100000
00010000
01000000
00100000
,
00010000
00001000
00010000
00001000
00000100
00000010
00000100
00000010
,
00001000
00000001
00000010
00001000
00000010
00000001
00001000
00000010
,
00010000
00001000
00010000
00001000
00000100
00000001
00000100
00000001
,
00001000
00000100
00000010
00001000
00010000
00001000
01000000
00010000
,
00100000
00001000
00100000
00001000
00010000
00000010
00010000
00000010
,
00001000
00001000
00001000
00001000
00004000
00000000
00000000
00003000
,
00000010
00010000
00001000
00001000
01000000
00010000
10000000
10000000
,
00010000
00100000
00010000
01000000
00010000
00100000
00010000
01000000
,
00100000
00010000
00001000
00001000
00010000
00001000
00000100
00000100
,
00001000
00010000
00001000
00000010
00001000
00010000
00001000
00000100
,
00001000
00001000
00010000
00010000
00000010
00000010
00001000
00001000
,
00000001
00000010
00000001
00000100
00000001
00000010
00001000
00010000
,
00001000
00001000
01000000
01000000
00100000
00100000
00010000
00010000
,
00001000
00100000
00010000
00001000
00000100
00010000
00001000
00000100
,
00000010
00000000
00001001
00000000
00000010
00000001
00000100
00000000
,
00000010
00001000
00000100
00001000
00000010
00010000
00001000
00000000
,
00010000
00000000
01001000
00000000
00010000
10000000
01000000
00000000
,
10000000
00100000
01000000
10000000
01000000
00100000
10000000
01000000
,
00010000
00000000
00000000
00000000
;

//---------------dance-double - J.Casarino----------------
#NOTES:
     dance-double:
     J.Casarino:
     Challenge:
     9:
     0.633,0.624,0.299,0.245,0.449,428.000,33.000,27.000,6.000,4.000,24.000,0.633,0.624,0.299,0.245,0.449,428.000,33.000,27.000,6.000,4.000,24.000:
00000000
00000000
00000000
00000000
,
00000000
00000000
00000000
00000000
,
00000001
00000000
00000100
00000000
00000010
00001000
00000000
00001100
00000000
00000000
00010000
00000000
00000010
00000000
00100000
00000000
,
00001000
00010000
00000100
00010000
00000000
00001000
01000000
00010000
,
00101000
00000000
00010000
00000000
10000000
00100000
00000000
01000000
00000000
00000000
00010000
00000000
00100000
00000000
00001000
00000000
,
00011000
00010000
00000100
00001000
00000000
00001001
00000010
00001000
,
00001010
00000100
00010000
00001000
01000000
00100000
00010000
00100000
,
01000000
01000000
00000000
00000000
02000200
00000000
03011300
00000000
,
00000000
02000200
03011300
00000000
,
00010000
00000000
00002000
00000000
00020000
00003000
00200000
00030000
00020000
00300000
02000000
00030000
00020000
03000000
00031000
00000000
,
00200020
00000000
00300030
00010000
02000200
00000000
03000300
00000100
,
00010000
00000000
00001000
00000000
00100000
00000000
00000200
02000000
00000000
00000000
00000000
00000000
00011000
03000300
00000000
00000000
,
00000000
00000000
00000000
00000000
00000000
00000000
02000200
00000000
00100010
03000300
00000000
00000000
00000000
00000000
00000000
00000000
,
00000200
00000000
00020000
00000300
00000020
00030000
00000200
00000030
00020000
00000300
00000020
00030000
00000200
00000030
00001300
00000000
,
00100010
00000000
00000000
00010000
01000100
00000000
00000000
00011000
,
01000100
0M000M00
01000100
0M000M00
01000100
00001000
00010000
01000000
,
00010000
00000100
00010000
01000000
00010000
00000100
00010000
00010000
,
01000000
00000000
00010000
00000000
00001000
00000010
00000100
00000000
00001000
00000000
00000001
00000000
00000010
00001000
00000000
00010000
,
00001000
00100000
10000000
00100000
00001000
00100000
10000000
10000000
,
00100000
00000000
01000000
00000000
10000000
00010000
00100000
00000000
00001000
00000000
00010000
00000000
00100000
00010000
00000000
00001000
,
01000000
00000000
00000000
00000000
00010000
00000000
00000000
00000000
00100000
00000000
00000000
00000000
00001000
00000000
00000000
00000000
00100000
00000000
00010000
00000000
00000000
000M0000
00000000
00000000
00010000
00000000
00001000
00000000
00000000
00000000
00001000
00000000
,
01000000
00000000
10000000
00000000
01000000
00000000
00001000
00000000
01000000
00000000
10000000
00000000
01000000
00001000
00000000
00010000
,
00001000
00000000
00000000
00000000
00000010
00000000
00000000
00000000
00000001
00000000
00000000
00000000
00000100
00000000
00000000
00000000
00000001
00000000
00000010
00000000
00000000
000000M0
00000000
00000000
00000010
00000000
00001000
00000000
00000000
00000000
00001000
00000000
,
00000100
00000000
00010000
00000000
00001000
00100000
00010000
00000000
10000000
00000000
00100000
00000000
00010000
00001000
00000000
00100000
,
00010000
00001000
00000100
00100000
00010000
00001000
00000100
00100000
,
00010000
00001000
00000100
00100000
00010000
00001000
00001100
00000000
,
00010100
00000000
00000100
00001000
00000010
00000001
00000010
00000001
,
00001000
00001000
00000100
00001000
01000000
10000000
01000000
10000000
,
00010000
00010000
00100000
00010000
00001000
00001000
00010000
00000100
,
00000010
00000010
00000110
00001001
00000000
00000000
00000000
00000000
,
00000001
00000000
00000100
00000000
00000001
00000000
00000010
00001000
00000000
00000000
00000010
00000000
00000001
00000000
00000100
00000000
,
00000010
00000000
00010000
00000000
00000100
00000000
00010000
00001000
00000000
00000000
01000000
00000000
00100000
00000000
00010000
00000000
,
00100000
00000000
10000000
00000000
01000000
00000000
00100000
00001000
00000000
00000000
00010000
00000000
00000010
00000000
00010000
00000000
,
00100000
00100000
01100000
10010000
01000000
00000000
01010000
00000000
,
20020000
00000000
00000000
00000000
00000000
00000000
30030000
10010000
,
40000000
04000000
00000000
00000000
03000000
31000000
10000000
00000000
00040000
00400000
00000000
00000000
00300000
00130000
00010000
00000000
,
00400000
00004000
00000000
00000000
00003000
00301000
00100000
00000000
00004000
00040000
00000000
00000000
00030000
00013000
00001000
00000000
,
00040000
00000400
00000000
00000000
00000300
00030100
00010000
00000000
00000400
00004000
00000000
00000000
00003000
00001300
00000100
00000000
,
00000040
00000004
00000000
00000000
00000003
00000031
00000010
00000000
00000004
00000400
00000000
00000000
00000300
00000103
00000001
00000000
,
00004000
00000001
00000000
00000001
00003000
00000010
00001000
00000000
00000400
00010000
00000000
00010000
00000300
00001000
00000100
00000000
,
00040000
00001000
00000000
00001000
00030000
00001000
00010000
00000000
00004000
01000000
00000000
01000000
00003000
01000000
00001000
00000000
,
01000000
00010000
10000000
00000000
10000000
00010000
01000000
00000000
00010000
00100000
00001000
00000000
00010000
00100000
01000000
00000000
,
00100000
10000000
01000000
00100000
00001000
00000000
00011000
00000000
00010000
00000100
00000010
00000001
00000100
00000010
00001000
00000100
,
00010000
00000000
00001000
00010000
00000100
00000000
00001000
00000000
00000010
00000000
00001000
00000000
00000100
00010000
00001000
00000000
,
01000000
00010000
00100000
00000000
10000000
00000000
01000000
00000000
10000000
00000000
00100000
00000000
01000000
00010000
10000000
00000000
,
01000000
00100000
00010000
00000000
01000000
00000000
00010000
00100000
00001000
00010000
00001000
00000000
00100000
00000000
00001000
00000000
,
00010000
00000100
00000000
00001000
00000000
00000100
00010000
00000100
00001000
00000001
00000010
00000001
00001000
00000100
00000010
00000000
,
00000004
00000400
00000000
00000000
00000000
00000003
00000301
00000100
00000040
00004000
00000000
00000000
00000000
00000030
00003010
00001000
,
00000100
00010000
00000100
00000000
00001000
00000000
00001000
00000000
00000010
00000000
00000010
00000000
00010000
00001000
00010000
00000000
,
00001000
00010000
00000000
00010000
00000000
00001000
00100000
00001000
00010000
00000010
00010000
00000000
00001000
00000000
00001000
00000010
,
00010000
00001000
00010000
00000100
00010000
00001000
01000000
00010000
10000000
00100000
10000000
00010000
01000000
00001000
00010000
00001000
,
01001000
00000000
00010100
00000000
00000001
00000010
00001000
00000010
,
00000001
00001000
00000010
00000001
00000010
00001000
00000100
00010000
,
01000000
00010000
00001000
01000000
00010000
00001000
00010000
01000000
,
00100000
10000000
01000000
00100000
10000000
01000000
10000000
00100000
,
10100000
00000000
00000000
00000000
;

//---------------dance-double - J.Casarino----------------
#NOTES:
     dance-double:
     J.Casarino:
     Medium:
     5:
     0.386,0.399,0.218,0.272,0.000,244.000,24.000,30.000,0.000,0.000,2.000,0.386,0.399,0.218,0.272,0.000,244.000,24.000,30.000,0.000,0.000,2.000:
00000000
00000000
00000000
00000000
,
00000000
00000000
00000000
00000000
,
00000000
00000000
00000000
00000000
,
00000000
00000000
00000000
00000000
,
00100000
11000000
00100000
01010000
,
00100000
11000000
00100000
01010000
,
00100000
01001000
00100000
00011000
,
00100000
00001000
00010000
00001000
00000100
00000000
00000000
00000000
,
00000000
00000010
00000010
00000100
00000100
00000000
00000000
00000001
,
00000010
00000100
00001000
00000001
00000010
00000100
00000000
00000010
,
00000010
00000000
00000000
00000100
00000100
00000000
00000000
00010000
,
00001000
00010000
00001000
00000000
01000000
00000000
00000000
00100000
,
00100000
00000000
00000000
01000000
01000000
00000000
00000000
00100000
,
10000000
00010000
01000000
00100000
10000000
00000000
00000000
00100000
,
00100000
00000000
00000000
01000000
01000000
00000000
00000000
01000000
,
00100000
00000000
00100000
00000000
00100000
00100000
00100000
00100000
,
10000000
10000000
00010000
00000000
01000000
00000000
00001000
00000000
,
00001000
00010000
00001000
00000000
00010000
00001000
00010000
00000000
,
00000100
00010000
00001000
00000000
01000000
00000000
01000000
00000000
,
00010000
00100000
00001000
00000000
00001000
00100000
00001000
00000000
,
10000000
00010000
10000000
00000000
00010000
00000000
00010000
00000000
,
10000000
01000000
00010000
00000000
00010000
01000000
10000000
00000000
,
00010000
01000000
00001000
00000000
00010000
00000000
00010000
00000000
,
00000100
00001000
00000001
00000000
00000001
00001000
00000100
00000000
,
00000020
00000032
00000203
00002300
,
00023000
02030000
23000000
30200000
,
00320000
00000000
00100000
00001000
,
00030020
00000000
00010000
00001000
,
00000230
00000000
00001000
00000001
,
00000310
00000020
00010000
00020000
00000000
00000000
00030030
00000000
,
00001000
00010000
01000000
00000000
00100000
00000000
00010000
00000000
,
01000000
00100000
00010000
00000000
00001000
00000000
00010000
00000000
,
00001000
00000100
00000010
00000000
00001000
00000000
00000100
00000000
,
00010000
00010000
00001000
00001000
00000000
00000000
00000000
00000000
,
00044000
00000000
00033000
00000000
,
00020100
00031000
00102000
00013000
,
00000010
00001000
00000010
00000000
00000100
00000001
00000100
00000000
,
00001002
00000013
00002000
00003100
,
00000010
00000100
00001000
00000000
00000100
00010000
00001000
00000000
,
02001000
03010000
02100000
03010000
,
10000000
00100000
10000000
00000000
10000000
01000000
10000000
00000000
,
10020000
00130000
20010000
31000000
,
00100000
00001000
00100000
00001000
00200000
00000000
00300000
00000000
,
01002000
00013000
00020010
00031000
,
00100000
00010000
00100000
00000000
01000000
10000000
01000000
00000000
,
20010000
30100000
00020000
01030000
,
00100000
01000000
00010000
00000000
01000000
00001000
00010000
00000000
,
00010200
00001300
00000210
00001300
,
00000001
00000010
00000001
00000000
00000001
00000100
00000001
00000000
,
00002001
00003010
00001002
00000103
,
00000010
00010000
00000010
00010000
00001000
00010000
00001000
00010000
,
00000100
00010000
00001000
01000000
,
00100000
10000000
01000000
00000000
00010000
01000000
10000000
00000000
,
00100000
01000000
00001000
00010000
,
00000100
00001000
00000001
00000000
00001010
00000000
00001001
00000000
,
00000101
00000000
00000000
00000000
;

//---------------dance-double - J.Casarino----------------
#NOTES:
     dance-double:
     J.Casarino:
     Easy:
     3:
     0.226,0.225,0.181,0.127,0.000,140.000,20.000,14.000,0.000,0.000,0.000,0.226,0.225,0.181,0.127,0.000,140.000,20.000,14.000,0.000,0.000,0.000:
00000000
00000000
00000000
00000000
,
00000000
00000000
00000000
00000000
,
00000000
00000000
00000000
00000000
,
00000000
00000000
00000000
00000000
,
00000000
00011000
00000000
00100000
,
00000000
10010000
00000000
01000000
,
00000000
00011000
00000000
00000100
,
00001000
00000001
00000001
00000000
,
00000000
00000020
00000230
00000300
,
00000010
00000001
00000100
00001000
,
00000020
00000030
00000200
00000300
,
00001000
00010000
00001000
00000000
,
00100000
00000000
01000000
00000000
,
00100000
00010000
01000000
10000000
,
00200000
00300000
02000000
03000000
,
01000000
01000000
02000000
03000000
,
01000000
00000000
00001000
00000000
,
00001000
00100000
00010000
00100000
,
00001000
00000000
00001000
00000000
,
00010000
00000010
00001000
00000010
,
00010000
00000000
00010000
00000000
,
00001000
01000000
00010000
01000000
,
00001000
00000000
00001000
00000000
,
00010000
00000100
00001000
00000100
,
00010000
00002000
00000000
00203000
,
00000000
00320000
00000000
10030000
,
10010000
00000000
00000000
00000000
,
12000000
00000000
00000000
03000000
,
00020000
00000000
00000000
00000000
,
00031000
00000100
00000001
00000000
,
00001000
00000100
00000010
00000000
,
00000001
00000010
00000100
00000000
,
00010000
00000100
00001000
00000000
,
00000100
00000100
00000100
00000000
,
00022000
00000000
00033000
00000000
,
00010000
00011000
00000000
00000100
,
00000000
00001001
00000000
00000100
,
00000000
00011000
00000000
00000100
,
00000001
00001000
00000100
00010000
,
00001000
00011000
00000000
01000000
,
00000000
10010000
00000000
01000000
,
00000000
00011000
00000000
00001000
,
01000000
01000000
01000000
01000000
,
00010000
00011000
00000000
00000010
,
00000000
00001001
00000000
00000010
,
00000000
00011000
00000000
00000010
,
00000001
00001000
00000010
00010000
,
00001000
00011000
00000000
00100000
,
00000000
10010000
00000000
00100000
,
00000000
00011000
00000000
00001000
,
00100000
00100000
00100000
00100000
,
10010000
10000000
01000000
00010000
,
01000000
10000000
01000000
00010000
,
01000000
10000000
00100000
01000000
,
00001000
00010000
00000010
00001000
,
00001001
00000000
00000000
00000000
;

//---------------dance-single - J. Frederick----------------
#NOTES:
     dance-single:
     J. Frederick:
     Beginner:
     1:
     0.074,0.075,0.073,0.000,0.000,49.000,8.000,0.000,0.000,0.000,0.000,0.074,0.075,0.073,0.000,0.000,49.000,8.000,0.000,0.000,0.000,0.000:
0000
0000
0000
0000
,
0000
0000
0000
0000
,
0000
0000
0000
0000
,
0000
0000
0000
0000
,
0000
1000
0000
0000
,
0000
0001
0000
0000
,
0000
0010
0000
0000
,
0000
0000
0000
0000
,
1001
0000
0000
0000
,
0100
0000
0000
0000
,
0110
0000
0000
0000
,
0001
0000
0000
0000
,
1001
0000
0000
0000
,
0100
0000
0000
0000
,
0010
0000
0000
0000
,
1001
0000
0000
0000
,
0000
0100
0000
0000
,
0000
1000
0000
0000
,
0001
0000
0000
0000
,
1000
0000
0000
0000
,
0100
0000
0000
0000
,
0010
0000
0000
0000
,
1000
0000
0000
0000
,
0001
0000
0000
0000
,
0000
0100
0000
0000
,
0000
0010
0000
0000
,
0000
1000
0000
0000
,
0000
0001
0000
0000
,
0000
0010
0000
0000
,
0000
0000
0000
0000
,
0000
0100
0000
0000
,
0000
1000
0000
0000
,
0000
0001
0000
0000
,
0000
0000
0000
0000
,
0110
0000
0000
0000
,
1000
0000
0000
0000
,
0001
0000
0000
0000
,
0100
0000
0000
0000
,
0010
0000
0000
0000
,
1000
0000
0000
0000
,
0001
0000
0000
0000
,
0010
0000
0000
0000
,
0100
0000
0000
0000
,
1001
0000
0000
0000
,
0010
0000
0000
0000
,
0100
0000
0000
0000
,
1000
0000
0000
0000
,
0001
0000
0000
0000
,
0100
0000
0000
0000
,
0010
0000
0000
0000
,
1000
0000
0000
0000
,
1001
0000
0000
0000
,
0100
0000
0000
0000
,
0010
0000
0000
0000
,
0100
0000
0000
0000
,
1001
0000
0000
0000
;
