#TITLE:Frozen Fire;
#SUBTITLE:;
#ARTIST:Kbit;
#TITLETRANSLIT:;
#SUBTITLETRANSLIT:;
#ARTISTTRANSLIT:;
#GENRE:Techno;
#CREDIT:;
#BANNER:Frozen Fire-bn.png;
#BACKGROUND:Frozen Fire-bg.png;
#LYRICSPATH:;
#CDTITLE:;
#MUSIC:Frozen Fire.ogg;
#OFFSET:-0.003;
#SAMPLESTART:12.000;
#SAMPLELENGTH:11.840;
#SELECTABLE:YES;
#BPMS:0.000=160.000,127.500=150.000,128.000=130.000,128.500=98.000,129.000=88.000,129.250=65.000,129.500=53.704,131.000=62.520,147.000=31.210,148.000=160.000;
#STOPS:94.000=0.375;
#BGCHANGES:0.135=Frozen Fire.mpg=1.000=1=0=0=StretchNoLoop==CrossFade==,
99999=-nosongbg-=1.000=0=0=0 // don't automatically add -songbackground-;
#KEYSOUNDS:;

//---------------dance-single - K. Ward----------------
#NOTES:
     dance-single:
     K. Ward:
     Hard:
     9:
     0.573,0.577,0.205,0.065,0.493,402.000,22.000,7.000,18.000,0.000,0.000,0.573,0.577,0.205,0.065,0.493,402.000,22.000,7.000,18.000,0.000,0.000:
0000
0000
0000
0000
,
0000
0000
0000
0000
,
0000
0000
0000
0000
,
0000
0000
0000
0000
,
0001
1000
0100
0001
0100
0000
1100
0000
,
0100
0010
0001
0010
0100
0000
0011
0000
,
0100
0010
0001
0010
0100
0000
1001
0000
,
0010
0001
1000
0000
0100
0100
0100
0000
,
0001
1000
0000
0001
1000
0000
0001
1000
0000
0001
1000
0000
0100
0000
0000
0000
,
0010
0100
0000
0010
0100
0000
0010
0100
0000
0010
0100
0000
1000
0000
0000
0000
,
0001
0100
0000
0010
0100
0000
0001
0100
0000
1000
0100
0000
0010
0000
0100
0000
,
0000
0000
0000
0000
0001
0001
0001
0000
,
1000
0100
0000
1000
0100
0000
1000
0100
0000
1000
0100
0000
0010
0000
0000
0000
,
0100
0010
0000
0100
0010
0000
0100
0010
0000
0100
0010
0000
0001
0000
0000
0000
,
0100
0010
0000
1000
0010
0000
0100
0010
0000
0001
0010
0000
0100
0000
0002
0000
,
0000
0000
0003
0000
1000
1000
1000
0000
,
0000
0000
0100
0010
0000
0000
0100
0000
0010
0000
0001
0010
0000
0000
0001
0000
,
0100
0000
0010
0100
0000
0000
0001
0000
1000
0001
1000
0000
0001
0000
0000
0000
,
0000
0000
1000
0100
0000
0000
0100
0010
0000
0000
0010
0001
0010
0000
0100
0000
,
1000
0100
0010
0100
,
0001
1000
0001
1000
0000
0000
0010
0000
0000
0100
0010
0000
0100
0000
0001
0000
,
0010
0000
0000
0010
0100
0000
1000
0000
0000
0000
0100
0000
0010
0000
0001
0000
,
0010
0000
0000
0010
0100
0000
0010
0000
0001
0000
0100
0000
1000
0000
0100
0000
,
0001
0000
0000
0010
0000
0000
2002
0000
0000
3003
0000
M00M
0100
0000
0001
0010
,
0000
0000
0100
0000
0010
0000
0001
1000
0000
0000
0100
0000
0010
0000
0001
0010
,
0000
0000
0001
0000
1000
0100
1000
0000
0100
0000
0000
0000
0010
0000
0001
0010
,
0000
0100
0010
0001
0100
1000
0100
0000
,
0010
0000
0000
0000
0100
0000
0000
0000
0011
0000
0000
0000
1000
0000
0100
1000
,
0000
0000
0100
0000
0010
0000
0001
0000
0010
0000
0010
0000
0100
0000
0000
0100
,
0010
0000
0001
0000
0000
0000
0001
0000
0100
0000
0010
0000
1000
0000
0000
1000
,
0100
0000
0010
0000
0001
0000
0000
0001
0010
0000
0100
0000
0010
0000
0000
0010
,
0001
0100
1000
0100
0010
0000
2002
0000
,
0000
0000
0000
0000
0000
0000
0000
0000
0000
3003
0000
0000
0010
0000
0100
0000
,
0011
0000
0000
0000
1000
0100
1000
0000
1010
0000
0000
0000
0100
0000
0010
0000
,
1001
0000
0000
0000
0010
0100
0001
0000
0011
0000
0000
0000
0010
0000
0100
0000
,
1001
0000
0000
0000
0010
0100
0010
0000
1100
0000
0000
0000
0100
0000
0010
0000
,
0101
0000
0000
0000
0010
0100
0001
0000
0010
0001
1000
0000
0200
0000
0000
0000
,
0310
0100
1000
0010
,
0100
0000
0000
0000
0001
0000
0000
0000
1000
0000
0000
0001
0000
0000
1000
0000
,
0100
0001
0100
1000
,
0100
0010
0100
1000
0100
0010
0100
0000
,
1000
0001
0000
1000
0001
0000
1000
0001
0000
1000
0001
0000
0100
0000
0000
0000
,
0010
0100
0000
0010
0100
0000
0010
0100
0000
0010
0100
0000
0001
0000
0000
0000
,
0010
0100
0000
0010
0001
0000
0010
0100
0000
0010
0001
0000
0010
0000
0100
0000
,
0000
0M00
0000
0000
0000
0000
0100
0000
0010
0000
0000
0000
1100
0000
0000
0000
,
0001
1000
0000
0001
1000
0000
0001
1000
0000
0001
0100
0000
0001
0000
0000
0000
,
0100
0010
0000
0001
0010
0000
0100
0010
0000
0001
0010
0000
0100
0000
0000
0000
,
0001
1000
0000
0100
0010
0000
0100
1000
0000
0100
0010
0000
0100
0000
1001
0000
,
0000
0000
0M00
00M0
000M
00M0
0M00
0000
,
1000
0100
0000
1000
0010
0000
0100
0010
0000
0010
0100
0000
0001
0000
0010
0000
,
0100
0010
0000
0001
0010
0000
0100
0010
0000
0010
0001
0000
0100
0000
0010
0000
,
1000
0010
0000
0100
0010
0000
0100
0001
0000
0001
0010
0000
0100
0000
0010
0000
,
0000
0000
M00M
0000
M00M
0000
0000
0000
0000
0000
0000
0000
0000
0000
0000
0000
0000
0000
0000
0000
0000
0000
0000
0000
0MM0
0000
0000
0000
0000
0000
0000
0000
0000
0000
0000
0000
0000
0000
0000
0000
M00M
0000
0000
0000
0000
0000
0000
0000
0MM0
0000
0000
0000
0000
0000
0000
0000
0000
0000
0000
0000
0000
0000
0000
0000
0000
0000
0000
0000
0000
0000
0000
0000
0000
0000
0000
0000
0000
0000
0000
0000
0000
0000
0000
0000
0000
0000
0000
0000
0000
0000
0000
0000
0000
0000
0000
0000
0100
0000
0000
0000
0000
0000
0000
0000
0000
0000
0000
0000
0000
0000
0000
0000
0000
0000
0000
0000
0000
0000
0000
0000
0100
0000
0000
0000
0000
0000
0000
0000
0000
0000
0000
0000
0000
0000
0000
0000
0000
0000
0000
0000
0000
0000
0000
0000
0100
0000
0000
0000
0000
0000
0000
0000
0000
0000
0000
0000
0000
0000
0000
0000
0000
0000
0000
0000
0000
0000
0000
0000
0000
0000
0000
0000
0000
0000
0000
0000
0000
0000
0000
0000
0000
0000
0000
0000
0000
0000
0000
0000
0000
0000
0000
0000
,
1000
0001
0000
0010
0100
0000
0010
0001
0000
0001
0010
0000
0100
0000
1000
0000
,
0010
0100
0000
0100
0010
0000
1000
0010
0000
0010
0100
0000
0001
0000
1000
0000
,
0100
0010
0000
0100
1000
0000
0100
0010
0000
0100
1000
0000
0100
0000
0000
0000
,
1001
0000
0000
0000
0100
0100
0100
0000
,
0010
0100
0011
0000
0010
0100
1100
0000
,
0100
0010
0101
0000
0010
0100
1010
0000
,
0010
0100
0011
0000
0010
0100
1001
0000
,
0100
0010
0001
0010
1000
0100
0001
0100
,
2000
0000
0000
0000
,
3000
0000
0000
0000
;

//---------------dance-single - K. Ward----------------
#NOTES:
     dance-single:
     K. Ward:
     Beginner:
     1:
     0.100,0.142,0.074,0.000,0.000,67.000,8.000,0.000,0.000,0.000,0.000,0.100,0.142,0.074,0.000,0.000,67.000,8.000,0.000,0.000,0.000,0.000:
0000
0000
0000
0000
,
0000
0000
0000
0000
,
0000
0000
0000
0000
,
0000
0000
0000
0000
,
1000
0000
0000
0000
,
0001
0000
0000
0000
,
0010
0000
0000
0000
,
1001
0000
0000
0000
,
1000
0000
0000
0000
,
0001
0000
0000
0000
,
0100
0000
0000
0000
,
0010
0000
0000
0000
,
1000
0000
0000
0000
,
0010
0000
0000
0000
,
0100
0000
0000
0000
,
1001
0000
0000
0000
,
1000
0000
0000
0000
,
1000
0000
0000
0000
,
0010
0000
0000
0000
,
0100
0000
0000
0000
,
0001
0000
0000
0000
,
0001
0000
0000
0000
,
1000
0000
0001
0000
,
1001
0000
0000
0100
,
0000
0000
0000
0010
,
0000
0000
0000
0010
,
0000
0000
0000
1000
,
0000
0001
0000
1000
,
0000
0000
0000
1000
,
0000
0000
0000
0010
,
0000
0010
0000
0010
,
0000
0000
0000
1001
,
0000
0000
0000
1000
,
0000
1000
0000
0001
,
0000
0001
0000
0100
,
0000
0100
0000
0010
,
0000
0100
0000
1001
,
1000
0000
0000
0000
,
0001
0000
0000
0000
,
0010
0000
0000
0000
,
0001
0000
0000
0000
,
0100
0000
0000
0000
,
0010
0000
0000
0000
,
1000
0000
0000
0000
,
0001
0000
0000
0000
,
1000
0000
0000
0000
,
0001
0000
0000
0000
,
0010
0000
0000
0000
,
1001
0000
0000
0000
,
0001
0000
0000
0000
,
1000
0000
0000
0000
,
0100
0000
0000
0000
,
1000
0000
0000
0000
,
0010
0000
0000
0000
,
0100
0000
0000
0000
,
0001
0000
0000
0000
,
1001
0000
0000
0000
,
0100
0000
0000
0000
,
0010
0000
0000
0000
,
1000
0000
0000
0000
,
0001
0000
1000
0000
,
1001
0000
0000
0000
;

//---------------dance-single - K. Ward----------------
#NOTES:
     dance-single:
     K. Ward:
     Easy:
     3:
     0.237,0.284,0.121,0.009,0.000,164.000,13.000,1.000,0.000,0.000,0.000,0.237,0.284,0.121,0.009,0.000,164.000,13.000,1.000,0.000,0.000,0.000:
0000
0000
0000
0000
,
0000
0000
0000
0000
,
0000
0000
0000
0000
,
0000
0000
0000
0000
,
0001
0001
0001
0000
,
1000
1000
1000
0000
,
0100
0100
0100
0000
,
1001
0000
0000
0000
,
1000
0010
0100
0010
,
0001
0010
0100
0001
,
1000
0000
1000
0000
0001
0000
0001
1000
,
0000
0000
0100
0100
,
0010
0100
0010
0100
,
0010
0001
0100
0010
,
0100
0000
0100
0000
0010
0000
0010
1000
,
0000
0000
0000
0000
,
0001
0000
0001
0000
,
1000
0000
1000
0000
,
0010
0100
0010
0010
,
0010
0000
0000
0000
,
0100
0000
0010
0000
,
0100
0100
0010
0000
,
1000
1000
0100
0010
,
1001
0000
0000
1000
,
0100
0010
0100
1000
,
1000
0001
0001
0100
,
0010
0100
0100
1001
,
0000
0110
0000
0001
,
0001
0010
1000
1000
,
0010
0001
0010
0101
,
0000
1100
0000
0110
,
1001
0110
0000
1001
,
0000
0000
0000
1000
,
0000
0001
0000
1000
,
0000
0010
0000
1000
,
0000
0001
0000
1000
,
0000
0100
0010
1001
,
0000
0000
0000
0000
,
0000
0000
0000
0000
,
0100
0100
0100
0000
,
0020
0000
0030
0000
,
0001
0001
0001
0000
,
1000
1000
1000
0000
,
0100
0100
0100
0000
,
0010
0000
0000
0000
,
0001
0001
0001
0000
,
1000
1000
1000
0000
,
0010
0001
0010
0100
,
1001
0000
0000
0000
,
0100
0010
0100
0010
,
1000
0010
1000
0010
,
0001
0000
0010
0000
0100
0000
0100
0010
,
0000
0000
0000
0000
0010
0100
0001
0000
,
1000
0100
0010
0100
,
1000
0001
0100
0100
,
0010
0000
0100
0000
1000
0000
0100
0010
,
0000
0000
0000
0000
0001
1000
0001
0000
,
1000
0000
1000
0000
,
0001
0000
0001
0000
,
0100
0010
0100
0100
,
0100
0000
0010
0100
,
1001
0000
0000
0000
;

//---------------dance-single - K. Ward----------------
#NOTES:
     dance-single:
     K. Ward:
     Medium:
     6:
     0.372,0.369,0.326,0.065,0.000,238.000,35.000,7.000,2.000,0.000,0.000,0.372,0.369,0.326,0.065,0.000,238.000,35.000,7.000,2.000,0.000,0.000:
0000
0000
0000
0000
,
0000
0000
0000
0000
,
0000
0000
0000
0000
,
0000
0000
0000
0000
,
1000
1001
0001
1001
,
1000
1001
0001
1001
,
0100
0010
1000
0000
0010
0100
0001
0000
,
0010
0100
1001
0000
,
1000
0100
1000
0100
1000
0000
1000
0000
,
0001
0010
0001
0010
0001
0000
0001
0000
,
1000
0100
0010
0000
0001
0100
0010
0000
,
1001
0000
0110
0000
,
0001
0010
0001
0010
0001
0000
0001
0000
,
1000
0100
1000
0100
1000
0000
1000
0000
,
0001
0010
0100
0000
1000
0100
0010
0000
,
1001
0000
0000
0000
,
0100
0000
0000
1001
0000
0000
0000
0000
,
0010
0000
0000
1001
0000
0000
0000
0000
,
0100
0000
0000
1001
0000
0000
0000
0000
,
0010
0000
0100
0000
0010
0010
0010
0000
,
1000
0000
0000
0110
0000
0000
0000
0000
,
0001
0000
0000
0110
0000
0000
0000
0000
,
1000
0000
0000
0110
0000
0000
0000
0000
,
0001
1000
1001
0001
,
0100
0010
0000
0000
1000
0000
0100
0000
,
0100
0010
0000
0000
0001
0000
1000
0000
,
0001
0010
0000
0000
0100
0000
0010
0000
,
1001
0000
0011
0000
,
1000
0100
0000
0100
1000
0000
0000
0000
,
0010
0100
0000
0100
0010
0000
0000
0000
,
1010
0000
0011
0000
,
1001
0000
0100
0010
0100
0000
2002
0000
,
0000
0000
3003
1000
,
1100
0000
0001
0010
0011
0000
0100
0000
,
0110
0000
1000
0100
0010
0100
1000
0000
,
1001
0000
0010
0100
0001
0000
1000
0000
,
0001
0000
0010
0100
0010
0100
2002
0000
,
3003
0000
0000
0000
0100
0100
0100
0000
,
0000
0000
0000
0000
0010
0010
0010
0000
,
0000
0000
0000
0000
1000
1000
1000
0000
,
0000
0001
0010
0000
,
1000
0100
1000
0100
1000
0000
1000
0000
,
0001
0010
0001
0010
0001
0000
0001
0000
,
1000
0100
1000
0100
1000
0000
0100
0000
,
1001
0000
0110
0000
,
0001
1000
0001
1000
0001
0000
0100
0000
,
0010
0100
0010
0100
0010
0000
0100
0000
,
0001
1000
0001
0000
1000
0100
0010
0000
,
1001
0000
0000
0000
,
0001
0010
0100
0000
1000
0010
0100
0000
,
0001
0010
0100
0000
1000
0100
0010
0000
,
0001
1000
0010
0000
0100
0010
1000
0000
,
0100
0000
0011
0000
,
1000
0001
0010
0000
0100
0010
0001
0000
,
0100
0010
1000
0000
0001
1000
0100
0000
,
0010
0100
1000
0000
0010
0100
0001
0000
,
0020
0000
M13M
0000
,
1000
0001
1000
0000
0200
0000
0300
0000
,
0010
0100
1000
0000
0020
0000
0030
0000
,
0100
0001
0010
0000
0001
1000
0100
0000
,
1001
0110
1100
0011
,
1001
0000
0000
0000
;

//---------------dance-single - C. Foy----------------
#NOTES:
     dance-single:
     C. Foy:
     Challenge:
     11:
     0.801,0.908,0.735,0.112,0.902,512.000,79.000,12.000,8.000,0.000,6.000,0.801,0.908,0.735,0.112,0.902,512.000,79.000,12.000,8.000,0.000,6.000: // measure 1
0000
0000
0000
0000
,  // measure 2
0000
0000
0000
0000
,  // measure 3
0000
0000
0000
0000
,  // measure 4
0000
0000
0000
0000
,  // measure 5
0020
0000
0001
0030
0000
0011
1100
0000
,  // measure 6
0020
0000
0001
0030
0000
1010
0101
0000
,  // measure 7
1000
0001
0100
0010
1000
0100
1000
0001
0010
0001
0100
0010
1000
0100
0010
0100
,  // measure 8
1000
0000
0010
0000
1000
0000
0100
0000
0010
0000
0100
0000
1000
0000
0100
0000
4000
0400
0000
0000
0000
0000
0000
0000
0000
0000
0000
0000
0000
0000
3300
0000
,  // measure 9
1000
0100
0000
0100
0001
0000
0001
0100
0000
0100
1000
0000
0110
0000
1010
0000
,  // measure 10
0010
1000
0000
1000
0010
0000
0010
0001
0000
0001
0010
0000
0110
0000
1010
0000
,  // measure 11
0010
0100
0000
0100
0010
0000
0001
0010
0000
0010
1000
0000
1010
0000
0101
0000
,  // measure 12
0000
0000
0000
0001
1000
0010
0101
1010
,  // measure 13
1000
0100
0000
0100
0001
0000
0001
0100
0000
0100
1000
0000
0101
0000
1010
0000
,  // measure 14
0010
0001
0000
0001
0010
0000
0010
1000
0000
1000
0100
0000
0010
0001
0100
0000
,  // measure 15
0100
0001
0000
0100
1000
0000
0010
0100
0000
0010
0001
0000
0110
0000
0010
1000
,  // measure 16
0200
0000
0000
0000
0300
0000
0010
0000
1000
0000
0010
0000
0100
1000
0010
0000
,  // measure 17
0202
0000
0000
0000
0000
0000
0303
0000
1100
0000
0000
0010
0001
0000
0000
0000
,  // measure 18
1000
0000
0001
0000
0000
0000
0000
0000
0000
1000
0100
0000
0100
0000
0000
0100
,  // measure 19
1000
0000
0001
0000
0000
0000
0001
0010
0000
0000
0010
0100
0000
0000
0100
0001
,  // measure 20
0000
0000
0100
0010
0000
0000
1000
0100
0000
0100
0000
0000
0010
0000
0000
0000
,  // measure 21
0010
0001
0100
0010
0000
0000
0000
0000
1000
0001
0000
0000
0100
0000
0000
0000
,  // measure 22
1000
0000
0100
0000
0001
0010
1000
0000
,  // measure 23
1000
0010
0000
0001
0000
0000
0000
0000
0100
0000
0000
0000
0001
0000
0000
0000
,  // measure 24
1100
0000
0000
0011
0000
0000
0220
0000
M00M
0330
0MM0
0000
0011
0000
0001
0100
,  // measure 25
0000
0000
1000
0000
0011
0000
0001
0100
0000
0000
1000
0000
0011
0000
0001
0100
,  // measure 26
0000
0000
1000
0000
0100
0001
0010
0000
0010
0001
0100
0000
1100
0000
1000
0100
,  // measure 27
0000
0000
0001
0000
1100
0000
1000
0100
0000
0000
0001
0000
1100
0000
1000
0100
,  // measure 28
0000
0000
0001
0000
0010
0001
0100
0010
1000
0100
1000
0010
0100
0000
0001
0100
,  // measure 29
0000
0000
1000
0000
0011
0000
0001
0100
0000
0000
1000
0000
0011
0000
0001
0100
,  // measure 30
0000
0000
1000
0000
0100
0001
0010
0000
0010
0001
0100
0000
M001
0100
0000
0100
,  // measure 31
1000
0000
0100
0000
001M
0001
0000
0001
0010
0000
0100
0000
10M0
0100
0000
0100
,  // measure 32
00M1
1000
2001
0100
0010
3001
2200
0000
,  // measure 33
0000
0000
0000
0000
0000
0000
0000
0000
0000
3300
0000
0000
1001
0000
0100
0100
,  // measure 34
0011
0000
0000
0000
0000
0000
0000
0000
0000
0000
0000
0000
0000
1000
0100
0010
0001
0000
0000
0000
0100
0000
0000
0000
0100
0000
0000
0000
0000
0000
0000
0000
1001
0000
0000
0000
0000
0000
0000
0000
0000
0000
0000
0000
0000
0001
0010
0100
1000
0000
0000
0000
0000
0000
0000
0000
0010
0000
0000
0000
0010
0000
0000
0000
,  // measure 35
1001
0000
0000
0000
0000
0000
0000
0000
0000
0000
0000
0000
0000
0010
0100
0001
1000
0000
0000
0000
0001
0000
0000
0000
0001
0000
0000
0000
0000
0000
0000
0000
0011
0000
0000
0000
0000
0000
0000
0000
0000
0000
0000
0000
0000
0100
0001
1000
0010
0000
0000
0000
0000
0000
0000
0000
0100
0000
0000
0000
0100
0000
0000
0000
,  // measure 36
0011
0000
0000
0000
0000
0000
0000
0000
0000
0000
0000
0000
0000
1000
0001
0100
0010
0000
0000
0000
1000
0000
0000
0000
1000
0000
0000
0000
0000
0000
0000
0000
0110
0000
0000
0000
0000
0000
0000
0000
0000
0000
0000
0000
0000
0001
0100
0010
1000
0000
0000
0000
0000
0000
0000
0000
0010
0000
0000
0000
0010
0000
0000
0000
,  // measure 37
0101
0000
0000
0000
0000
0000
0000
0000
0000
0000
0000
0000
0000
0010
1000
0001
1000
0000
0000
0000
0010
0000
0000
0000
0100
0000
0000
0000
0100
0000
0000
0000
1010
0000
0000
0000
0000
0000
0000
0000
0101
0000
0000
0000
0000
0000
0000
0000
1000
0100
0000
1000
0010
0000
1000
0001
0000
1000
0010
0000
1000
0100
0000
1000
,  // measure 38
0001
0000
0000
0000
0000
1100
0101
0000
,  // measure 39
0010
1000
0100
0000
0100
1000
0010
0000
0100
0001
0010
0000
0010
0001
0100
0000
,  // measure 40
1001
0000
0000
0000
0000
1100
0101
0000
,  // measure 41
0010
0000
1000
0000
0100
0000
0010
0000
0001
0000
0100
0000
0010
0000
1000
0000
0400
4000
0000
0000
0000
0000
0000
0000
0000
0000
0000
0000
3300
0000
0000
0000
,  // measure 42
1000
0100
0000
0100
0001
0000
0001
0100
0000
0100
1000
0000
0110
0000
0011
0000
,  // measure 43
0001
0010
0000
0010
1000
0000
0010
0001
0000
1000
0010
0000
0110
0000
1010
0000
,  // measure 44
1000
0010
0000
0010
0001
0000
0001
0010
0000
1000
0010
0000
1010
0000
0101
0000
,  // measure 45
0000
0000
0000
0001
1000
0010
0101
1010
,  // measure 46
1000
0100
0000
0100
0001
0000
0001
0100
0000
0100
1000
0000
0101
0000
1010
0000
,  // measure 47
0010
0001
0000
0001
0010
0000
0010
1000
0000
1000
0100
0000
0010
0001
0100
0000
,  // measure 48
0100
0001
0000
0100
1000
0000
1000
0100
0000
0010
0001
0000
0110
0000
0010
1000
,  // measure 49
0020
0000
0000
0000
0000
0000
0100
0000
0001
0000
0100
0000
1030
0010
0100
0000
,  // measure 50
1000
0100
0010
0001
0000
0000
1001
0000
0000
0000
0000
0000
0001
0010
0100
1000
0000
0000
1001
0000
0000
0000
0000
0000
,  // measure 51
1000
0010
0100
0001
0000
0000
0110
0000
0000
0000
0000
0000
1100
0000
0000
0101
0000
0000
1001
0000
0000
1000
0000
0000
,  // measure 52
0010
0100
0001
1000
0000
0000
1100
0000
0000
0000
0000
0000
0100
0010
0001
1000
0000
0000
1100
0000
0000
0000
0000
0000
,  // measure 53
0001
1000
0001
0100
0000
0000
0101
0000
0000
0000
0000
0000
0011
0000
0000
1010
0000
0000
1001
0000
0000
1000
0000
0000
,  // measure 54
0001
0010
0001
1000
0000
0000
0110
0000
0000
0000
0000
0000
1000
0010
1000
0001
0000
0000
0110
0000
0000
0000
0000
0000
,  // measure 55
0010
0100
0001
1000
0000
0000
0101
0000
0000
0000
0000
0000
0010
0100
0001
1000
0000
0000
1010
0000
0000
1000
0000
0000
,  // measure 56
0100
0010
0001
1000
0000
0000
0101
0000
0000
0000
0000
0000
0100
0010
1000
0001
0000
0000
1010
0000
0000
0000
0000
0000
,  // measure 57
0001
0010
0100
1000
0000
0000
0001
0100
0010
1000
0000
0000
0100
0010
1000
0001
0000
0000
0100
0010
0100
0010
0000
0000
,  // measure 58
1001
0000
0000
0000
0010
0000
0000
0100
0010
0000
0001
0000
0010
0000
0100
0000
,  // measure 59
1010
0000
0101
0000
2000
0100
0001
3100
,  // measure 60
1001
0000
0000
0000
1001
0000
0000
1000
0100
0000
0001
0000
0100
0000
0000
1000
,  // measure 61
0001
0000
0010
0000
0001
0000
0100
0000
0010
0000
1000
0000
0100
0000
1000
0000
0400
4000
0000
0000
0000
0000
0000
0000
0000
0000
0000
0000
0000
0000
0000
3300
,  // measure 62
0001
0000
0000
0000
;

//---------------dance-double - M. Emirzian----------------
#NOTES:
     dance-double:
     M. Emirzian:
     Hard:
     9:
     0.687,0.794,0.335,0.056,0.553,475.000,36.000,6.000,20.000,0.000,0.000,0.687,0.794,0.335,0.056,0.553,475.000,36.000,6.000,20.000,0.000,0.000:
00000000
00000000
00000000
00000000
,
00000000
00000000
00000000
00000000
,
10000000
00000000
01000000
00000000
00010000
00000000
01000000
00100000
00000000
00000000
10000000
00000000
01000000
00000000
00000000
00000000
,
00100000
00000000
00010000
00000000
01000000
00000000
00001000
00010000
00000000
00000000
00001000
00000000
00000010
00000000
00000000
00000000
,
00000100
00000000
00010000
00000000
00000100
00000000
00001000
00000001
00000000
00000000
00000100
00000000
00001000
00000000
00000000
00000000
,
00000100
00000000
00000001
00000000
00000010
00000000
00000100
00001000
00000000
00000000
00000001
00000000
00000010
00000000
00000000
00000000
,
00000100
00001000
00000001
00000100
00000010
00010000
00001000
01000000
,
00100000
00010000
00100000
10000000
01000000
00010000
01000000
00100000
,
00010000
01000000
00000000
01000000
00100000
00000000
10000000
01000000
00000000
00100000
00010000
00000000
00000000
00000000
00000000
00000000
,
10000000
00100000
00000000
00100000
01000000
00000000
00010000
01000000
00000000
00001000
00010000
00000000
00000100
00000000
00010000
00000000
,
00010000
00001000
00000000
00001000
00000100
00000000
00000001
00001000
00000000
00000100
00000010
00000000
00000100
00000000
00001000
00000000
,
00000000
00000110
00000000
00000001
00000100
00000010
00001000
00000010
,
00010000
00001000
00000000
00001000
00010000
00000000
00000100
00010000
00000000
00001000
01000000
00000000
00000000
00000000
00000000
00000000
,
00010000
10000000
00000000
10000000
01000000
00000000
00100000
01000000
00000000
10000000
00010000
00000000
01000000
00000000
00001000
00000000
,
00001000
00010000
00000000
00010000
00000100
00000000
00000010
00000100
00000000
00001000
00000001
00000000
00000100
00000000
00000010
00000000
,
00001001
00000000
00000000
00000000
00000000
00000000
00000010
00000000
00001000
00000000
00000100
00000000
00000010
00000001
00000010
00000000
,
00000100
00000000
00000000
00000000
00001000
00000000
00000010
00000000
00000000
00000000
00010000
00001000
01000000
00000000
00001000
00000000
,
00000000
00000000
00010000
00001000
01000000
00000000
00001000
00000000
00000000
00000000
00010000
00001000
01000000
00000000
00001000
00000000
,
000MM000
00000000
00001000
00010000
00000100
00000000
00010000
00000000
00000000
00000000
00001000
00010000
00000100
00000000
00010000
00000000
,
00000000
00000000
00001000
00010000
00000100
00000000
00010000
00000000
00001000
00000000
00000010
00000000
00000001
00000000
00000000
00000000
,
00001000
00000010
00000000
00000010
00010000
00000000
00000000
00000000
00001000
00010000
00000000
00010000
00000100
00000000
00000000
00000000
,
00010000
00001000
00000000
00001000
01000000
00000000
00100000
00000000
00010000
00000000
00100000
00000000
10000000
00000000
00000000
00000000
,
11000000
00000000
00110000
00000000
01000000
01010000
01001000
00000000
,
00010000
00001000
00000000
00001000
00000100
00000000
00000001
00000000
00001000
00000000
0000MMMM
00000000
00001000
00000000
00000010
00000000
,
00000100
00000000
00000001
00001000
00000000
00001000
00000001
00000000
00000010
00000000
00001000
00000000
00000010
00000000
00000100
00000000
,
00010000
00000000
00001000
00010000
00000000
00010000
00001000
00000000
01000000
00000000
00100000
00000000
00010000
00000000
00100000
00000000
,
10000000
00000000
00010000
10000000
00000000
10000000
00010000
00000000
00100000
00000000
01000000
00000000
10000000
00000000
00000000
00000000
,
00010000
01000000
00000000
00000000
00000000
00000000
00010000
00001000
00000000
00000000
00000010
00000000
00000001
00000000
00000010
00000000
,
00001000
00000000
00000010
00000100
00000000
00000100
00000010
00000000
00000100
00000000
00010000
00000000
00001000
00000000
01000000
00000000
,
00010000
00000000
01000000
00100000
00000000
00100000
01000000
00000000
00001000
00000000
00000000
00000000
01002000
00000000
00000000
00000000
,
00003100
00020010
00130000
01001000
,
00011000
00000000
00010000
00001000
01000000
0MMMM000
00000220
00000000
,
00000000
00000000
00000000
00000000
00000000
00000000
00000000
00000000
00000000
00000000
00000000
00000330
00001001
00000000
00000010
00000100
,
00010010
00000000
00000100
00000000
00001000
00000100
01000100
00000000
00011000
00000000
000MM000
01000000
01001000
00000000
01000000
00100000
,
11000000
00000000
00100000
00000000
00010000
00100000
00101000
00000000
00011000
00000000
000MM000
00000010
00010010
00000000
00001000
00000100
,
00001001
00000000
00000100
00000000
00000010
00010000
00001010
00000000
00100010
00000000
00M000M0
01000000
01001000
00000000
10000000
00100000
,
10010000
00000000
00000000
00000000
00100000
00000000
00000000
00000000
00001000
00000000
01000000
00000000
01010000
00000000
00000000
00000000
00100000
00000000
00001000
00000000
00010000
00000000
00000100
00000000
00000220
00000000
00000000
00000000
00000000
00000000
00000000
00000330
,
00000100
00000001
00000010
00000100
00001000
00000100
00000010
00001000
,
00000010
00000001
00010000
00001000
00000100
00001000
00010000
00100000
,
01000000
10000000
01000000
00010000
00100000
01000000
10000000
01000000
,
00010000
00001000
00010000
00000010
00001000
00000010
00000001
00000010
,
00001000
00000010
00000000
00000010
00000100
00000000
00000001
00001000
00000000
00000100
00000010
00000000
00000000
00000000
00000000
00000000
,
00000100
00010000
00000000
00010000
00001000
00000000
00000100
00001000
00000000
00010000
00001000
00000000
01000000
00000000
00010000
00000000
,
00010000
00100000
00000000
00100000
01000000
00000000
10000000
00100000
00000000
10000000
00010000
00000000
01000000
00000000
00100000
00000000
,
00000000
01010000
00000000
00100000
01000000
10000000
01000000
00010000
,
01000000
00100000
00000000
00100000
00001000
00000000
00010000
00000100
00000000
00001000
00000001
00000000
00000000
00000000
00000000
00000000
,
00000010
00000100
00000000
00000100
00001000
00000000
00000001
00000100
00000000
00001000
00000100
00000000
00000010
00000000
00010000
00000000
,
00010000
00001000
00000000
00001000
01000000
00000000
00100000
00010000
00000000
00010000
00100000
00000000
10000000
00000000
01000000
00000000
,
10010000
00000000
00000000
01000000
00100000
00010000
00100000
01000000
,
10000000
00010000
00000000
00010000
01000000
00000000
01000000
00001000
00000000
00001000
00010000
00000000
00000100
00000000
00010000
00000000
,
00001000
00010000
00000000
00010000
00000010
00000000
00000010
00001000
00000000
00001000
00000100
00000000
00000010
00000000
00000001
00000000
,
00000010
00000100
00000000
00000100
00001000
00000000
00001000
00000001
00000000
00000001
00000100
00000000
00000010
00000000
00001000
00000000
,
00000100
00010000
00001000
01000000
00001000
00001000
00010000
00010000
,
00010000
00001000
00000000
00001000
01000000
00000000
01000000
00010000
00000000
00010000
10000000
00000000
01000000
00000000
00010000
00000000
,
00001000
01000000
00000000
01000000
00100000
00000000
00100000
00010000
00000000
00010000
00100000
00000000
01000000
00000000
00001000
00000000
,
00010000
00000010
00000000
00000010
00001000
00000000
00001000
00000100
00000000
00000100
00000010
00000000
00000001
00000000
00001000
00000000
,
00001010
00000000
00000000
00000001
00001000
00000010
00000001
00000010
,
00000100
00001000
00010000
00000010
00010000
00001000
01000000
00000000
,
00001000
00010000
00000000
00010000
00001000
00000000
01000000
00000000
00010000
00000000
10000000
00000000
01000000
00000000
00000000
00000000
,
00110000
00000000
01001000
00000000
00001000
00011000
00010100
00000000
,
00001010
00000000
00000000
00000000
0000MMMM
00000000
00000100
00000000
00000001
00000000
00001000
00000000
00000100
00001000
00000100
00000000
,
00010100
00000000
00000000
00000000
;

//---------------dance-double - M. Emirzian----------------
#NOTES:
     dance-double:
     M. Emirzian:
     Easy:
     2:
     0.129,0.199,0.140,0.019,0.000,80.000,15.000,2.000,0.000,0.000,0.000,0.129,0.199,0.140,0.019,0.000,80.000,15.000,2.000,0.000,0.000,0.000:
00000000
00000000
00000000
00000000
,
00000000
00000000
00000000
00000000
,
00000000
00000000
00000000
00000000
,
00000000
00000000
00000000
00000000
,
10000000
00000000
00000000
00000000
,
00010000
00000000
00000000
00000000
,
00100000
00000000
00000000
00000000
,
00001000
00000000
00000000
00010000
,
00001000
00000000
00000000
00000000
,
00010100
00000000
00000000
00000010
,
00001000
00000000
00000000
00000000
,
00000101
00000000
00000000
00010000
,
00001000
00000000
00000000
00000000
,
01001000
00000000
00000000
00010000
,
00100000
00000000
00000000
00000000
,
11000000
00000000
00000000
00000000
,
00010000
00000000
10000000
00000000
,
00100000
00000000
00000000
00000000
,
01000000
00000000
00010000
00000000
,
01000000
00000000
00000000
00000000
,
00001000
00000000
00010000
00000000
,
00001000
00000000
00000000
00000000
,
00010000
00000000
00000100
00000000
,
00001000
00000000
00000001
00000000
,
00000000
00000000
00000010
00000000
,
00000000
00000000
00000100
00000000
,
00000000
00000000
00010000
00000000
,
00000000
00000000
00001000
00000000
,
01000000
00000000
00010000
00000000
,
00000000
00000000
00000000
10000000
,
00000000
01000000
00000000
00010000
,
00000000
00001000
00000000
00002200
,
00000000
00000000
00000000
00000000
00000000
00000000
00000000
00003300
00000000
00000000
00000000
00000000
00000010
00000000
00000000
00000000
,
00000000
00001001
00000000
00010000
,
00000000
00011000
00000000
01000000
,
00000000
01100000
00000000
00001000
,
00000000
00011000
00000000
00000100
,
00000000
00000000
00000000
00000000
,
00000001
00000000
00000000
00000000
,
00001100
00000000
00000000
00000000
,
00010000
00000000
00000000
00000000
,
00001000
00000000
00010000
00000000
,
00001000
00000000
00000000
00000000
,
01000000
00000000
00010000
00000000
,
10000000
00000000
00000000
00000000
,
00100000
00000000
10000000
00000000
,
00010000
00000000
00000000
00000000
,
00100000
00000000
00001000
00000000
,
00010000
00000000
00000000
00000000
,
00000100
00000000
00000000
00000000
,
00001100
00000000
00000000
00000000
,
00000010
00000000
00000000
00000000
,
00000101
00000000
00000000
00000000
,
00010000
00000000
00000000
00000000
,
00011000
00000000
00000000
00000000
,
00100000
00000000
00000000
00000000
,
11000000
00000000
00000000
00000000
,
00010000
00000000
01000000
00000000
,
00010000
00000000
00000000
00000000
,
00100000
00000000
00001000
00000000
,
00010000
00000000
00000000
00000100
,
00001100
00000000
00000000
00000000
;

//---------------dance-double - M. Emirzian----------------
#NOTES:
     dance-double:
     M. Emirzian:
     Medium:
     5:
     0.300,0.340,0.037,0.028,0.000,219.000,4.000,3.000,0.000,0.000,0.000,0.300,0.340,0.037,0.028,0.000,219.000,4.000,3.000,0.000,0.000,0.000:
00000000
00000000
00000000
00000000
,
00000000
00000000
00000000
00000000
,
00000000
00000000
00000000
00000000
,
00000000
00000000
00000000
00000000
,
00010000
10000000
00100000
00000000
,
00100000
00000000
00100000
00000000
,
10000000
01000000
00100000
00000000
,
00100000
00000000
00100000
00010000
,
00100000
00000000
00000000
00000000
00001000
00010000
00001000
00000000
,
00010000
00000000
00000000
00000000
00000100
00001000
00000100
00000000
,
00010000
00000000
00000100
00000000
00001000
00000000
00000001
00001000
,
00000000
00000000
00000010
00000010
,
00000010
00000000
00000000
00000000
00000100
00000001
00000100
00000000
,
00001000
00000000
00000000
00000000
00000010
00001000
00000010
00000000
,
00010000
00000000
00001000
00000000
00010000
00000000
00000100
00010000
,
00000000
00000000
00001000
00010000
,
00001000
01000000
00010000
00000000
,
10000000
01000000
00100000
00000000
,
00100000
00001000
00010000
00000000
,
00001000
01000000
00001000
00000000
,
00010000
00000100
00001000
00000000
,
00000010
00001000
00000100
00000000
,
00000010
00000000
00000001
00000000
00001000
00000010
00000100
00000000
,
00000001
00001000
00000110
00000001
,
00001000
00000000
00000100
00001000
00000100
00000000
00000000
00000000
,
00010000
00001000
01000000
00010000
,
01000000
00000000
00001000
00010000
00001000
00000000
00000000
00000000
,
00010000
00001000
00100000
00010000
,
10000000
00000000
00100000
01000000
00010000
00000000
00000000
00000000
,
10000000
01000000
00100000
00110000
,
00000000
11000000
00000000
10000000
,
01000000
00000000
00100000
00010000
00100000
00020000
00200000
00000000
,
00000000
00000000
00330000
00100000
,
00010000
01000000
00010000
00000000
00100000
00001000
00010000
00000000
,
00001000
00000000
00010000
00000100
00001000
00000001
00000100
00000000
,
00000010
00001000
00000100
00000000
00000010
00000001
00000100
00000000
,
00000010
00001000
00000100
00010000
00001000
01000000
00010000
00000000
,
00100000
10000000
00010000
00000000
,
10000000
00000000
01000000
00100000
00010000
00000000
00000000
00000000
,
00100000
00001000
00010000
00000000
,
00000100
00000000
00001000
00000100
00001000
00000000
00000010
00000000
,
00000100
00000000
00000000
00000000
00000001
00001000
00000001
00000000
,
00000010
00000000
00000000
00000000
00000100
00001000
00000100
00000000
,
00001000
00000000
00010000
00000000
00000100
00000000
00010000
00001000
,
00000000
00000000
00010000
00001000
,
00010000
00000000
00000000
00000000
00001000
01000000
00001000
00000000
,
20010000
30000000
00000000
00000000
01000000
00010000
01000000
00000000
,
00100000
00000000
10000000
00000000
00100000
00000000
01000000
00010000
,
00000000
00000000
10000000
01000000
,
00010000
00000000
00000000
00000000
01000000
10000000
00010000
00000000
,
01000000
00000000
00000000
00000000
00100000
00001000
00010000
00000000
,
00001000
00000000
00000100
00000000
00001000
00000000
00010000
00000100
,
00000000
00000000
00001000
00001000
,
00001000
00000000
00000000
00000000
00000010
00000100
00000001
00000000
,
00001000
00000000
00000000
00000000
00000010
00010000
00001000
00000000
,
00000010
00000000
00001000
00000000
00010000
00000000
00001000
01000000
,
00000000
00000000
00010000
10000000
,
01000000
10000000
00010000
00000000
,
10000000
00100000
01000000
00001000
,
00010000
00001000
00000100
00000001
,
00001000
00000000
00000100
00000000
00000010
00000100
00000010
00000100
,
00000010
00000000
00000000
00000000
;

//---------------dance-double - M. Emirzian----------------
#NOTES:
     dance-double:
     M. Emirzian:
     Challenge:
     11:
     0.850,1.000,0.279,0.056,1.000,604.000,30.000,6.000,23.000,0.000,0.000,0.850,1.000,0.279,0.056,1.000,604.000,30.000,6.000,23.000,0.000,0.000:
00000000
00000000
00000000
00000000
,
00000000
00000000
00000000
00000000
,
00000010
00000000
00010000
00000000
00001000
00010000
00000100
00010000
00000000
00000000
00001000
00000000
01000000
00001000
00010000
00001000
,
01000000
00010000
00100000
00000000
00000000
00100000
00010000
00000000
01000000
00000000
00100000
00000000
01000000
10000000
01000000
00000000
,
00010000
00000000
10000000
00000000
00100000
01000000
00100000
00010000
00000000
00000000
00100000
00000000
01000000
00001000
00010000
00000100
,
00001000
00000100
00000010
00000000
00000000
00000010
00000001
00000000
00000100
00000000
00001000
00000000
00000100
00000010
00001000
00000000
,
00000001
00000000
00000010
00000000
00001000
00000010
00000100
00001000
00000000
00000000
00001000
00000000
00000001
00000100
00000010
00001000
,
00000100
00001000
00000100
00000010
00000001
00001000
00000001
00001000
00000010
00001000
00000010
00010000
00001000
01000000
00010000
01000000
,
00010000
10000000
00000000
10000000
00100000
00000000
01000000
00010000
00000000
00010000
00100000
00000000
01000000
00000000
01000000
00000000
,
10000000
00010000
00000000
00010000
01000000
00000000
01000000
00001000
00000000
00001000
00010000
00000000
00000100
00001000
00000010
00000000
,
00000100
00000001
00000000
00000001
00000010
00000000
00000010
00000100
00000000
00000100
00010000
00000000
00001000
00000000
00000010
00000000
,
00000001
00000100
00000010
00010000
00000100
00010000
00100000
10000000
,
00010000
00100000
00000000
01000000
10000000
00000000
00010000
01000000
00000000
00001000
00010000
00000000
01000000
00000000
00100000
00000000
,
00010000
10000000
00000000
10000000
01000000
00000000
01000000
00010000
00000000
00010000
00001000
00000000
00000100
00000010
00001000
00000000
,
00000001
00000010
00000000
00000100
00001000
00000000
00000010
00010000
00000000
00000100
00001000
00000000
00000001
00000000
00001100
00000000
,
00010100
00000000
00000000
00000000
000MMM00
00000000
00000010
00000000
00000100
00000000
00001000
00000000
00000010
00010000
00001000
00000000
,
00100000
00000000
00001000
00010000
00100000
00000000
00M10000
00000000
000M0000
00000000
00001000
00010000
00100000
00000000
00M10000
00000000
,
000M0000
00000000
00001000
00010000
00100000
00000000
00010000
00000000
00001000
01000000
00010000
00000000
00100000
01000000
10000000
01000000
,
00100000
00000000
00010000
01000000
10000000
00000000
01000000
00000000
00010000
00000000
10000000
01000000
00100000
01000000
00100000
00010000
,
01000000
00000000
00001000
00010000
00000100
00000000
00010100
00000000
00000000
00010010
00000000
00000000
00001000
00000100
00000000
00000000
,
00000100
00000010
00000001
00000010
00000100
00000000
00001000
00000000
00001001
00000000
00000000
00010001
00000000
00000000
00011000
00000000
,
00010000
00000100
00010000
00001000
01000000
00000000
00001000
00000000
00100000
00000000
00010000
00000000
01010000
00000000
00000000
00000000
,
01001000
00000000
10001000
00000000
00010000
00011000
00010100
00000000
,
00010000
00000010
00001000
00000010
00000100
00000000
00000001
00000000
00001001
00000000
0000MMMM
00000000
00000010
00000001
00000010
00000100
,
00001000
00000000
00000010
00001000
00000000
00010000
00001000
00000000
01000000
00000000
00010000
00000000
00100000
00010000
00100000
01000000
,
10000000
00000000
00100000
01000000
00000000
00010000
00001000
00000000
01000000
00000000
00010000
00000000
00100000
00001000
00010000
00001000
,
00010000
00000000
00000010
00001000
00000000
00010000
00001000
00000000
00000010
00000000
00000100
00001000
00000100
00000010
00000001
00000000
,
00001000
00000100
00000000
000MMM00
00000000
00000000
00001000
00010000
00000000
000MM000
00100000
01000000
10000000
00000000
00010000
00000000
,
01000000
00000000
00100000
01000000
00000000
00010000
00001000
00000000
00100000
00010000
00100000
01000000
10000000
00010000
01000000
00000000
,
00001000
00000000
00100000
00010000
00000000
00001000
00000010
00000000
00000100
00000000
00000001
00000000
00000110
00000000
00000000
00000000
,
00020010
00130000
01002000
00003100
,
00010100
00000000
00100010
00010000
00001000
00000010
00002002
00000000
,
00000000
00000000
00000000
00000000
00000000
00000000
00000000
00000000
00000000
00000000
00000000
00000000
00000000
00000000
00000000
00000000
00000000
00000000
00000000
00000000
00000000
00000000
00000000
00000000
00000000
00000000
00000000
00000000
00000000
00000000
00000000
00000000
00000000
00003003
00000000
00000000
00001010
00000000
00000000
00001000
00000000
00000000
00000010
00000000
00000000
00010000
00001000
00010000
,
00001000
00000000
00000000
00010000
00000000
00000000
00000100
00000000
00000000
01000000
00000000
00000000
00000000
00000000
00000000
00010000
00000000
00000000
00100000
00000000
00000000
01000000
00100000
01000000
00100000
00000000
00000000
00010000
00000000
00000000
01000000
00000000
00000000
00001000
00000000
00000000
01000100
00000000
00000000
00000000
00000000
00000000
00001000
00000000
00000000
00010000
00001000
00010000
,
00001000
00000000
00000000
00010000
00000000
00000000
00001000
00000000
00000000
01000000
00000000
00000000
00100000
00000000
00000000
10000000
00000000
00000000
01000000
00100000
01000000
00000000
00000000
00000000
00100000
00000000
00000000
00010000
01000000
00010000
00000000
00000000
00000000
00001000
00000100
00001000
00000000
00000000
00000000
00000010
00000000
00000000
00000100
00000000
00000000
00000001
00001000
00000001
,
00000010
00000000
00000000
00000000
00000000
00000000
00001001
00000000
00000000
00000000
00000000
00000000
00000001
00000000
00000000
00010000
00000000
00000000
00000000
00000000
00000000
00001000
00000000
00000000
01000010
00000000
00000000
00000000
00000000
00000000
00010000
00000000
00000000
00011000
00000000
00000000
00100010
00000000
00000000
00000000
00000000
00000000
00100000
00000000
00000000
00000100
00001000
00000100
,
00001000
00000000
00000000
00000000
00000000
00000000
00000000
00000000
00000000
00000000
00000000
00000000
00000000
00000000
00000000
00000000
00000000
00000000
00000000
00000000
00000000
00000000
00000000
00000000
00000110
00000000
00000000
00000000
00000000
00000000
00000000
00000000
00000000
00000000
00000000
00000000
00000000
00000000
00000000
00000000
00000000
00000000
00000000
00000000
00000000
00000000
00000000
00000000
00000001
00000000
00000000
00000000
00000000
00000000
00000000
00000000
00000000
00000000
00000000
00000000
00001001
00000000
00000000
00000000
00000000
00000000
00000000
00000000
00000000
00000000
00000000
00000000
00001000
00000000
00000000
00000000
00000010
00000000
00000000
00000000
00001000
00000000
00000000
00000000
00000000
00000000
00000000
00000000
00000000
00000000
00000000
00000000
00000000
00000000
00000000
00000000
00000000
00000000
00000000
00000000
00000000
00000000
00000000
00000000
00000000
00000000
00000000
00000000
00010000
00000000
00000000
00000000
00100000
00000000
00000000
00000000
00010000
00000000
00000000
00000000
00000000
00000000
00000000
00000000
00000000
00000000
00000000
00000000
00000000
00000000
00000000
00000000
00000010
00000000
00000000
00000000
00010000
00000000
00000000
00000000
00000020
00000000
00000000
00000000
00020000
00000000
00000000
00000000
00000000
00000000
00000000
00000000
00000000
00000000
00000000
00000000
00000000
00000000
00000000
00000000
00000000
00000000
00000000
00000000
00000000
00000000
00000000
00000000
00000000
00000000
00000000
00000000
00000000
00000000
00000000
00000000
00000000
00000000
00000000
00000000
00000000
00000000
00000000
00000000
00000000
00000000
00030030
00000000
00000000
00000000
00000000
00000000
,
00010000
00001000
01000000
10000000
01000000
00100000
10000000
00001000
,
00010000
00000100
00000001
00000100
00000010
00000001
00010000
00000100
,
00000010
00001000
00010000
00100000
01000000
10000000
01000000
00010000
,
00100000
01000000
00100000
01000000
10000000
00010000
01000000
00010000
01000000
00001000
00010000
00000100
00010000
00001000
00010000
00000010
,
00001000
00000001
00000000
00000001
00001000
00000000
00001000
00000100
00000000
00000100
00000010
00000000
00000001
00000000
00000100
00000000
,
00000001
00001000
00000000
00000010
00010000
00000000
00001000
01000000
00000000
00010000
10000000
00000000
01000000
00100000
00010000
00000000
,
10000000
00100000
00000000
00100000
00010000
00000000
00010000
00100000
00000000
00100000
10000000
00000000
01000000
00000000
00100000
00000000
,
01000000
00010000
00001000
00000100
00000010
00001000
00000100
00000010
,
00000010
00000001
00000000
00000001
00000100
00000000
00000100
00001000
00000000
00001000
00010000
00000000
00100000
00000000
01000000
00000000
,
10000000
01000000
00000000
01000000
00010000
00000000
00010000
00100000
00000000
00100000
00001000
00000000
00100000
00010000
10000000
00000000
,
00100000
01000000
00000000
01000000
00010000
00000000
00010000
10000000
00000000
10000000
01000000
00000000
00100000
00000000
00010000
00000000
,
00101000
00000000
00000000
00000000
00MMM000
00000000
00010000
00000000
00001000
00000000
00000010
00000000
00000001
00001000
00000010
00000000
,
00000100
00000001
00000000
00000010
00000100
00000000
00001000
00000001
00000000
00000100
00001000
00000000
00000100
00000010
00001000
00000000
,
00000100
00010000
00000000
00001000
00100000
00000000
00001000
00010000
00000000
00001000
01000000
00000000
00100000
10000000
01000000
00000000
,
00100000
01000000
00000000
00100000
00010000
00000000
01000000
00001000
00000000
00010000
00000010
00000000
00000100
00000000
00000001
00000000
,
00001000
00000100
00000010
00000001
00000100
00000000
00000010
00000000
00001000
00000100
00010000
00001000
00100000
00000000
00001000
00000000
,
01000000
00001000
00000000
00010000
00001000
00000000
00100000
00010000
00000000
10000000
00100000
00000000
01000000
00010000
10000000
00000000
,
00100000
01000000
00000000
00001000
00010000
00000000
00001000
00100000
00000000
00001000
00010000
00000000
00000010
00001000
00000100
00000000
,
00000010
00000100
00000000
00001000
00000001
00000000
00010000
00001000
00000000
00010000
00000100
00000000
00000010
00000000
00000100
00000000
,
00001001
00000000
00000000
00000000
0000MMMM
00000000
00001000
00000000
00000001
00000000
00000100
00000000
00000010
00001000
00000010
00000000
,
00000100
00000001
00000010
00000100
00000001
00000100
00010000
00000010
,
00000100
00001000
00100000
10000000
00100000
01000000
00010000
00001000
,
01000000
00100000
00010000
00000010
00000001
00000010
00000100
00000001
,
00001000
00000010
00000100
00000010
00000100
00000001
00001000
00000100
00001000
00000100
00010000
00001000
00100000
00010000
00100000
00010000
,
00101000
00000000
00000000
00000000
;
